osu file format v14

[General]
AudioFilename: audio.mp3
AudioLeadIn: 0
PreviewTime: 4947
Countdown: 0
SampleSet: Normal
StackLeniency: 0.7
Mode: 1
LetterboxInBreaks: 0
WidescreenStoryboard: 1

[Editor]
DistanceSpacing: 0.1
BeatDivisor: 2
GridSize: 32
TimelineZoom: 3.000005

[Metadata]
Title:Play
TitleUnicode:Play
Artist:Thaehan
ArtistUnicode:Thaehan
Creator:BrokenArrow
Version:Muzukashii
Source:
Tags:Cychloryn Mekatsune Featured Artist Electronic Instrumental 8-bit Chiptune
BeatmapID:2410728
BeatmapSetID:1154580

[Difficulty]
HPDrainRate:7
CircleSize:5
OverallDifficulty:5
ApproachRate:5
SliderMultiplier:1.4
SliderTickRate:1

[Events]
//Background and Video events
0,0,"wallpaper.jpg",0,0
//Break Periods
//Storyboard Layer 0 (Background)
//Storyboard Layer 1 (Fail)
//Storyboard Layer 2 (Pass)
//Storyboard Layer 3 (Foreground)
//Storyboard Layer 4 (Overlay)
//Storyboard Sound Samples

[TimingPoints]
154,309.278350515464,4,1,0,100,1,0
24896,-95.2380952380952,4,1,0,100,0,0
25205,-90.9090909090909,4,1,0,100,0,0
25514,-86.9565217391304,4,1,0,100,0,0
25824,-83.3333333333333,4,1,0,100,0,0
26133,-100,4,1,0,100,0,0

[HitObjects]
256,192,5102,5,4,0:0:0:0:
256,192,5411,1,8,0:0:0:0:
256,192,5566,1,8,0:0:0:0:
256,192,5721,1,0,0:0:0:0:
256,192,6030,1,8,0:0:0:0:
256,192,6184,1,8,0:0:0:0:
256,192,6339,1,0,0:0:0:0:
256,192,6494,1,0,0:0:0:0:
256,192,6648,1,8,0:0:0:0:
256,192,6726,1,8,0:0:0:0:
256,192,6803,1,8,0:0:0:0:
256,192,6958,1,0,0:0:0:0:
256,192,7112,1,0,0:0:0:0:
256,192,7267,1,8,0:0:0:0:
256,192,7422,1,0,0:0:0:0:
256,192,7576,1,8,0:0:0:0:
256,192,7885,1,0,0:0:0:0:
256,192,8040,1,0,0:0:0:0:
256,192,8195,1,8,0:0:0:0:
256,192,8504,1,0,0:0:0:0:
256,192,8659,1,0,0:0:0:0:
256,192,8813,1,8,0:0:0:0:
256,192,8968,1,8,0:0:0:0:
256,192,9123,1,0,0:0:0:0:
256,192,9277,1,0,0:0:0:0:
256,192,9432,1,8,0:0:0:0:
256,192,9586,1,8,0:0:0:0:
256,192,9664,1,8,0:0:0:0:
256,192,9741,1,8,0:0:0:0:
256,192,9896,1,8,0:0:0:0:
256,192,10050,1,0,0:0:0:0:
256,192,10669,1,8,0:0:0:0:
256,192,10978,1,0,0:0:0:0:
256,192,11133,1,8,0:0:0:0:
256,192,11288,1,0,0:0:0:0:
256,192,11597,1,0,0:0:0:0:
256,192,11751,1,0,0:0:0:0:
256,192,11829,1,0,0:0:0:0:
256,192,11906,1,0,0:0:0:0:
256,192,12061,1,0,0:0:0:0:
256,192,12215,1,8,0:0:0:0:
256,192,12370,1,0,0:0:0:0:
256,192,12525,1,8,0:0:0:0:
256,192,12679,1,8,0:0:0:0:
256,192,12834,1,8,0:0:0:0:
256,192,12989,1,0,0:0:0:0:
256,192,13143,1,8,0:0:0:0:
256,192,13298,1,8,0:0:0:0:
256,192,13452,1,8,0:0:0:0:
256,192,13762,1,8,0:0:0:0:
256,192,13916,1,0,0:0:0:0:
256,192,14071,1,8,0:0:0:0:
256,192,14226,1,0,0:0:0:0:
256,192,14380,1,8,0:0:0:0:
256,192,14535,1,0,0:0:0:0:
256,192,14612,1,0,0:0:0:0:
256,192,14690,1,0,0:0:0:0:
256,192,14844,1,0,0:0:0:0:
256,192,14999,1,12,0:0:0:0:
256,192,15618,1,0,0:0:0:0:
256,192,15772,1,0,0:0:0:0:
256,192,15927,1,8,0:0:0:0:
256,192,16081,1,0,0:0:0:0:
256,192,16236,1,0,0:0:0:0:
256,192,16545,1,8,0:0:0:0:
256,192,16700,1,0,0:0:0:0:
256,192,16777,1,0,0:0:0:0:
256,192,16855,1,0,0:0:0:0:
256,192,17009,1,0,0:0:0:0:
256,192,17164,1,8,0:0:0:0:
256,192,17319,1,0,0:0:0:0:
256,192,17473,1,8,0:0:0:0:
256,192,17628,1,8,0:0:0:0:
256,192,17705,1,8,0:0:0:0:
256,192,17782,1,8,0:0:0:0:
256,192,17937,1,0,0:0:0:0:
256,192,18092,1,8,0:0:0:0:
256,192,18246,1,8,0:0:0:0:
256,192,18401,1,8,0:0:0:0:
256,192,18710,1,8,0:0:0:0:
256,192,18865,1,0,0:0:0:0:
256,192,19020,1,8,0:0:0:0:
256,192,19174,1,0,0:0:0:0:
256,192,19329,1,8,0:0:0:0:
256,192,19483,1,8,0:0:0:0:
256,192,19561,1,8,0:0:0:0:
256,192,19638,1,8,0:0:0:0:
256,192,19793,1,0,0:0:0:0:
256,192,19947,1,0,0:0:0:0:
256,192,20411,1,0,0:0:0:0:
256,192,20489,1,0,0:0:0:0:
256,192,20566,1,0,0:0:0:0:
256,192,20721,1,0,0:0:0:0:
256,192,20875,1,8,0:0:0:0:
256,192,21030,1,0,0:0:0:0:
256,192,21185,1,0,0:0:0:0:
256,192,21494,1,0,0:0:0:0:
256,192,21648,1,0,0:0:0:0:
256,192,21726,1,0,0:0:0:0:
256,192,21803,1,0,0:0:0:0:
256,192,21958,1,0,0:0:0:0:
256,192,22112,1,8,0:0:0:0:
256,192,22267,1,0,0:0:0:0:
256,192,22422,1,8,0:0:0:0:
256,192,22576,1,8,0:0:0:0:
256,192,22654,1,8,0:0:0:0:
256,192,22731,1,8,0:0:0:0:
256,192,22885,1,0,0:0:0:0:
256,192,23040,1,8,0:0:0:0:
256,192,23195,1,8,0:0:0:0:
256,192,23272,1,8,0:0:0:0:
256,192,23349,1,8,0:0:0:0:
256,192,23659,1,8,0:0:0:0:
256,192,23813,1,0,0:0:0:0:
256,192,23968,1,8,0:0:0:0:
256,192,24123,1,0,0:0:0:0:
256,192,24277,1,8,0:0:0:0:
256,192,24432,1,0,0:0:0:0:
256,192,24587,1,8,0:0:0:0:
256,192,24741,1,0,0:0:0:0:
256,192,24896,1,12,0:0:0:0:
256,192,25050,1,0,0:0:0:0:
256,192,25205,1,12,0:0:0:0:
256,192,25360,1,0,0:0:0:0:
256,192,25514,1,12,0:0:0:0:
256,192,25669,1,0,0:0:0:0:
256,192,25824,1,12,0:0:0:0:
256,192,25978,1,0,0:0:0:0:
256,192,26288,1,8,0:0:0:0:
256,192,26597,1,8,0:0:0:0:
256,192,26906,1,8,0:0:0:0:
256,192,27215,1,8,0:0:0:0:
256,192,27525,1,8,0:0:0:0:
256,192,27834,1,8,0:0:0:0:
256,192,27989,1,0,0:0:0:0:
256,192,28143,1,8,0:0:0:0:
256,192,28298,1,8,0:0:0:0:
256,192,28452,1,8,0:0:0:0:
256,192,28607,1,4,0:0:0:0:
256,192,29380,1,8,0:0:0:0:
256,192,29690,1,8,0:0:0:0:
256,192,29844,1,0,0:0:0:0:
256,192,30154,1,0,0:0:0:0:
256,192,30308,1,8,0:0:0:0:
256,192,30463,1,0,0:0:0:0:
256,192,30772,1,8,0:0:0:0:
256,192,30927,1,8,0:0:0:0:
256,192,31081,1,0,0:0:0:0:
256,192,31545,1,8,0:0:0:0:
256,192,31855,1,8,0:0:0:0:
256,192,32164,1,8,0:0:0:0:
256,192,32318,1,0,0:0:0:0:
256,192,32628,1,8,0:0:0:0:
256,192,32782,1,8,0:0:0:0:
256,192,32937,1,0,0:0:0:0:
256,192,33092,1,0,0:0:0:0:
256,192,33246,1,8,0:0:0:0:
256,192,33324,1,8,0:0:0:0:
256,192,33401,1,8,0:0:0:0:
256,192,33556,1,0,0:0:0:0:
256,192,34019,1,8,0:0:0:0:
256,192,34329,1,8,0:0:0:0:
256,192,34638,1,8,0:0:0:0:
256,192,34793,1,0,0:0:0:0:
256,192,35102,1,8,0:0:0:0:
256,192,35257,1,8,0:0:0:0:
256,192,35411,1,0,0:0:0:0:
256,192,35721,1,8,0:0:0:0:
256,192,35875,1,8,0:0:0:0:
256,192,36030,1,0,0:0:0:0:
256,192,36184,1,0,0:0:0:0:
256,192,36494,1,8,0:0:0:0:
256,192,36648,1,0,0:0:0:0:
256,192,36803,1,0,0:0:0:0:
256,192,36880,1,0,0:0:0:0:
256,192,36958,1,0,0:0:0:0:
256,192,37112,1,0,0:0:0:0:
256,192,37267,1,0,0:0:0:0:
256,192,37422,1,0,0:0:0:0:
256,192,37576,1,8,0:0:0:0:
256,192,37885,1,0,0:0:0:0:
256,192,37963,1,0,0:0:0:0:
256,192,38040,1,0,0:0:0:0:
256,192,38195,1,8,0:0:0:0:
256,192,38349,1,0,0:0:0:0:
256,192,38504,1,4,0:0:0:0:
256,192,39277,1,8,0:0:0:0:
256,192,39587,1,8,0:0:0:0:
256,192,39741,1,0,0:0:0:0:
256,192,40050,1,0,0:0:0:0:
256,192,40205,1,8,0:0:0:0:
256,192,40360,1,0,0:0:0:0:
256,192,40514,1,0,0:0:0:0:
256,192,40669,1,8,0:0:0:0:
256,192,40824,1,0,0:0:0:0:
256,192,40978,1,0,0:0:0:0:
256,192,41442,1,8,0:0:0:0:
256,192,41752,1,8,0:0:0:0:
256,192,42061,1,8,0:0:0:0:
256,192,42215,1,0,0:0:0:0:
256,192,42370,1,8,0:0:0:0:
256,192,42525,1,8,0:0:0:0:
256,192,42679,1,8,0:0:0:0:
256,192,42834,1,0,0:0:0:0:
256,192,42989,1,8,0:0:0:0:
256,192,43066,1,8,0:0:0:0:
256,192,43143,1,8,0:0:0:0:
256,192,43298,1,8,0:0:0:0:
256,192,43453,1,0,0:0:0:0:
256,192,43916,1,8,0:0:0:0:
256,192,44226,1,8,0:0:0:0:
256,192,44535,1,8,0:0:0:0:
256,192,44690,1,0,0:0:0:0:
256,192,44844,1,0,0:0:0:0:
256,192,44999,1,8,0:0:0:0:
256,192,45154,1,8,0:0:0:0:
256,192,45308,1,0,0:0:0:0:
256,192,45618,1,8,0:0:0:0:
256,192,45772,1,8,0:0:0:0:
256,192,45927,1,0,0:0:0:0:
256,192,46081,1,0,0:0:0:0:
256,192,46236,1,8,0:0:0:0:
256,192,46391,1,8,0:0:0:0:
256,192,46545,1,0,0:0:0:0:
256,192,46700,1,0,0:0:0:0:
256,192,46777,1,0,0:0:0:0:
256,192,46855,1,0,0:0:0:0:
256,192,47009,1,0,0:0:0:0:
256,192,47164,1,0,0:0:0:0:
256,192,47473,1,8,0:0:0:0:
256,192,47628,1,0,0:0:0:0:
256,192,47782,1,0,0:0:0:0:
256,192,47860,1,0,0:0:0:0:
256,192,47937,1,0,0:0:0:0:
256,192,48092,1,8,0:0:0:0:
256,192,48246,1,0,0:0:0:0:
256,192,48401,1,12,0:0:0:0:
256,192,48556,12,0,49638,0:0:0:0:
