osu file format v14

[General]
AudioFilename: audio.mp3
AudioLeadIn: 0
PreviewTime: 4947
Countdown: 0
SampleSet: Normal
StackLeniency: 0.7
Mode: 1
LetterboxInBreaks: 0
WidescreenStoryboard: 0

[Editor]
DistanceSpacing: 0.1
BeatDivisor: 4
GridSize: 32
TimelineZoom: 3.600005

[Metadata]
Title:Play
TitleUnicode:Play
Artist:Thaehan
ArtistUnicode:Thaehan
Creator:BrokenArrow
Version:Inner Oni
Source:
Tags:Cychloryn Mekatsune Featured Artist Electronic Instrumental 8-bit Chiptune
BeatmapID:2409630
BeatmapSetID:1154580

[Difficulty]
HPDrainRate:6
CircleSize:5
OverallDifficulty:6
ApproachRate:5
SliderMultiplier:1.4
SliderTickRate:1

[Events]
//Background and Video events
0,0,"wallpaper.jpg",0,0
//Break Periods
//Storyboard Layer 0 (Background)
//Storyboard Layer 1 (Fail)
//Storyboard Layer 2 (Pass)
//Storyboard Layer 3 (Foreground)
//Storyboard Layer 4 (Overlay)
//Storyboard Sound Samples

[TimingPoints]
154,309.278350515464,4,1,0,100,1,0
24896,-92.5925925925926,4,1,0,100,0,0
25205,-86.2068965517241,4,1,0,100,0,0
25514,-80.6451612903226,4,1,0,100,0,0
25824,-75.7575757575758,4,1,0,100,0,0
26133,-71.4285714285714,4,1,0,100,0,0
26365,-100,4,1,0,100,0,0

[HitObjects]
256,192,4483,5,0,0:0:0:0:
256,192,4638,1,8,0:0:0:0:
256,192,4715,1,0,0:0:0:0:
256,192,4793,1,0,0:0:0:0:
256,192,4947,1,8,0:0:0:0:
256,192,5102,5,4,0:0:0:0:
256,192,5411,1,0,0:0:0:0:
256,192,5489,1,8,0:0:0:0:
256,192,5566,1,0,0:0:0:0:
256,192,5643,1,0,0:0:0:0:
256,192,5721,1,0,0:0:0:0:
256,192,5875,1,0,0:0:0:0:
256,192,6030,1,8,0:0:0:0:
256,192,6107,1,0,0:0:0:0:
256,192,6184,1,0,0:0:0:0:
256,192,6262,1,8,0:0:0:0:
256,192,6339,1,0,0:0:0:0:
256,192,6494,1,8,0:0:0:0:
256,192,6648,1,0,0:0:0:0:
256,192,6700,1,8,0:0:0:0:
256,192,6751,1,8,0:0:0:0:
256,192,6803,1,0,0:0:0:0:
256,192,6880,1,0,0:0:0:0:
256,192,6958,1,0,0:0:0:0:
256,192,7112,1,0,0:0:0:0:
256,192,7267,1,8,0:0:0:0:
256,192,7422,1,0,0:0:0:0:
256,192,7576,1,8,0:0:0:0:
256,192,7731,1,8,0:0:0:0:
256,192,7808,1,0,0:0:0:0:
256,192,7885,1,8,0:0:0:0:
256,192,7963,1,0,0:0:0:0:
256,192,8040,1,0,0:0:0:0:
256,192,8117,1,0,0:0:0:0:
256,192,8195,1,8,0:0:0:0:
256,192,8349,1,0,0:0:0:0:
256,192,8427,1,0,0:0:0:0:
256,192,8504,1,8,0:0:0:0:
256,192,8581,1,0,0:0:0:0:
256,192,8659,1,8,0:0:0:0:
256,192,8736,1,8,0:0:0:0:
256,192,8813,1,0,0:0:0:0:
256,192,8968,1,8,0:0:0:0:
256,192,9045,1,0,0:0:0:0:
256,192,9123,1,0,0:0:0:0:
256,192,9277,1,8,0:0:0:0:
256,192,9355,1,0,0:0:0:0:
256,192,9432,1,0,0:0:0:0:
256,192,9586,1,8,0:0:0:0:
256,192,9664,1,0,0:0:0:0:
256,192,9741,1,0,0:0:0:0:
256,192,9818,1,0,0:0:0:0:
256,192,9896,1,8,0:0:0:0:
256,192,9973,1,0,0:0:0:0:
256,192,10050,1,0,0:0:0:0:
256,192,10360,1,0,0:0:0:0:
256,192,10437,1,0,0:0:0:0:
256,192,10514,1,8,0:0:0:0:
256,192,10592,1,0,0:0:0:0:
256,192,10669,1,0,0:0:0:0:
256,192,10824,1,0,0:0:0:0:
256,192,10978,1,8,0:0:0:0:
256,192,11056,1,8,0:0:0:0:
256,192,11133,1,0,0:0:0:0:
256,192,11210,1,8,0:0:0:0:
256,192,11288,1,0,0:0:0:0:
256,192,11442,1,8,0:0:0:0:
256,192,11519,1,8,0:0:0:0:
256,192,11597,1,0,0:0:0:0:
256,192,11751,1,8,0:0:0:0:
256,192,11803,1,8,0:0:0:0:
256,192,11855,1,8,0:0:0:0:
256,192,11906,1,0,0:0:0:0:
256,192,12061,1,0,0:0:0:0:
256,192,12215,1,8,0:0:0:0:
256,192,12370,1,0,0:0:0:0:
256,192,12525,1,8,0:0:0:0:
256,192,12679,1,8,0:0:0:0:
256,192,12757,1,0,0:0:0:0:
256,192,12834,1,8,0:0:0:0:
256,192,12911,1,8,0:0:0:0:
256,192,12989,1,8,0:0:0:0:
256,192,13066,1,0,0:0:0:0:
256,192,13143,1,8,0:0:0:0:
256,192,13298,1,8,0:0:0:0:
256,192,13375,1,0,0:0:0:0:
256,192,13452,1,8,0:0:0:0:
256,192,13530,1,0,0:0:0:0:
256,192,13607,1,0,0:0:0:0:
256,192,13684,1,0,0:0:0:0:
256,192,13762,1,8,0:0:0:0:
256,192,13916,1,0,0:0:0:0:
256,192,13994,1,0,0:0:0:0:
256,192,14071,1,8,0:0:0:0:
256,192,14226,1,0,0:0:0:0:
256,192,14380,1,8,0:0:0:0:
256,192,14535,1,0,0:0:0:0:
256,192,14612,1,0,0:0:0:0:
256,192,14690,1,8,0:0:0:0:
256,192,14844,1,0,0:0:0:0:
256,192,14999,1,12,0:0:0:0:
256,192,15308,1,8,0:0:0:0:
256,192,15385,1,0,0:0:0:0:
256,192,15463,1,8,0:0:0:0:
256,192,15540,1,0,0:0:0:0:
256,192,15617,1,0,0:0:0:0:
256,192,15772,1,0,0:0:0:0:
256,192,15927,1,0,0:0:0:0:
256,192,16004,1,0,0:0:0:0:
256,192,16081,1,0,0:0:0:0:
256,192,16159,1,8,0:0:0:0:
256,192,16236,1,0,0:0:0:0:
256,192,16391,1,8,0:0:0:0:
256,192,16545,1,0,0:0:0:0:
256,192,16597,1,8,0:0:0:0:
256,192,16648,1,8,0:0:0:0:
256,192,16700,1,0,0:0:0:0:
256,192,16777,1,0,0:0:0:0:
256,192,16855,1,0,0:0:0:0:
256,192,17009,1,0,0:0:0:0:
256,192,17164,1,8,0:0:0:0:
256,192,17319,1,0,0:0:0:0:
256,192,17473,1,8,0:0:0:0:
256,192,17628,1,8,0:0:0:0:
256,192,17705,1,0,0:0:0:0:
256,192,17782,1,8,0:0:0:0:
256,192,17860,1,0,0:0:0:0:
256,192,17937,1,0,0:0:0:0:
256,192,18014,1,0,0:0:0:0:
256,192,18092,1,8,0:0:0:0:
256,192,18246,1,0,0:0:0:0:
256,192,18324,1,0,0:0:0:0:
256,192,18401,1,8,0:0:0:0:
256,192,18478,1,8,0:0:0:0:
256,192,18556,1,0,0:0:0:0:
256,192,18633,1,8,0:0:0:0:
256,192,18710,1,0,0:0:0:0:
256,192,18865,1,8,0:0:0:0:
256,192,18942,1,0,0:0:0:0:
256,192,19020,1,0,0:0:0:0:
256,192,19174,1,8,0:0:0:0:
256,192,19252,1,0,0:0:0:0:
256,192,19329,1,0,0:0:0:0:
256,192,19483,1,0,0:0:0:0:
256,192,19561,1,0,0:0:0:0:
256,192,19638,1,8,0:0:0:0:
256,192,19715,1,0,0:0:0:0:
256,192,19793,1,0,0:0:0:0:
256,192,19870,1,8,0:0:0:0:
256,192,19947,1,0,0:0:0:0:
256,192,20257,1,8,0:0:0:0:
256,192,20334,1,0,0:0:0:0:
256,192,20411,1,8,0:0:0:0:
256,192,20489,1,0,0:0:0:0:
256,192,20566,1,0,0:0:0:0:
256,192,20721,1,0,0:0:0:0:
256,192,20875,1,8,0:0:0:0:
256,192,20952,1,0,0:0:0:0:
256,192,21030,1,8,0:0:0:0:
256,192,21107,1,8,0:0:0:0:
256,192,21185,1,0,0:0:0:0:
256,192,21339,1,8,0:0:0:0:
256,192,21416,1,8,0:0:0:0:
256,192,21494,1,0,0:0:0:0:
256,192,21648,1,0,0:0:0:0:
256,192,21700,1,8,0:0:0:0:
256,192,21751,1,8,0:0:0:0:
256,192,21803,1,0,0:0:0:0:
256,192,21958,1,8,0:0:0:0:
256,192,22112,1,0,0:0:0:0:
256,192,22267,1,0,0:0:0:0:
256,192,22422,1,8,0:0:0:0:
256,192,22576,1,8,0:0:0:0:
256,192,22654,1,0,0:0:0:0:
256,192,22731,1,8,0:0:0:0:
256,192,22808,1,8,0:0:0:0:
256,192,22886,1,0,0:0:0:0:
256,192,22963,1,0,0:0:0:0:
256,192,23040,1,8,0:0:0:0:
256,192,23195,1,8,0:0:0:0:
256,192,23272,1,0,0:0:0:0:
256,192,23349,1,8,0:0:0:0:
256,192,23504,1,0,0:0:0:0:
256,192,23659,1,8,0:0:0:0:
256,192,23736,1,0,0:0:0:0:
256,192,23813,1,0,0:0:0:0:
256,192,23891,1,0,0:0:0:0:
256,192,23968,1,8,0:0:0:0:
256,192,24123,1,0,0:0:0:0:
256,192,24277,1,8,0:0:0:0:
256,192,24432,1,0,0:0:0:0:
256,192,24509,1,0,0:0:0:0:
256,192,24587,1,8,0:0:0:0:
256,192,24741,1,0,0:0:0:0:
256,192,24896,1,12,0:0:0:0:
256,192,25050,1,0,0:0:0:0:
256,192,25205,1,12,0:0:0:0:
256,192,25360,1,0,0:0:0:0:
256,192,25514,1,12,0:0:0:0:
256,192,25669,1,0,0:0:0:0:
256,192,25824,1,12,0:0:0:0:
256,192,25978,1,0,0:0:0:0:
256,192,26133,1,4,0:0:0:0:
256,192,26288,1,8,0:0:0:0:
256,192,26597,1,8,0:0:0:0:
256,192,26674,1,8,0:0:0:0:
256,192,26751,1,0,0:0:0:0:
256,192,26906,1,8,0:0:0:0:
256,192,27215,1,8,0:0:0:0:
256,192,27293,1,8,0:0:0:0:
256,192,27370,1,0,0:0:0:0:
256,192,27525,1,8,0:0:0:0:
256,192,27679,1,0,0:0:0:0:
256,192,27834,1,0,0:0:0:0:
256,192,27911,1,0,0:0:0:0:
256,192,27989,1,8,0:0:0:0:
256,192,28066,1,0,0:0:0:0:
256,192,28143,1,8,0:0:0:0:
256,192,28221,1,8,0:0:0:0:
256,192,28298,1,0,0:0:0:0:
256,192,28452,1,8,0:0:0:0:
256,192,28607,1,4,0:0:0:0:
256,192,28762,1,8,0:0:0:0:
256,192,29071,1,8,0:0:0:0:
256,192,29148,1,8,0:0:0:0:
256,192,29226,1,0,0:0:0:0:
256,192,29380,1,8,0:0:0:0:
256,192,29690,1,8,0:0:0:0:
256,192,29844,1,0,0:0:0:0:
256,192,29999,1,0,0:0:0:0:
256,192,30154,1,8,0:0:0:0:
256,192,30308,1,0,0:0:0:0:
256,192,30385,1,8,0:0:0:0:
256,192,30463,1,0,0:0:0:0:
256,192,30617,1,8,0:0:0:0:
256,192,30695,1,8,0:0:0:0:
256,192,30772,1,8,0:0:0:0:
256,192,30927,1,8,0:0:0:0:
256,192,31081,1,0,0:0:0:0:
256,192,31236,1,8,0:0:0:0:
256,192,31545,1,8,0:0:0:0:
256,192,31623,1,8,0:0:0:0:
256,192,31700,1,0,0:0:0:0:
256,192,31855,1,8,0:0:0:0:
256,192,32009,1,8,0:0:0:0:
256,192,32164,1,0,0:0:0:0:
256,192,32241,1,8,0:0:0:0:
256,192,32318,1,0,0:0:0:0:
256,192,32473,1,0,0:0:0:0:
256,192,32628,1,8,0:0:0:0:
256,192,32782,1,8,0:0:0:0:
256,192,32937,1,0,0:0:0:0:
256,192,33092,1,8,0:0:0:0:
256,192,33169,1,8,0:0:0:0:
256,192,33246,1,8,0:0:0:0:
256,192,33401,1,8,0:0:0:0:
256,192,33556,1,0,0:0:0:0:
256,192,33710,1,8,0:0:0:0:
256,192,34019,1,8,0:0:0:0:
256,192,34097,1,8,0:0:0:0:
256,192,34174,1,0,0:0:0:0:
256,192,34329,1,8,0:0:0:0:
256,192,34638,1,8,0:0:0:0:
256,192,34793,1,0,0:0:0:0:
256,192,34947,1,0,0:0:0:0:
256,192,35025,1,0,0:0:0:0:
256,192,35102,1,8,0:0:0:0:
256,192,35257,1,8,0:0:0:0:
256,192,35411,1,0,0:0:0:0:
256,192,35566,1,8,0:0:0:0:
256,192,35643,1,8,0:0:0:0:
256,192,35721,1,8,0:0:0:0:
256,192,35875,1,8,0:0:0:0:
256,192,36030,1,0,0:0:0:0:
256,192,36184,1,8,0:0:0:0:
256,192,36494,1,8,0:0:0:0:
256,192,36648,1,0,0:0:0:0:
256,192,36803,1,0,0:0:0:0:
256,192,36880,1,8,0:0:0:0:
256,192,36958,1,0,0:0:0:0:
256,192,37112,1,8,0:0:0:0:
256,192,37267,1,0,0:0:0:0:
256,192,37422,1,0,0:0:0:0:
256,192,37576,1,8,0:0:0:0:
256,192,37731,1,0,0:0:0:0:
256,192,37885,1,0,0:0:0:0:
256,192,37963,1,0,0:0:0:0:
256,192,38040,1,0,0:0:0:0:
256,192,38117,1,0,0:0:0:0:
256,192,38195,1,8,0:0:0:0:
256,192,38272,1,8,0:0:0:0:
256,192,38349,1,0,0:0:0:0:
256,192,38427,1,0,0:0:0:0:
256,192,38504,1,12,0:0:0:0:
256,192,38659,1,8,0:0:0:0:
256,192,38968,1,8,0:0:0:0:
256,192,39045,1,8,0:0:0:0:
256,192,39123,1,8,0:0:0:0:
256,192,39277,1,8,0:0:0:0:
256,192,39587,1,8,0:0:0:0:
256,192,39664,1,8,0:0:0:0:
256,192,39741,1,0,0:0:0:0:
256,192,39896,1,8,0:0:0:0:
256,192,40050,1,8,0:0:0:0:
256,192,40205,1,8,0:0:0:0:
256,192,40360,1,0,0:0:0:0:
256,192,40514,1,8,0:0:0:0:
256,192,40592,1,0,0:0:0:0:
256,192,40669,1,0,0:0:0:0:
256,192,40824,1,0,0:0:0:0:
256,192,40901,1,8,0:0:0:0:
256,192,40978,1,0,0:0:0:0:
256,192,41133,1,8,0:0:0:0:
256,192,41442,1,8,0:0:0:0:
256,192,41519,1,0,0:0:0:0:
256,192,41597,1,0,0:0:0:0:
256,192,41752,1,8,0:0:0:0:
256,192,41906,1,8,0:0:0:0:
256,192,42061,1,8,0:0:0:0:
256,192,42138,1,8,0:0:0:0:
256,192,42215,1,0,0:0:0:0:
256,192,42370,1,8,0:0:0:0:
256,192,42525,1,8,0:0:0:0:
256,192,42679,1,8,0:0:0:0:
256,192,42834,1,0,0:0:0:0:
256,192,42989,1,8,0:0:0:0:
256,192,43066,1,8,0:0:0:0:
256,192,43143,1,8,0:0:0:0:
256,192,43298,1,8,0:0:0:0:
256,192,43453,1,0,0:0:0:0:
256,192,43607,1,8,0:0:0:0:
256,192,43916,1,8,0:0:0:0:
256,192,43994,1,8,0:0:0:0:
256,192,44071,1,0,0:0:0:0:
256,192,44226,1,8,0:0:0:0:
256,192,44535,1,0,0:0:0:0:
256,192,44612,1,8,0:0:0:0:
256,192,44690,1,0,0:0:0:0:
256,192,44844,1,0,0:0:0:0:
256,192,44999,1,8,0:0:0:0:
256,192,45154,1,8,0:0:0:0:
256,192,45308,1,0,0:0:0:0:
256,192,45463,1,0,0:0:0:0:
256,192,45540,1,0,0:0:0:0:
256,192,45618,1,8,0:0:0:0:
256,192,45772,1,8,0:0:0:0:
256,192,45927,1,0,0:0:0:0:
256,192,46081,1,8,0:0:0:0:
256,192,46391,1,8,0:0:0:0:
256,192,46545,1,0,0:0:0:0:
256,192,46700,1,0,0:0:0:0:
256,192,46777,1,8,0:0:0:0:
256,192,46855,1,0,0:0:0:0:
256,192,47009,1,8,0:0:0:0:
256,192,47164,1,0,0:0:0:0:
256,192,47319,1,0,0:0:0:0:
256,192,47473,1,8,0:0:0:0:
256,192,47628,1,0,0:0:0:0:
256,192,47782,1,0,0:0:0:0:
256,192,47860,1,0,0:0:0:0:
256,192,47937,1,0,0:0:0:0:
256,192,48014,1,0,0:0:0:0:
256,192,48092,1,8,0:0:0:0:
256,192,48169,1,8,0:0:0:0:
256,192,48246,1,0,0:0:0:0:
256,192,48324,1,0,0:0:0:0:
256,192,48401,1,12,0:0:0:0:
256,192,48556,12,0,49639,0:0:0:0:
