osu file format v14

[General]
AudioFilename: audio.mp3
AudioLeadIn: 0
PreviewTime: 76296
Countdown: 0
SampleSet: Soft
StackLeniency: 0.4
Mode: 0
LetterboxInBreaks: 0
WidescreenStoryboard: 1

[Editor]
Bookmarks: 11442,12079,12238,12716,22901,24811,29904,33087,34997,40090,43273,45182,48365,49320,52026,53458,63644,65872,85925
DistanceSpacing: 1.1
BeatDivisor: 4
GridSize: 4
TimelineZoom: 2

[Metadata]
Title:Ohayou !
TitleUnicode:OhayƓ !
Artist:Thaehan
ArtistUnicode:Thaehan
Creator:azamaki
Version:Seonah's Expert
Source:osu!
Tags:loki bwa ohayo electronic instrumental fa featured artist Sweets Seonah -Lian- Lian2002 Houtaro
BeatmapID:2444943
BeatmapSetID:1030093

[Difficulty]
HPDrainRate:5
CircleSize:5
OverallDifficulty:8.5
ApproachRate:9
SliderMultiplier:1.94
SliderTickRate:1

[Events]
//Background and Video events
0,0,"sarada.jpg",0,0
//Break Periods
//Storyboard Layer 0 (Background)
//Storyboard Layer 1 (Fail)
//Storyboard Layer 2 (Pass)
//Storyboard Layer 3 (Foreground)
//Storyboard Layer 4 (Overlay)
//Storyboard Sound Samples

[TimingPoints]
-16,318.302387267905,4,2,0,60,1,0
2212,-100,4,2,0,45,0,0
2530,-125,4,2,0,45,0,0
12716,-100,4,2,0,75,0,0
13034,-83.3333333333333,4,2,0,75,0,0
13989,-100,4,2,0,75,0,0
15580,-83.3333333333333,4,2,0,75,0,0
16535,-100,4,2,0,75,0,0
18127,-83.3333333333333,4,2,0,75,0,0
19082,-100,4,2,0,75,0,0
20673,-83.3333333333333,4,2,0,75,0,0
22901,-83.3333333333333,4,2,0,60,0,0
23220,-125,4,2,0,60,0,0
33405,-100,4,2,0,60,0,0
41999,-125,4,2,0,60,0,0
43273,-100,4,2,0,60,0,0
62371,-100,4,2,0,45,0,0
66190,-125,4,2,0,45,0,0
75739,-100,4,2,0,45,0,0
76376,-83.3333333333333,4,2,0,75,0,0
76694,-71.4285714285714,4,2,0,75,0,0
77649,-83.3333333333333,4,2,0,75,0,0
79241,-71.4285714285714,4,2,0,75,0,0
80196,-83.3333333333333,4,2,0,75,0,0
81787,-71.4285714285714,4,2,0,75,0,0
84015,-83.3333333333333,4,2,0,75,0,0
84334,-71.4285714285714,4,2,0,75,0,0
86562,-71.4285714285714,4,2,0,60,0,0
87835,-71.4285714285714,4,2,0,75,0,0
89108,-83.3333333333333,4,2,0,75,0,0
89426,-71.4285714285714,4,2,0,75,0,0
90381,-83.3333333333333,4,2,0,75,0,0
91973,-71.4285714285714,4,2,0,75,0,0
92928,-83.3333333333333,4,2,0,75,0,0

[Colours]
Combo1 : 255,255,32
Combo2 : 255,119,187
Combo3 : 101,189,254
Combo4 : 128,255,0

[HitObjects]
9,296,2212,5,2,0:0:0:0:
22,296,2371,1,2,0:0:0:0:
0,306,2530,6,0,B|60:306|60:306|92:330|92:330|148:330,1,155.2,4|2,0:0|0:0,0:0:0:0:
147,330,3167,6,0,L|145:368,2,38.8,2|0|0,0:0|0:0|0:0,0:0:0:0:
208,282,3485,1,2,0:0:0:0:
208,282,3644,1,0,0:0:0:0:
148,213,3803,2,0,L|143:135,1,77.6,2|0,0:0|0:0,0:0:0:0:
199,69,4121,1,2,0:0:0:0:
199,69,4281,1,0,0:0:0:0:
96,9,4440,1,2,0:0:0:0:
96,9,4758,5,2,0:0:0:0:
96,22,4917,1,2,0:0:0:0:
86,1,5076,6,0,B|86:60|86:60|62:92|62:92|62:148,1,155.2,4|2,0:0|0:0,0:0:0:0:
62,148,5713,6,0,L|24:146,2,38.8,2|0|0,0:0|0:0|0:0,0:0:0:0:
148,213,6031,1,2,0:0:0:0:
243,160,6190,1,0,0:0:0:0:
325,268,6350,5,2,0:0:0:0:
325,268,7145,5,0,0:0:0:0:
324,281,7304,1,2,0:0:0:0:
323,294,7464,1,0,0:0:0:0:
382,205,7623,6,0,L|373:127,1,77.6,4|0,0:0|0:0,0:0:0:0:
310,79,7941,2,0,L|233:94,1,77.6,2|0,0:0|0:0,0:0:0:0:
161,29,8259,1,2,0:0:0:0:
163,16,8339,1,0,0:0:0:0:
165,3,8419,1,0,0:0:0:0:
83,80,8578,1,2,0:0:0:0:
83,80,8737,1,0,0:0:0:0:
145,147,8896,6,0,P|154:184|145:221,1,77.6,2|0,0:0|0:0,0:0:0:0:
74,359,9214,2,0,P|64:321|73:284,1,77.6,2|0,0:0|0:0,0:0:0:0:
152,322,9533,5,2,0:0:0:0:
152,322,9851,5,2,0:0:0:0:
215,370,10010,1,2,0:0:0:0:
287,312,10169,2,0,L|368:328,1,77.6,4|0,0:0|0:0,0:0:0:0:
433,271,10487,2,0,L|438:188,1,77.6,2|0,0:0|0:0,0:0:0:0:
510,134,10806,1,2,0:0:0:0:
510,134,10965,1,0,0:0:0:0:
468,47,11124,5,2,0:0:0:0:
367,128,11283,1,0,0:0:0:0:
297,66,11442,6,0,L|299:27,3,38.8,2|2|4|0,0:0|0:0|0:0|0:0,0:0:0:0:
228,136,11761,2,0,L|226:97,3,38.8
279,195,12079,2,0,L|317:188,1,38.8,0|0,3:0|3:0,0:0:0:0:
209,251,12238,2,0,L|170:244,1,38.8,0|0,3:0|3:0,0:0:0:0:
284,307,12397,5,4,3:0:0:0:
295,323,12477,1,0,0:0:0:0:
300,344,12556,1,4,3:0:0:0:
298,365,12636,1,0,0:0:0:0:
290,382,12716,6,0,B|228:354|228:354|152:367,1,145.5,4|0,3:0|0:0,0:0:0:0:
142,371,13034,2,0,L|144:312,1,58.199998223877,4|0,0:0|0:0,0:0:0:0:
59,209,13352,1,4,3:0:0:0:
42,207,13432,1,2,0:0:0:0:
31,214,13511,1,2,0:0:0:0:
141,168,13671,1,0,1:0:0:0:
141,168,13830,1,0,0:0:0:0:
80,97,13989,6,0,B|69:48|69:48|81:2,1,97,2|2,3:2|0:2,0:0:0:0:
209,7,14307,2,0,B|219:55|219:55|207:101,1,97,0|2,1:0|0:2,0:0:0:0:
141,168,14625,5,4,3:0:0:0:
141,168,14944,5,0,1:0:0:0:
206,101,15103,1,2,0:0:0:0:
336,159,15262,2,0,P|407:164|465:123,1,145.5,4|0,3:0|0:0,3:0:0:0:
469,115,15580,2,0,P|466:87|441:74,1,58.199998223877,4|0,1:0|0:0,0:0:0:0:
393,270,15899,1,4,3:0:0:0:
391,253,15978,1,2,0:0:0:0:
397,236,16058,1,0,0:0:0:0:
479,285,16217,1,0,1:0:0:0:
396,384,16376,1,2,0:2:0:0:
329,324,16535,6,0,L|232:335,1,97,4|0,3:0|0:0,0:0:0:0:
116,274,16854,2,0,L|213:263,1,97,0|0,1:0|0:0,0:0:0:0:
69,344,17172,5,4,3:0:0:0:
73,353,17331,1,4,3:0:0:0:
0,276,17490,1,2,1:2:0:0:
48,185,17649,1,0,0:0:0:0:
149,200,17808,6,0,B|165:129|165:129|133:64,1,145.5,4|0,3:0|0:0,0:0:0:0:
129,57,18127,2,0,P|110:36|120:10,1,58.199998223877,4|0,0:0|0:0,0:0:0:0:
275,76,18445,1,4,3:0:0:0:
259,73,18525,1,2,0:0:0:0:
246,80,18604,1,2,0:0:0:0:
320,13,18763,1,0,1:0:0:0:
437,81,18922,1,2,0:2:0:0:
366,137,19082,6,0,P|353:184|362:231,1,97,4|2,3:0|0:2,0:0:0:0:
432,384,19400,2,0,P|445:337|436:290,1,97,2|2,1:2|0:2,0:0:0:0:
356,334,19718,5,4,3:0:0:0:
356,334,20037,5,0,1:0:0:0:
281,384,20196,1,2,0:0:0:0:
188,306,20355,2,0,L|202:161,1,145.5,4|0,3:0|0:0,0:0:0:0:
204,150,20673,2,0,B|230:139|230:139|248:116,1,58.199998223877,4|0,0:0|0:0,0:0:0:0:
173,10,20991,1,4,3:0:0:0:
186,4,21071,1,2,0:0:0:0:
202,8,21151,1,2,0:0:0:0:
113,93,21310,1,0,1:0:0:0:
113,93,21469,1,2,0:2:0:0:
30,39,21628,5,4,3:0:0:0:
30,39,21946,5,0,1:0:0:0:
30,39,22265,5,4,3:0:0:0:
113,93,22424,1,4,3:0:0:0:
44,168,22583,5,4,3:0:0:0:
36,184,22663,1,0,3:0:0:0:
33,203,22742,1,0,3:0:0:0:
38,222,22822,1,0,3:0:0:0:
49,237,22901,5,4,0:0:0:0:
135,204,23060,1,2,0:0:0:0:
198,267,23220,2,0,L|194:305,2,38.8,4|2|2,3:0|0:0|0:0,0:0:0:0:
264,224,23538,1,4,3:0:0:0:
262,210,23617,1,2,0:0:0:0:
261,197,23697,1,2,0:0:0:0:
205,144,23856,2,0,L|207:105,2,38.8,4|2|2,3:0|0:0|0:0,0:0:0:0:
287,28,24174,5,4,3:0:0:0:
339,98,24334,1,2,0:0:0:0:
414,43,24493,2,0,L|410:5,2,38.8,4|2|2,3:0|0:0|0:0,0:0:0:0:
512,107,24811,6,0,L|474:110,3,38.8,4|0|2|0,3:0|0:0|0:0|0:0,0:0:0:0:
414,161,25129,1,4,3:0:0:0:
412,178,25209,1,0,0:0:0:0:
409,195,25289,1,2,0:0:0:0:
408,211,25368,1,0,0:0:0:0:
407,227,25448,5,4,0:0:0:0:
472,296,25607,1,2,0:0:0:0:
385,357,25766,1,4,3:0:0:0:
387,370,25846,1,2,0:0:0:0:
388,384,25925,1,2,0:0:0:0:
298,310,26084,6,0,L|298:271,3,38.8,4|2|2|2,3:0|0:0|0:0|0:0,0:0:0:0:
233,234,26403,1,4,3:0:0:0:
233,234,26562,1,2,0:0:0:0:
293,150,26721,6,0,L|297:72,1,77.6,4|0,3:0|0:0,0:0:0:0:
378,160,27039,2,0,L|382:82,1,77.6,0|0,1:0|0:0,0:0:0:0:
203,77,27358,6,0,L|198:-1,1,77.6,4|4,3:0|3:0,0:0:0:0:
116,86,27676,2,0,L|111:8,1,77.6,0|0,1:0|0:0,0:0:0:0:
166,158,27994,5,4,0:0:0:0:
100,225,28153,1,0,0:0:0:0:
38,158,28312,2,0,L|0:161,2,38.8,4|2|2,3:0|0:0|0:0,0:0:0:0:
100,225,28631,1,4,3:0:0:0:
98,238,28710,1,2,0:0:0:0:
97,252,28790,1,2,0:0:0:0:
24,299,28949,2,4,L|25:340,2,38.8,4|2|2,3:0|0:0|0:0,3:0:0:0:
122,384,29267,5,8,0:0:0:0:
177,312,29426,1,2,0:0:0:0:
247,384,29586,2,0,L|246:346,2,38.8,4|2|2,3:0|0:0|0:0,0:0:0:0:
299,285,29904,5,6,3:0:0:0:
318,286,29984,1,2,0:0:0:0:
334,296,30063,1,2,0:0:0:0:
345,312,30143,1,2,0:0:0:0:
349,330,30222,5,6,3:0:0:0:
357,298,30302,1,2,0:0:0:0:
379,272,30381,1,2,0:0:0:0:
408,256,30461,1,2,0:0:0:0:
442,257,30541,6,0,L|480:263,3,38.8,6|2|2|2,3:0|0:0|0:0|0:0,0:0:0:0:
399,187,30859,1,10,0:0:0:0:
399,170,30938,1,2,0:0:0:0:
399,154,31018,1,2,0:0:0:0:
399,138,31098,1,2,0:0:0:0:
399,122,31177,6,0,L|445:126,3,38.8,6|2|2|2,3:0|0:0|0:0|0:0,0:0:0:0:
332,67,31495,1,10,0:0:0:0:
315,68,31575,1,2,0:0:0:0:
299,69,31655,1,2,0:0:0:0:
283,71,31734,1,2,0:0:0:0:
267,72,31814,6,0,L|269:25,3,38.8,6|2|2|2,0:0|0:0|0:0|0:0,0:0:0:0:
208,122,32132,2,0,L|209:160,3,38.8,14|2|2|2,0:0|0:0|0:0|0:0,0:0:0:0:
281,198,32450,6,0,L|334:188,1,38.8,14|2,0:0|0:0,0:0:0:0:
217,248,32609,2,0,L|164:238,1,38.8,2|2,0:0|0:0,0:0:0:0:
273,315,32769,5,14,0:0:0:0:
309,303,32848,1,6,3:0:0:0:
347,311,32928,1,6,3:0:0:0:
376,335,33007,1,6,3:0:0:0:
389,371,33087,5,6,0:0:0:0:
467,307,33246,1,2,0:0:0:0:
401,225,33405,2,0,L|402:176,2,48.5,4|2|2,3:0|0:0|0:0,0:0:0:0:
456,102,33724,1,4,3:0:0:0:
470,108,33803,1,2,0:0:0:0:
477,126,33883,1,2,0:0:0:0:
389,32,34042,1,4,3:0:0:0:
387,16,34121,1,2,0:0:0:0:
399,1,34201,1,2,0:0:0:0:
356,121,34360,5,4,0:0:0:0:
279,67,34519,1,2,0:0:0:0:
201,137,34678,2,0,L|141:132,2,48.5,4|2|2,3:0|0:0|0:0,0:0:0:0:
83,95,34997,5,4,3:0:0:0:
69,115,35076,1,2,0:0:0:0:
68,139,35156,1,2,0:0:0:0:
78,161,35235,1,2,0:0:0:0:
117,197,35315,5,4,3:0:0:0:
137,219,35395,1,2,0:0:0:0:
143,249,35474,1,2,0:0:0:0:
134,278,35554,1,2,0:0:0:0:
103,308,35633,5,4,0:0:0:0:
28,366,35793,1,2,0:0:0:0:
103,308,35952,2,0,L|149:322,2,48.5,4|2|2,3:0|0:0|0:0,0:0:0:0:
16,266,36270,6,0,L|12:217,3,48.5,4|2|2|2,3:0|0:0|0:0|0:0,0:0:0:0:
78,161,36588,1,4,3:0:0:0:
78,161,36747,1,2,0:0:0:0:
19,98,36907,6,0,L|29:1,1,97,4|0,0:0|0:0,0:0:0:0:
147,105,37225,2,0,L|157:8,1,97,8|0,0:0|0:0,0:0:0:0:
418,106,37543,6,0,L|408:9,1,97,4|4,3:0|3:0,0:0:0:0:
290,113,37861,2,0,L|280:16,1,97,8|2,0:0|0:0,0:0:0:0:
361,171,38180,5,4,0:0:0:0:
401,251,38339,1,2,0:0:0:0:
464,189,38498,2,0,L|513:183,2,48.5,4|2|2,3:0|0:0|0:0,0:0:0:0:
401,251,38816,1,4,3:0:0:0:
395,265,38896,1,2,0:0:0:0:
403,282,38976,1,2,0:0:0:0:
503,363,39135,1,4,3:0:0:0:
493,350,39214,1,2,0:0:0:0:
475,349,39294,1,2,0:0:0:0:
389,380,39453,5,4,0:0:0:0:
324,310,39612,1,2,0:0:0:0:
232,336,39771,2,0,L|228:384,2,48.5,4|2|2,3:0|0:0|0:0,0:0:0:0:
181,274,40090,5,6,0:0:0:0:
162,273,40169,1,2,0:0:0:0:
145,282,40249,1,2,0:0:0:0:
133,297,40328,1,2,0:0:0:0:
122,339,40408,5,6,0:0:0:0:
120,298,40487,1,2,0:0:0:0:
97,264,40567,1,2,0:0:0:0:
60,247,40646,1,2,0:0:0:0:
21,254,40726,6,0,L|29:199,3,48.5,6|2|2|2,0:0|0:0|0:0|0:0,0:0:0:0:
97,175,41045,1,10,0:0:0:0:
95,150,41124,1,2,0:0:0:0:
93,126,41204,1,2,0:0:0:0:
91,102,41283,1,2,0:0:0:0:
90,77,41363,6,0,L|41:81,3,48.5,6|2|2|2,0:0|0:0|0:0|0:0,0:0:0:0:
151,29,41681,1,10,0:0:0:0:
175,31,41761,1,2,0:0:0:0:
199,33,41840,1,2,0:0:0:0:
223,35,41920,1,2,0:0:0:0:
248,38,41999,6,0,L|249:-1,3,38.8,6|2|2|2,0:0|0:0|0:0|0:0,0:0:0:0:
297,115,42318,2,0,L|298:153,3,38.8,6|2|2|2,0:0|0:0|0:0|0:0,0:0:0:0:
256,228,42636,5,6,0:0:0:0:
256,240,42716,1,2,3:0:0:0:
256,252,42795,1,2,3:0:0:0:
256,264,42875,1,2,3:0:0:0:
256,276,42954,1,6,3:0:0:0:
256,288,43034,1,6,3:0:0:0:
256,300,43113,1,2,3:0:0:0:
256,312,43193,1,6,3:0:0:0:
256,324,43273,5,6,0:0:0:0:
180,370,43432,2,0,P|156:366|137:352,1,48.5,2|0,0:0|0:0,0:0:0:0:
139,226,43591,2,0,P|145:248|145:272,1,48.5,4|0,3:0|0:0,0:0:0:0:
35,334,43750,2,0,P|50:315|71:304,1,48.5,2|0,0:0|0:0,0:0:0:0:
260,296,43909,6,0,B|309:296|309:296|356:320|356:320|399:319,1,145.5,4|0,3:0|0:0,0:0:0:0:
399,309,44228,2,0,L|397:260,1,48.5,8|0,0:0|0:0,0:0:0:0:
453,363,44546,5,4,3:0:0:0:
399,309,44705,2,0,L|397:260,1,48.5,2|0,0:0|0:0,0:0:0:0:
463,197,44864,5,4,3:0:0:0:
397,158,45023,2,0,L|399:109,1,48.5,2|0,0:0|0:0,0:0:0:0:
443,38,45182,5,8,0:0:0:0:
428,26,45262,1,0,0:0:0:0:
409,20,45342,1,2,0:0:0:0:
390,22,45421,1,0,0:0:0:0:
374,31,45501,6,0,L|318:19,3,48.5,8|0|2|0,0:0|0:0|0:0|0:0,0:0:0:0:
252,80,45819,5,4,0:0:0:0:
189,38,45978,2,0,L|92:45,1,97,2|4,0:0|3:0,0:0:0:0:
9,0,46296,1,2,0:0:0:0:
92,44,46456,6,0,L|89:140,1,97,4|0,3:0|0:0,0:0:0:0:
0,226,46774,2,0,L|2:322,1,97,8|0,0:0|0:0,0:0:0:0:
77,381,47092,5,4,3:0:0:0:
126,319,47251,2,0,L|173:326,1,48.5,2|0,0:0|0:0,0:0:0:0:
251,384,47411,5,4,3:0:0:0:
299,323,47570,2,0,L|347:319,1,48.5,2|0,0:0|0:0,0:0:0:0:
439,348,47729,5,4,3:0:0:0:
445,362,47808,1,2,0:0:0:0:
437,379,47888,1,2,0:0:0:0:
414,248,48047,5,4,3:0:0:0:
423,235,48127,1,2,0:0:0:0:
441,234,48206,1,2,0:0:0:0:
347,318,48365,5,4,0:0:0:0:
288,249,48525,2,0,P|282:226|286:203,1,48.5,2|0,0:0|0:0,0:0:0:0:
400,151,48684,2,0,P|381:165|359:175,1,48.5,4|0,3:0|0:0,0:0:0:0:
258,102,48843,2,0,P|281:107|300:121,1,48.5,2|0,0:0|0:0,0:0:0:0:
199,256,49002,6,0,P|129:253|75:300,1,145.5,4|0,3:0|0:0,0:0:0:0:
71,313,49320,2,0,P|42:313|30:285,1,48.5,8|0,0:0|0:0,0:0:0:0:
134,354,49639,5,4,3:0:0:0:
71,313,49798,2,0,L|75:264,1,48.5,2|0,0:0|0:0,0:0:0:0:
0,171,49957,5,4,3:0:0:0:
68,141,50116,2,0,L|63:92,1,48.5,2|0,0:0|0:0,0:0:0:0:
14,30,50275,5,8,0:0:0:0:
27,15,50355,1,0,0:0:0:0:
46,8,50434,1,2,0:0:0:0:
65,8,50514,1,0,0:0:0:0:
83,15,50594,6,0,L|137:4,3,48.5,8|0|2|0,0:0|0:0|0:0|0:0,0:0:0:0:
202,62,50912,5,4,0:0:0:0:
268,24,51071,2,0,L|364:35,1,97,2|4,0:0|3:0,0:0:0:0:
450,0,51389,1,2,0:0:0:0:
364,35,51548,6,0,L|369:135,1,97,4|0,3:0|0:0,0:0:0:0:
461,218,51867,2,0,L|456:314,1,97,8|0,0:0|0:0,0:0:0:0:
456,315,52344,5,2,0:0:0:0:
455,315,52663,5,2,0:0:0:0:
455,315,52822,2,0,L|503:311,2,48.5,4|2|2,3:0|0:0|0:0,0:0:0:0:
341,363,53140,5,4,3:0:0:0:
318,332,53220,1,2,0:0:0:0:
282,317,53299,1,8,0:0:0:0:
245,322,53379,1,2,0:0:0:0:
218,346,53458,5,4,0:0:0:0:
135,384,53617,2,0,P|126:361|129:337,1,48.5,2|0,0:0|0:0,0:0:0:0:
212,233,53777,2,0,P|195:249|175:261,1,48.5,4|0,3:0|0:0,0:0:0:0:
44,243,53936,2,0,P|68:247|86:261,1,48.5,2|0,0:0|0:0,0:0:0:0:
140,182,54095,6,0,B|164:116|164:116|145:42,1,145.5,4|0,3:0|0:0,0:0:0:0:
136,43,54413,2,0,L|84:37,2,48.5,8|0|0,0:0|0:0|0:0,0:0:0:0:
203,136,54732,5,4,3:0:0:0:
206,124,54811,1,0,0:0:0:0:
226,100,54891,2,0,L|274:101,1,48.5,2|0,0:0|0:0,0:0:0:0:
333,12,55050,5,4,3:0:0:0:
336,24,55129,1,0,0:0:0:0:
360,50,55209,2,0,L|408:47,1,48.5,2|0,0:0|0:0,0:0:0:0:
476,9,55368,5,4,0:0:0:0:
496,38,55448,1,0,0:0:0:0:
498,78,55527,1,2,0:0:0:0:
482,112,55607,1,0,0:0:0:0:
451,134,55686,6,0,L|455:182,3,48.5,12|0|2|0,0:0|0:0|0:0|0:0,0:0:0:0:
496,250,56005,5,4,0:0:0:0:
429,287,56164,2,0,L|370:285,1,48.5,2|0,0:0|0:0,0:0:0:0:
317,192,56323,2,0,L|312:240,1,48.5,4|0,3:0|0:0,0:0:0:0:
295,375,56482,1,2,0:0:0:0:
242,306,56641,6,0,L|96:303,1,145.5,4|0,3:0|0:0,0:0:0:0:
90,310,56960,2,0,L|80:359,2,48.5,8|0|0,0:0|0:0|0:0,0:0:0:0:
25,223,57278,5,4,0:0:0:0:
12,227,57358,1,0,0:0:0:0:
1,250,57437,2,0,L|1:299,1,48.5,2|0,0:0|0:0,0:0:0:0:
92,180,57596,5,4,3:0:0:0:
107,176,57676,1,0,0:0:0:0:
124,159,57755,2,0,L|127:110,1,48.5,2|0,0:0|0:0,0:0:0:0:
87,31,57915,5,4,3:0:0:0:
80,11,57994,1,2,0:0:0:0:
55,1,58074,1,2,0:0:0:0:
194,51,58233,5,4,3:3:0:0:
212,60,58312,1,2,0:0:0:0:
237,50,58392,1,2,0:0:0:0:
302,0,58551,5,4,0:0:0:0:
237,50,58710,2,0,P|230:72|233:94,1,48.5,2|0,0:0|0:0,0:0:0:0:
325,194,58869,2,0,P|311:174|290:165,1,48.5,4|0,3:0|0:3,0:0:0:0:
162,198,59029,2,0,P|188:192|206:180,1,48.5,2|0,0:0|0:3,0:0:0:0:
261,240,59188,6,0,B|283:309|283:309|258:377,1,145.5,4|0,3:0|0:0,0:0:0:0:
248,377,59506,2,0,L|187:371,2,48.5,8|0|0,0:0|0:0|0:0,0:0:0:0:
104,263,59824,5,4,3:0:0:0:
108,277,59904,1,0,0:0:0:0:
136,294,59984,2,0,L|185:287,1,48.5,2|0,0:0|0:0,0:0:0:0:
248,377,60143,5,4,3:0:0:0:
252,363,60222,1,0,0:0:0:0:
282,347,60302,2,0,L|334:347,1,48.5,2|0,0:0|0:0,0:0:0:0:
456,346,60461,5,4,0:0:0:0:
480,316,60541,1,0,0:0:0:0:
478,276,60620,1,2,0:0:0:0:
457,243,60700,1,0,0:0:0:0:
423,233,60779,6,0,L|432:184,3,48.5,12|0|2|0,0:0|0:0|0:0|0:0,0:0:0:0:
448,104,61098,5,4,0:0:0:0:
368,128,61257,2,0,L|319:125,1,48.5,2|0,0:0|0:0,0:0:0:0:
239,229,61416,2,0,L|243:180,1,48.5,4|0,3:0|0:0,0:0:0:0:
258,46,61575,1,2,0:0:0:0:
144,102,61734,6,0,P|76:78|7:97,1,145.5,4|0,3:0|0:0,0:0:0:0:
0,108,62052,2,0,P|-2:130|18:140,2,48.5,0|0|0,1:0|0:0|0:0,0:0:0:0:
64,253,62371,1,0,0:0:0:0:
64,253,63326,5,4,3:0:0:0:
62,278,63405,1,0,3:0:0:0:
60,304,63485,1,0,3:0:0:0:
58,330,63564,1,0,3:0:0:0:
56,355,63644,5,2,0:0:0:0:
64,253,63803,1,2,0:0:0:0:
65,309,65872,5,2,0:0:0:0:
78,309,66031,1,2,0:0:0:0:
58,319,66190,6,8,B|118:319|118:319|150:343|150:343|206:343,1,155.2,4|2,0:0|0:0,0:0:0:0:
205,343,66827,6,0,L|203:381,2,38.8,2|0|0,0:0|0:0|0:0,0:0:0:0:
271,296,67145,1,2,0:0:0:0:
271,296,67304,1,0,0:0:0:0:
206,226,67464,2,0,L|207:146,1,77.6,2|0,0:0|0:0,0:0:0:0:
152,71,67782,1,2,0:0:0:0:
155,86,67941,1,0,0:0:0:0:
268,5,68100,1,2,0:0:0:0:
268,5,68419,5,2,0:0:0:0:
281,4,68578,1,2,0:0:0:0:
260,14,68737,6,0,B|319:14|319:14|351:38|351:38|407:38,1,155.2,4|2,0:0|0:0,0:0:0:0:
407,38,69373,6,0,L|406:-1,2,38.8,2|0|0,0:0|0:0|0:0,0:0:0:0:
472,100,69692,1,2,0:0:0:0:
364,170,69851,1,0,0:0:0:0:
438,278,70010,5,2,0:0:0:0:
438,278,70806,5,0,0:0:0:0:
439,263,70965,1,2,0:0:0:0:
441,250,71124,1,0,0:0:0:0:
358,305,71283,6,0,L|280:297,1,77.6,4|0,0:0|0:0,0:0:0:0:
161,369,71602,2,0,L|238:364,1,77.6,2|0,0:0|0:0,0:0:0:0:
118,307,71920,1,2,0:0:0:0:
105,305,71999,1,0,0:0:0:0:
92,303,72079,1,0,0:0:0:0:
9,355,72238,1,2,0:0:0:0:
9,355,72397,1,0,0:0:0:0:
92,303,72556,6,0,P|101:266|92:229,1,77.6,2|0,0:0|0:0,0:0:0:0:
29,72,72875,2,0,P|19:110|28:147,1,77.6,2|0,0:0|0:0,0:0:0:0:
105,110,73193,5,2,0:0:0:0:
105,110,73511,5,2,0:0:0:0:
183,148,73671,1,2,0:0:0:0:
292,88,73830,2,2,L|285:10,1,77.6,6|2,0:0|0:0,0:0:0:0:
379,161,74148,2,0,L|399:77,1,77.6,2|0,0:0|0:0,0:0:0:0:
452,230,74466,1,2,0:0:0:0:
463,221,74546,1,0,0:0:0:0:
472,215,74625,1,0,0:0:0:0:
512,305,74785,5,2,0:0:0:0:
360,383,74944,1,0,0:0:0:0:
291,319,75103,6,0,L|292:280,3,38.8,2|2|4|0,0:0|0:0|0:0|0:0,0:0:0:0:
217,206,75421,2,0,L|218:244,3,38.8
294,159,75739,6,0,L|345:155,1,48.5,0|0,3:0|3:0,0:0:0:0:
216,98,75899,2,0,L|165:94,1,48.5,0|0,3:0|3:0,0:0:0:0:
300,40,76058,5,4,3:0:0:0:
328,63,76137,1,0,0:0:0:0:
367,69,76217,1,4,3:0:0:0:
402,56,76296,1,0,0:0:0:0:
427,26,76376,6,0,B|471:96|471:96|444:184,1,174.599994671631,4|0,3:0|0:0,0:0:0:0:
436,175,76694,2,0,L|437:242,2,67.8999979278565,4|0|0,0:0|0:0|0:0,0:0:0:0:
504,360,77013,1,4,3:0:0:0:
496,340,77092,1,2,0:0:0:0:
480,330,77172,1,2,0:0:0:0:
387,318,77331,1,0,1:0:0:0:
387,318,77490,1,2,0:0:0:0:
309,373,77649,6,0,B|251:383|251:383|197:366,1,116.399996447754,2|2,3:2|0:2,0:0:0:0:
202,242,77968,2,0,B|260:232|260:232|315:250,1,116.399996447754,0|2,1:0|0:2,0:0:0:0:
387,318,78286,5,4,3:0:0:0:
387,318,78604,5,0,1:0:0:0:
315,250,78763,1,2,0:0:0:0:
452,188,78922,2,0,P|498:118|461:43,1,174.599994671631,4|0,3:0|0:0,0:0:0:0:
453,38,79241,2,0,P|422:49|389:45,2,67.8999979278565,4|0|0,0:0|0:0|0:0,0:0:0:0:
254,0,79559,1,4,3:0:0:0:
243,21,79639,1,2,0:0:0:0:
245,47,79718,1,2,0:0:0:0:
312,131,79877,1,0,1:0:0:0:
312,131,80037,1,2,0:2:0:0:
219,192,80196,6,0,L|102:185,1,116.399996447754,4|0,3:0|0:0,0:0:0:0:
0,276,80514,2,0,L|116:282,1,116.399996447754,0|0,1:0|0:0,0:0:0:0:
174,361,80832,5,4,3:0:0:0:
170,350,80991,1,4,3:0:0:0:
279,358,81151,1,2,1:2:0:0:
315,257,81310,1,2,0:0:0:0:
230,191,81469,6,0,B|193:111|193:111|227:31,1,174.599994671631,4|0,3:0|0:0,0:0:0:0:
232,22,81787,2,0,P|214:-3|182:0,2,67.8999979278565,4|0|0,0:0|0:0|0:0,0:0:0:0:
338,80,82106,1,4,3:0:0:0:
358,86,82185,1,2,0:0:0:0:
381,79,82265,1,2,0:0:0:0:
446,0,82424,1,0,1:0:0:0:
446,0,82583,1,2,0:2:0:0:
512,88,82742,6,0,P|534:150|511:213,1,135.799995855713,4|2,3:0|0:2,0:0:0:0:
425,384,83060,2,0,P|402:321|424:258,1,135.799995855713,2|2,1:2|0:2,0:0:0:0:
502,321,83379,5,4,3:0:0:0:
502,321,83697,5,0,1:0:0:0:
425,384,83856,1,2,0:0:0:0:
288,322,84015,2,0,L|114:337,1,174.599994671631,4|0,3:0|0:0,0:0:0:0:
105,338,84334,2,0,B|90:308|90:308|98:275,2,67.8999979278565,4|0|0,0:0|0:0|0:0,0:0:0:0:
174,189,84652,1,4,3:0:0:0:
195,180,84732,1,2,0:0:0:0:
213,189,84811,1,2,0:0:0:0:
95,126,84970,1,0,1:0:0:0:
95,126,85129,1,2,0:2:0:0:
163,51,85289,5,4,3:0:0:0:
163,51,85607,5,0,1:0:0:0:
163,51,85925,5,4,3:0:0:0:
249,110,86084,1,4,3:0:0:0:
317,32,86243,5,4,3:0:0:0:
345,29,86323,1,4,3:0:0:0:
374,26,86403,1,4,3:0:0:0:
403,24,86482,1,4,3:0:0:0:
432,21,86562,5,6,0:0:0:0:
0,228,87198,1,2,0:0:0:0:
245,378,87835,5,4,0:0:0:0:
269,192,87994,1,2,0:0:0:0:
140,325,88153,1,4,0:0:0:0:
321,293,88312,1,2,0:0:0:0:
155,212,88472,1,4,0:0:0:0:
321,293,88790,5,4,3:0:0:0:
349,270,88869,1,4,3:0:0:0:
388,264,88949,1,4,3:0:0:0:
423,277,89029,1,4,3:0:0:0:
448,307,89108,6,0,B|492:237|492:237|465:149,1,174.599994671631,4|0,3:0|0:0,0:0:0:0:
461,140,89426,2,0,P|428:147|405:125,2,67.8999979278565,4|0|0,0:0|0:0|0:0,0:0:0:0:
355,0,89745,1,4,3:0:0:0:
361,22,89824,1,2,0:0:0:0:
356,40,89904,1,2,0:0:0:0:
294,119,90063,1,0,1:0:0:0:
294,119,90222,1,2,0:2:0:0:
207,38,90381,6,0,L|90:45,1,116.399996447754,4|0,3:0|0:0,0:0:0:0:
0,154,90700,2,0,L|116:146,1,116.399996447754,0|0,1:0|0:0,0:0:0:0:
170,210,91018,5,4,3:0:0:0:
161,220,91177,1,4,3:0:0:0:
269,216,91336,1,2,1:2:0:0:
305,317,91495,1,2,0:0:0:0:
220,383,91655,6,0,B|306:354|306:354|386:378,1,174.599994671631,4|0,3:0|0:0,0:0:0:0:
394,383,91973,2,0,L|404:316,2,67.8999979278565,4|0|0,0:0|0:0|0:0,0:0:0:0:
471,248,92291,1,4,3:0:0:0:
491,239,92371,1,2,0:0:0:0:
510,248,92450,1,2,0:0:0:0:
411,182,92609,1,0,1:0:0:0:
411,182,92769,1,2,0:2:0:0:
483,116,92928,6,0,B|495:60|495:60|478:3,1,116.399996447754,4|2,3:0|0:2,0:0:0:0:
342,3,93246,2,0,B|330:59|330:59|346:115,1,116.399996447754,2|2,1:2|0:2,0:0:0:0:
411,182,93564,5,4,3:0:0:0:
411,182,93883,5,0,1:0:0:0:
346,115,94042,1,2,0:0:0:0:
235,185,94201,6,0,L|249:362,1,174.599994671631,4|0,3:0|0:0,0:0:0:0:
254,339,94519,2,0,L|325:343,2,58.199998223877,4|0|0,0:0|0:0|0:0,0:0:0:0:
145,211,94838,6,0,L|149:269,1,58.199998223877,4|0,3:0|0:0,0:0:0:0:
333,260,94997,2,0,L|328:201,1,58.199998223877,4|0,3:0|0:0,0:0:0:0:
177,59,95156,6,0,L|181:117,1,58.199998223877,0|0,1:0|0:0,0:0:0:0:
350,115,95315,2,0,L|345:56,1,58.199998223877,2|0,0:0|0:0,0:0:0:0:
265,0,95474,5,4,0:0:0:0:
256,192,95554,12,0,96747,0:0:0:0:
