osu file format v14

[General]
AudioFilename: audio.mp3
AudioLeadIn: 0
PreviewTime: 76296
Countdown: 0
SampleSet: Soft
StackLeniency: 0.4
Mode: 0
LetterboxInBreaks: 0
WidescreenStoryboard: 1

[Editor]
Bookmarks: 11442,12079,12238,12716,22901,24811,29904,33087,34997,40090,43273,45182,48365,49320,52026,53458,63644,65872,85925
DistanceSpacing: 1
BeatDivisor: 2
GridSize: 32
TimelineZoom: 1.2

[Metadata]
Title:Ohayou !
TitleUnicode:OhayƓ !
Artist:Thaehan
ArtistUnicode:Thaehan
Creator:azamaki
Version:Normal
Source:osu!
Tags:loki bwa ohayo electronic instrumental fa featured artist Sweets Seonah -Lian- Lian2002 Houtaro
BeatmapID:2443854
BeatmapSetID:1030093

[Difficulty]
HPDrainRate:3
CircleSize:3
OverallDifficulty:4
ApproachRate:6
SliderMultiplier:0.999999999999999
SliderTickRate:1

[Events]
//Background and Video events
0,0,"sarada.jpg",0,0
//Break Periods
2,43473,52408
//Storyboard Layer 0 (Background)
//Storyboard Layer 1 (Fail)
//Storyboard Layer 2 (Pass)
//Storyboard Layer 3 (Foreground)
//Storyboard Layer 4 (Overlay)
//Storyboard Sound Samples

[TimingPoints]
-16,318.302387267905,4,2,0,60,1,0
2212,-100,4,2,0,45,0,0
2530,-125,4,2,0,45,0,0
7623,-111.111111111111,4,2,0,45,0,0
10169,-100,4,2,0,45,0,0
12716,-100,4,2,0,75,0,0
22901,-111.111111111111,4,2,0,60,0,0
33087,-100,4,2,0,60,0,0
62371,-100,4,2,0,45,0,0
66190,-125,4,2,0,45,0,0
71283,-111.111111111111,4,2,0,45,0,0
76376,-90.9090909090908,4,2,0,75,0,0
86562,-90.9090909090908,4,2,0,60,0,0
87835,-90.9090909090908,4,2,0,75,0,0

[Colours]
Combo1 : 255,255,32
Combo2 : 255,119,187
Combo3 : 101,189,254
Combo4 : 128,255,0

[HitObjects]
386,69,2530,6,0,P|347:51|305:52,1,79.9999999999999,4|2,0:0|0:0,0:0:0:0:
239,87,3167,1,2,0:0:0:0:
150,220,3803,2,0,P|110:219|74:201,2,79.9999999999999,2|2|2,0:0|0:0|0:0,0:0:0:0:
202,159,4758,1,2,0:0:0:0:
262,210,5076,1,4,0:0:0:0:
330,354,5713,1,2,0:0:0:0:
398,313,6031,1,2,0:0:0:0:
441,245,6350,2,0,P|436:169|439:79,1,160,2|0,0:0|0:0,0:0:0:0:
266,137,7623,6,0,P|201:87|98:104,1,179.999994506836,4|2,0:0|0:0,0:0:0:0:
45,162,8578,1,2,0:0:0:0:
53,251,8896,2,0,L|63:352,1,89.999997253418,2|2,0:0|0:0,0:0:0:0:
150,358,9533,1,2,0:0:0:0:
219,301,9851,1,2,0:0:0:0:
294,235,10169,6,0,B|341:221|341:221|397:236,2,99.9999999999999,4|2|2,0:0|0:0|0:0,0:0:0:0:
298,335,11124,1,2,0:0:0:0:
397,331,11442,2,0,P|484:269|458:169,1,200,2|0,0:0|3:0,0:0:0:0:
403,115,12397,2,0,L|341:106,1,50,4|4,3:0|3:0,0:0:0:0:
306,124,12716,5,4,3:0:0:0:
213,87,13034,1,4,0:0:0:0:
117,116,13352,2,0,P|99:162|111:210,1,99.9999999999999,4|0,3:0|1:0,0:0:0:0:
133,254,13830,1,0,0:0:0:0:
161,295,13989,2,0,L|276:283,1,99.9999999999999,2|0,3:2|1:0,0:0:0:0:
340,225,14625,1,4,3:0:0:0:
438,245,14944,2,0,L|496:237,1,50,0|2,1:0|0:0,0:0:0:0:
508,192,15262,5,4,3:0:0:0:
434,124,15580,1,4,1:0:0:0:
343,77,15899,2,0,L|351:22,2,50,4|0|0,3:0|0:0|1:0,0:0:0:0:
246,48,16535,2,0,P|162:47|120:148,1,200,4|4,3:0|3:0,0:0:0:0:
159,171,17331,2,0,B|185:163|185:163|212:168,2,50,4|2|0,3:0|1:2|0:0,0:0:0:0:
148,219,17808,5,4,3:0:0:0:
132,318,18127,1,4,0:0:0:0:
217,369,18445,2,0,B|236:321|236:321|217:261,1,99.9999999999999,4|0,3:0|1:0,0:0:0:0:
290,201,19082,1,4,3:0:0:0:
388,217,19400,1,2,1:2:0:0:
467,156,19718,1,4,3:0:0:0:
473,55,20037,2,0,L|413:48,1,50,0|2,1:0|0:0,0:0:0:0:
378,70,20355,6,0,L|251:84,1,99.9999999999999,4|4,3:0|0:0,0:0:0:0:
190,33,20991,1,4,3:0:0:0:
90,39,21310,1,0,1:0:0:0:
41,52,21469,1,2,0:2:0:0:
12,93,21628,2,0,B|-25:152|10:230|10:230|91:181|186:229,1,300,4|4,3:0|3:0,0:0:0:0:
247,180,22901,6,0,P|272:141|265:86,2,89.999997253418,4|4|4,0:0|3:0|3:0,0:0:0:0:
242,270,23856,2,0,P|217:306|218:351,1,89.999997253418,4|4,3:0|3:0,0:0:0:0:
307,366,24493,1,4,3:0:0:0:
388,328,24811,2,0,B|427:301|427:301|484:316,1,89.999997253418,4|4,3:0|3:0,0:0:0:0:
511,232,25448,5,4,0:0:0:0:
471,151,25766,2,0,B|484:114|484:114|465:52,2,89.999997253418,4|4|4,3:0|3:0|3:0,0:0:0:0:
399,205,26721,2,0,L|295:187,1,89.999997253418,4|0,3:0|1:0,0:0:0:0:
231,232,27358,1,4,3:0:0:0:
163,170,27676,1,0,1:0:0:0:
96,230,27994,6,0,P|49:225|-8:247,2,89.999997253418,4|4|4,0:0|3:0|3:0,0:0:0:0:
136,310,28949,2,4,P|179:321|223:317,1,89.999997253418,4|8,3:0|0:0,3:0:0:0:
304,276,29586,1,4,3:0:0:0:
386,312,29904,2,0,B|420:275|420:275|416:232,1,89.999997253418,6|6,3:0|3:0,0:0:0:0:
382,151,30541,6,0,B|346:123|305:136|305:136|263:184|193:160,1,179.999994506836,6|6,3:0|3:0,0:0:0:0:
149,106,31495,1,10,0:0:0:0:
63,133,31814,2,0,B|36:167|49:208|49:208|97:250|79:296,1,179.999994506836,6|14,0:0|0:0,0:0:0:0:
130,370,32769,1,14,0:0:0:0:
225,339,33087,6,0,P|268:334|322:375,2,99.9999999999999,6|4|4,0:0|3:0|3:0,0:0:0:0:
257,244,34042,2,0,P|286:229|323:232,1,50,4|2,3:0|0:0,0:0:0:0:
345,254,34360,2,0,P|385:281|434:277,1,99.9999999999999,4|4,0:0|3:0,0:0:0:0:
497,200,34997,1,4,3:0:0:0:
446,113,35315,1,4,3:0:0:0:
348,91,35633,6,0,P|344:42|371:1,2,99.9999999999999,4|4|4,0:0|3:0|3:0,0:0:0:0:
353,141,36429,1,2,0:0:0:0:
340,189,36588,1,4,3:0:0:0:
249,231,36907,2,0,B|144:213,1,99.9999999999999,4|8,0:0|0:0,0:0:0:0:
77,282,37543,1,4,3:0:0:0:
133,364,37861,1,8,0:0:0:0:
229,338,38180,6,0,P|277:341|318:314,2,99.9999999999999,4|4|4,0:0|3:0|3:0,0:0:0:0:
230,237,39135,2,0,P|248:209|279:199,1,50,4|2,3:0|0:0,0:0:0:0:
311,189,39453,2,0,P|351:216|400:212,1,99.9999999999999,4|4,0:0|3:0,0:0:0:0:
464,134,40090,1,6,0:0:0:0:
410,49,40408,1,6,0:0:0:0:
311,31,40726,6,0,B|258:6|213:25|213:25|176:66|105:46,1,200,6|6,0:0|0:0,0:0:0:0:
35,100,41681,1,10,0:0:0:0:
56,197,41999,2,0,B|71:250|30:287|30:287|11:332|36:385,1,200,6|6,0:0|0:0,0:0:0:0:
210,285,43273,1,6,0:0:0:0:
19,6,53458,6,0,P|0:51|18:105,1,99.9999999999999,4|4,0:0|3:0,0:0:0:0:
113,97,54095,2,0,L|171:93,2,50,4|0|8,3:0|0:0|0:0,0:0:0:0:
67,186,54732,1,4,3:0:0:0:
98,224,54891,2,0,P|143:243|190:229,1,99.9999999999999,2|2,0:0|0:0,0:0:0:0:
237,212,55368,2,0,P|262:234|269:268,1,50,4|2,0:0|0:0,0:0:0:0:
312,270,55686,2,0,P|314:304|294:332,1,50,12|2,0:0|0:0,0:0:0:0:
392,372,56164,6,0,L|504:356,1,99.9999999999999,2|2,0:0|0:0,0:0:0:0:
511,312,56641,1,4,3:0:0:0:
424,261,56960,1,8,0:0:0:0:
458,167,57278,1,4,0:0:0:0:
501,142,57437,2,0,P|520:97|502:43,1,99.9999999999999,2|2,0:0|0:0,0:0:0:0:
460,30,57915,2,0,P|435:29|413:41,1,50,4|2,3:0|0:0,0:0:0:0:
366,22,58233,2,0,P|350:41|346:66,1,50,4|2,3:3|0:0,0:0:0:0:
330,112,58551,6,0,P|285:131|231:113,1,99.9999999999999,4|4,0:0|3:0,0:0:0:0:
154,61,59188,2,0,L|150:3,2,50,4|0|8,3:0|0:0|0:0,0:0:0:0:
91,139,59824,1,4,3:0:0:0:
58,177,59984,2,0,P|39:222|57:276,1,99.9999999999999,2|2,0:0|0:0,0:0:0:0:
75,313,60461,2,0,P|96:324|121:323,1,50,4|2,0:0|0:0,0:0:0:0:
155,359,60779,2,0,P|179:354|198:338,1,50,12|2,0:0|0:0,0:0:0:0:
251,253,61257,6,0,L|373:238,1,99.9999999999999,2|2,0:0|0:0,0:0:0:0:
395,219,61734,1,4,3:0:0:0:
454,138,62052,1,0,1:0:0:0:
385,65,62371,1,0,0:0:0:0:
342,90,62530,2,0,P|297:71|243:89,1,99.9999999999999
208,112,63007,2,0,P|206:136|218:158,1,50
180,192,63326,2,0,P|194:212|216:222,1,50,4|0,3:0|3:0,0:0:0:0:
256,192,63644,12,0,65395,0:0:0:0:
86,340,66190,6,8,P|75:305|81:249,1,79.9999999999999,4|2,0:0|0:0,0:0:0:0:
141,213,66827,1,2,0:0:0:0:
281,136,67464,2,0,P|283:96|271:58,2,79.9999999999999,2|2|2,0:0|0:0|0:0,0:0:0:0:
212,176,68419,1,2,0:0:0:0:
210,255,68737,1,4,0:0:0:0:
326,364,69373,1,2,0:0:0:0:
379,304,69692,1,2,0:0:0:0:
458,298,70010,2,0,P|473:221|462:139,1,160,2|2,0:0|0:0,0:0:0:0:
303,55,71283,6,0,L|122:40,1,179.999994506836,4|2,0:0|0:0,0:0:0:0:
59,103,72238,2,0,P|53:125|61:159,1,44.999998626709,2|0,0:0|0:0,0:0:0:0:
82,182,72556,1,2,0:0:0:0:
146,244,72875,1,2,0:0:0:0:
104,323,73193,1,2,0:0:0:0:
184,363,73511,2,0,P|206:369|240:361,1,44.999998626709,2|2,0:0|0:0,0:0:0:0:
263,338,73830,5,6,0:0:0:0:
331,279,74148,1,2,0:0:0:0:
382,352,74466,1,2,0:0:0:0:
446,289,74785,1,2,0:0:0:0:
481,206,75103,2,0,P|459:127|481:23,1,179.999994506836,2|0,0:0|3:0,0:0:0:0:
387,47,76058,2,0,L|325:38,1,44.999998626709,4|4,3:0|3:0,0:0:0:0:
294,13,76376,6,0,P|243:0|176:32,1,110.000003356934,4|4,3:0|0:0,0:0:0:0:
113,97,77013,1,4,3:0:0:0:
111,151,77172,1,2,0:0:0:0:
108,205,77331,1,0,1:0:0:0:
186,282,77649,1,2,3:2:0:0:
290,246,77968,2,0,L|408:235,1,110.000003356934,0|4,1:0|3:0,0:0:0:0:
428,129,78604,1,0,1:0:0:0:
378,31,78922,6,0,L|260:20,1,110.000003356934,4|4,3:0|0:0,0:0:0:0:
182,90,79559,1,4,3:0:0:0:
94,23,79877,1,0,1:0:0:0:
41,41,80037,1,2,0:2:0:0:
12,88,80196,2,0,B|13:135|64:167|64:167|120:195|135:265,1,220.000006713867,4|4,3:0|3:0,0:0:0:0:
112,310,80991,2,0,L|57:324,2,55.0000016784668,4|2|2,3:0|1:2|0:0,0:0:0:0:
159,338,81469,6,0,P|213:346|276:338,1,110.000003356934,4|4,3:0|0:0,0:0:0:0:
374,313,82106,1,4,3:0:0:0:
400,264,82265,1,2,0:0:0:0:
392,209,82424,1,0,1:0:0:0:
338,112,82742,1,4,3:0:0:0:
241,163,83060,2,0,P|187:159|134:114,1,110.000003356934,2|4,1:2|3:0,0:0:0:0:
81,37,83697,1,0,1:0:0:0:
23,130,84015,6,0,P|-6:186|3:242,1,110.000003356934,4|4,3:0|0:0,0:0:0:0:
76,309,84652,1,4,3:0:0:0:
181,276,84970,1,0,1:0:0:0:
235,280,85129,1,2,0:2:0:0:
276,317,85289,2,0,B|322:330|368:292|368:292|412:247|483:254,1,220.000006713867,4|4,3:0|3:0,0:0:0:0:
445,28,86562,5,6,0:0:0:0:
305,218,87198,1,2,0:0:0:0:
175,39,87835,6,0,L|120:47,1,55.0000016784668,4|2,0:0|0:0,0:0:0:0:
86,89,88153,2,0,L|31:97,1,55.0000016784668,4|2,0:0|0:0,0:0:0:0:
1,143,88472,1,4,0:0:0:0:
31,275,88790,2,0,L|86:283,1,55.0000016784668,4|4,3:0|3:0,0:0:0:0:
126,318,89108,6,0,L|243:296,1,110.000003356934,4|4,3:0|0:0,0:0:0:0:
330,244,89745,1,4,3:0:0:0:
347,191,89904,1,2,0:0:0:0:
329,138,90063,1,0,1:0:0:0:
223,106,90381,1,4,3:0:0:0:
167,201,90700,2,0,P|113:204|49:158,1,110.000003356934,0|4,1:0|3:0,0:0:0:0:
27,74,91336,1,2,1:2:0:0:
121,17,91655,6,0,L|233:3,1,110.000003356934,4|4,3:0|0:0,0:0:0:0:
337,25,92291,1,4,3:0:0:0:
374,65,92450,1,2,0:0:0:0:
383,119,92609,1,0,1:0:0:0:
357,226,92928,1,4,3:0:0:0:
259,174,93246,1,2,1:2:0:0:
153,205,93564,1,4,3:0:0:0:
131,96,93883,2,0,L|77:87,1,55.0000016784668,0|2,1:0|0:0,0:0:0:0:
26,109,94201,6,0,P|0:156|3:211,1,110.000003356934,4|4,3:0|0:0,0:0:0:0:
64,302,94838,2,0,L|134:293,1,55.0000016784668,4|4,3:0|3:0,0:0:0:0:
158,257,95156,2,0,L|228:248,1,55.0000016784668,0|2,1:0|0:0,0:0:0:0:
264,271,95474,5,4,0:0:0:0:
256,192,95633,12,0,96747,0:0:0:0:
