osu file format v14

[General]
AudioFilename: audio.mp3
AudioLeadIn: 0
PreviewTime: 76296
Countdown: 0
SampleSet: Soft
StackLeniency: 0.4
Mode: 0
LetterboxInBreaks: 0
WidescreenStoryboard: 1

[Editor]
Bookmarks: 11442,12079,12238,12716,22901,24811,29904,33087,34997,40090,43273,45182,48365,49320,52026,53458,63644,65872,85925
DistanceSpacing: 1.1
BeatDivisor: 4
GridSize: 4
TimelineZoom: 2.5

[Metadata]
Title:Ohayou !
TitleUnicode:OhayƓ !
Artist:Thaehan
ArtistUnicode:Thaehan
Creator:azamaki
Version:Lian's Hard
Source:osu!
Tags:loki bwa ohayo electronic instrumental fa featured artist Sweets Seonah -Lian- Lian2002 Houtaro
BeatmapID:2861149
BeatmapSetID:1030093

[Difficulty]
HPDrainRate:4
CircleSize:3.5
OverallDifficulty:6
ApproachRate:8
SliderMultiplier:1.4
SliderTickRate:1

[Events]
//Background and Video events
0,0,"sarada.jpg",0,0
//Break Periods
2,66390,70533
//Storyboard Layer 0 (Background)
//Storyboard Layer 1 (Fail)
//Storyboard Layer 2 (Pass)
//Storyboard Layer 3 (Foreground)
//Storyboard Layer 4 (Overlay)
//Storyboard Sound Samples

[TimingPoints]
-16,318.302387267905,4,2,0,60,1,0
2212,-100,4,2,0,45,0,0
2530,-125,4,2,0,45,0,0
7623,-111.111111111111,4,2,0,45,0,0
11442,-200,4,2,0,45,0,0
12079,-111.111111111111,4,2,0,45,0,0
12716,-90.9090909090908,4,2,0,75,0,0
22901,-100,4,2,0,60,0,0
33087,-90.9090909090909,4,2,0,60,0,0
43273,-111.111111111111,4,2,0,60,0,0
53458,-100,4,2,0,60,0,0
58551,-100,4,2,0,60,0,0
62371,-166.666666666667,4,2,0,45,0,0
63326,-100,4,2,0,45,0,0
63644,-125,4,2,0,45,0,0
71283,-111.111111111111,4,2,0,45,0,0
75103,-200,4,2,0,45,0,0
75739,-111.111111111111,4,2,0,45,0,0
76376,-83.3333333333333,4,2,0,75,0,0
86562,-125,4,2,0,60,0,0
87835,-90.9090909090909,4,2,0,75,0,0

[Colours]
Combo1 : 255,255,32
Combo2 : 255,119,187
Combo3 : 101,189,254
Combo4 : 128,255,0

[HitObjects]
484,296,2530,6,0,P|461:269|367:269,1,112,4|2,0:0|0:0,0:0:0:0:
297,323,3167,2,0,L|299:360,2,28,2|0|0,0:0|0:0|0:0,0:0:0:0:
292,267,3485,1,2,0:0:0:0:
292,267,3644,1,0,0:0:0:0:
284,211,3803,6,0,L|207:217,1,56,2|0,0:0|0:0,0:0:0:0:
194,171,4121,2,0,L|117:164,1,56,2|0,0:0|0:0,0:0:0:0:
104,120,4440,1,2,0:0:0:0:
31,204,4758,2,0,P|31:251|41:271,1,56,2|2,0:0|0:0,0:0:0:0:
86,277,5076,6,0,P|151:277|186:318,1,112,4|2,0:0|0:0,0:0:0:0:
286,347,5713,2,0,L|252:349,2,28,2|0|0,0:0|0:0|0:0,0:0:0:0:
327,309,6031,1,2,0:0:0:0:
327,309,6190,1,0,0:0:0:0:
374,337,6350,6,0,P|465:248|438:151,1,224,2|0,0:0|0:0,0:0:0:0:
501,104,7145,2,0,L|506:40,2,56,0|2|0,0:0|0:0|0:0,0:0:0:0:
448,164,7623,6,0,L|320:152,1,125.999996154785,4|2,0:0|0:0,0:0:0:0:
166,58,8259,2,0,L|169:15,2,31.4999990386963,2|0|0,0:0|0:0|0:0,0:0:0:0:
98,116,8578,2,0,L|105:194,1,62.9999980773926,2|0,0:0|0:0,0:0:0:0:
40,240,8896,5,2,0:0:0:0:
40,240,9055,1,0,0:0:0:0:
85,315,9214,2,0,L|159:305,1,62.9999980773926,2|0,0:0|0:0,0:0:0:0:
208,371,9533,1,2,0:0:0:0:
235,196,9851,2,0,L|314:204,1,62.9999980773926,2|2,0:0|0:0,0:0:0:0:
351,270,10169,6,0,P|344:329|389:381,1,125.999996154785,4|2,0:0|0:0,0:0:0:0:
504,340,10806,2,0,P|511:281|466:229,1,125.999996154785,2|2,0:0|0:0,0:0:0:0:
395,190,11283,1,0,0:0:0:0:
395,190,11442,6,0,P|372:156|435:131,1,122.5,2|0,0:0|0:0,0:0:0:0:
429,127,12079,2,0,B|462:162|462:162|501:136,1,94.499997116089,0|0,3:0|3:0,0:0:0:0:
497,93,12397,2,0,P|483:72|467:62,3,31.4999990386963,4|0|4|0,3:0|0:0|3:0|0:0,0:0:0:0:
446,43,12716,6,0,P|404:43|369:61,1,77.0000023498536,4|0,3:0|0:0,0:0:0:0:
292,16,13034,2,0,L|283:112,1,77.0000023498536,4|0,0:0|0:0,0:0:0:0:
196,65,13352,2,0,L|200:26,2,38.5000011749268,4|2|2,3:0|0:0|0:0,0:0:0:0:
183,156,13671,1,0,1:0:0:0:
112,96,13830,1,0,0:0:0:0:
30,139,13989,6,0,P|27:184|45:223,1,77.0000023498536,2|2,3:2|0:2,0:0:0:0:
0,297,14307,2,0,P|36:321|84:323,1,77.0000023498536,0|2,1:0|0:2,0:0:0:0:
148,371,14625,2,0,L|314:347,1,154.000004699707,4|0,3:0|1:0,0:0:0:0:
362,279,15103,1,2,0:0:0:0:
362,279,15262,6,0,P|387:268|441:268,1,77.0000023498536,4|0,3:0|0:0,3:0:0:0:
493,339,15580,2,0,B|524:299|524:299|509:178,1,154.000004699707,4|4,1:0|3:0,0:0:0:0:
503,150,15978,1,2,0:0:0:0:
507,154,16057,1,0,0:0:0:0:
414,160,16217,1,0,1:0:0:0:
360,84,16376,1,2,0:2:0:0:
282,133,16535,6,0,L|205:138,1,77.0000023498536,4|0,3:0|0:0,0:0:0:0:
144,68,16854,2,0,P|116:56|69:56,1,77.0000023498536,0|0,1:0|0:0,0:0:0:0:
2,119,17172,2,0,L|17:231,1,77.0000023498536,4|4,3:0|3:0,0:0:0:0:
103,183,17490,1,2,1:2:0:0:
171,245,17649,1,0,0:0:0:0:
84,276,17808,6,0,L|-2:287,1,77.0000023498536,4|0,3:0|0:0,0:0:0:0:
50,367,18127,2,0,L|126:358,1,77.0000023498536,4|0,0:0|0:0,0:0:0:0:
195,296,18445,2,0,L|190:241,2,38.5000011749268,4|2|2,3:0|0:0|0:0,0:0:0:0:
269,356,18763,1,0,1:0:0:0:
269,356,18922,1,2,0:2:0:0:
340,296,19082,6,0,L|425:303,1,77.0000023498536,4|2,3:0|0:2,0:0:0:0:
497,258,19400,2,0,P|504:220|494:183,1,77.0000023498536,2|2,1:2|0:2,0:0:0:0:
423,124,19718,2,0,P|367:171|286:147,1,154.000004699707,4|0,3:0|1:0,0:0:0:0:
253,69,20196,1,2,0:0:0:0:
253,69,20355,6,0,P|220:98|208:132,1,77.0000023498536,4|0,3:0|0:0,0:0:0:0:
237,215,20673,2,0,L|219:377,1,154.000004699707,4|4,0:0|3:0,0:0:0:0:
178,380,21071,1,2,0:0:0:0:
182,384,21151,1,2,0:0:0:0:
90,371,21310,1,0,1:0:0:0:
43,291,21469,1,2,0:2:0:0:
79,205,21628,5,4,3:0:0:0:
190,58,21946,1,0,1:0:0:0:
6,30,22265,1,4,3:0:0:0:
6,30,22424,1,4,3:0:0:0:
73,91,22583,2,0,L|66:142,3,38.5000011749268,4|0|0|0,3:0|3:0|3:0|3:0,0:0:0:0:
92,154,22901,6,0,B|148:151|148:151|184:171|184:171|251:164,1,140,4|4,0:0|3:0,0:0:0:0:
401,70,23538,2,0,L|407:18,2,35,4|2|2,3:0|0:0|0:0,0:0:0:0:
437,148,23856,2,0,L|487:176,2,35,4|2|2,3:0|0:0|0:0,0:0:0:0:
352,141,24174,5,4,3:0:0:0:
392,260,24493,2,0,L|451:253,2,35,4|2|2,3:0|0:0|0:0,0:0:0:0:
337,322,24811,2,0,L|341:374,2,35,4|0|2,3:0|0:0|0:0,0:0:0:0:
274,261,25129,2,0,L|214:266,2,35,4|0|2,3:0|0:0|0:0,0:0:0:0:
331,197,25448,5,4,0:0:0:0:
272,86,25766,2,0,L|270:34,2,35,4|2|2,3:0|0:0|0:0,0:0:0:0:
219,155,26084,2,0,L|227:216,2,35,4|2|2,3:0|0:0|0:0,0:0:0:0:
153,98,26403,1,4,3:0:0:0:
47,164,26721,6,0,P|46:124|64:86,1,70,4|0,3:0|0:0,0:0:0:0:
129,143,27039,2,0,P|163:122|204:120,1,70,0|0,1:0|0:0,0:0:0:0:
190,205,27358,2,0,P|225:224|247:259,1,70,4|4,3:0|3:0,0:0:0:0:
167,288,27676,2,0,P|167:327|149:365,1,70,0|0,1:0|0:0,0:0:0:0:
49,354,27994,5,4,0:0:0:0:
46,237,28312,2,0,P|27:230|3:227,2,35,4|2|2,3:0|0:0|0:0,0:0:0:0:
128,268,28631,2,0,P|147:261|171:258,2,35,4|2|2,3:0|0:0|0:0,0:0:0:0:
62,322,28949,2,4,P|52:343|49:363,2,35,4|2|2,3:0|0:0|0:0,3:0:0:0:
128,268,29267,5,8,0:0:0:0:
240,206,29586,2,0,L|301:195,2,35,4|2|2,3:0|0:0|0:0,0:0:0:0:
172,151,29904,2,0,L|164:91,3,35,6|2|2|2,3:0|0:0|0:0|0:0,0:0:0:0:
188,88,30222,2,0,L|194:41,2,35,6|2|2,3:0|0:0|0:0,0:0:0:0:
304,120,30541,6,0,P|322:101|349:94,3,35,6|2|2|2,3:0|0:0|0:0|0:0,0:0:0:0:
340,64,30859,2,0,P|374:79|384:97,3,35,10|2|2|2,0:0|0:0|0:0|0:0,0:0:0:0:
407,72,31177,2,0,P|417:103|406:123,3,35,6|2|2|2,3:0|0:0|0:0|0:0,0:0:0:0:
441,131,31495,2,0,P|423:151|395:154,3,35,10|2|2|2,0:0|0:0|0:0|0:0,0:0:0:0:
414,189,31814,5,6,0:0:0:0:
256,192,31973,12,6,33087,0:0:0:0:
56,296,33405,6,0,L|47:359,2,38.5000011749268,4|2|2,3:0|0:0|0:0,0:0:0:0:
101,224,33724,2,0,L|92:160,2,38.5000011749268,4|2|2,3:0|0:0|0:0,0:0:0:0:
139,299,34042,1,4,3:0:0:0:
150,296,34121,1,2,0:0:0:0:
161,295,34201,1,2,0:0:0:0:
244,283,34360,5,4,0:0:0:0:
294,351,34519,1,2,0:0:0:0:
372,320,34678,6,0,L|435:328,2,38.5000011749268,4|2|2,3:0|0:0|0:0,0:0:0:0:
350,237,34997,2,0,L|358:173,3,38.5000011749268,4|2|2|2,3:0|0:0|0:0|0:0,0:0:0:0:
327,166,35315,1,4,3:0:0:0:
323,154,35395,1,2,0:0:0:0:
320,142,35474,1,2,0:0:0:0:
297,60,35633,5,4,0:0:0:0:
369,14,35793,1,2,0:0:0:0:
431,71,35952,2,0,L|491:59,2,38.5000011749268,4|2|2,3:0|0:0|0:0,0:0:0:0:
403,150,36270,2,0,L|463:165,3,38.5000011749268,4|2|2|2,3:0|0:0|0:0|0:0,0:0:0:0:
481,168,36588,1,4,3:0:0:0:
465,251,36747,1,2,0:0:0:0:
389,290,36907,6,0,L|402:377,1,77.0000023498536,4|0,0:0|0:0,0:0:0:0:
316,352,37225,2,0,L|304:275,1,77.0000023498536,8|0,0:0|0:0,0:0:0:0:
225,334,37543,1,4,3:0:0:0:
225,334,37702,1,4,3:0:0:0:
116,255,37861,2,0,P|152:244|200:254,1,77.0000023498536,8|2,0:0|0:0,0:0:0:0:
258,199,38179,5,4,0:0:0:0:
258,199,38339,1,2,0:0:0:0:
227,120,38498,2,0,L|234:68,2,38.5000011749268,4|2|2,3:0|0:0|0:0,0:0:0:0:
148,87,38816,2,0,L|142:35,2,38.5000011749268,4|2|2,3:0|0:0|0:0,0:0:0:0:
89,148,39135,1,4,3:0:0:0:
78,144,39214,1,2,0:0:0:0:
67,139,39294,1,2,0:0:0:0:
3,195,39453,5,4,0:0:0:0:
30,275,39612,1,2,0:0:0:0:
107,310,39771,2,0,L|114:367,2,38.5000011749268,4|2|2,3:0|0:0|0:0,0:0:0:0:
175,259,40090,2,0,L|226:254,3,38.5000011749268,6|2|2|2,0:0|0:0|0:0|0:0,0:0:0:0:
233,218,40407,1,6,0:0:0:0:
244,220,40487,1,2,0:0:0:0:
255,222,40567,1,2,0:0:0:0:
308,287,40726,6,0,L|362:279,3,38.5000011749268,6|2|2|2,0:0|0:0|0:0|0:0,0:0:0:0:
390,297,41045,2,0,L|394:335,3,38.5000011749268,10|2|2|2,0:0|0:0|0:0|0:0,0:0:0:0:
429,365,41363,2,0,L|467:360,3,38.5000011749268,6|2|2|2,0:0|0:0|0:0|0:0,0:0:0:0:
494,322,41681,1,10,0:0:0:0:
495,311,41760,1,2,0:0:0:0:
496,301,41840,1,2,0:0:0:0:
497,290,41919,1,2,0:0:0:0:
498,279,41999,5,6,0:0:0:0:
256,192,42079,12,6,42954,3:0:0:0:
304,276,43273,5,6,0:0:0:0:
309,280,43432,2,0,B|281:267|281:267|242:273,2,62.9999980773926,2|4|2,0:0|3:0|0:0,0:0:0:0:
371,342,43909,1,4,3:0:0:0:
471,187,44228,1,8,0:0:0:0:
471,187,44546,6,0,L|466:235,2,31.4999990386963,4|0|2,3:0|0:0|0:0,0:0:0:0:
383,196,44864,1,4,3:0:0:0:
326,128,45023,1,2,0:0:0:0:
326,128,45182,2,0,L|294:130,3,31.4999990386963,8|0|2|0,0:0|0:0|0:0|0:0,0:0:0:0:
262,98,45501,2,0,L|230:96,3,31.4999990386963,8|0|2|0,0:0|0:0|0:0|0:0,0:0:0:0:
208,57,45819,5,4,0:0:0:0:
141,114,45978,2,0,L|147:193,1,62.9999980773926,2|4,0:0|3:0,0:0:0:0:
85,240,46296,1,2,0:0:0:0:
4,203,46456,2,0,L|21:59,2,125.999996154785,4|8|4,3:0|0:0|3:0,0:0:0:0:
13,290,47251,6,0,P|38:316|80:330,1,62.9999980773926,2|4,0:0|3:0,0:0:0:0:
148,307,47570,1,2,0:0:0:0:
209,370,47729,2,0,L|258:375,2,31.4999990386963,4|2|2,3:0|0:0|0:0,0:0:0:0:
263,295,48047,2,0,L|309:299,2,31.4999990386963,4|2|2,3:0|0:0|0:0,0:0:0:0:
214,211,48365,5,4,0:0:0:0:
214,211,48525,2,0,L|145:200,2,62.9999980773926,2|4|2,0:0|3:0|0:0,0:0:0:0:
296,179,49002,1,4,3:0:0:0:
439,284,49320,1,8,0:0:0:0:
439,284,49639,6,0,L|494:268,2,31.4999990386963,4|0|2,3:0|0:0|0:0,0:0:0:0:
358,248,49957,1,4,3:0:0:0:
282,282,50116,1,2,0:0:0:0:
208,235,50275,2,0,L|196:183,3,31.4999990386963,8|0|2|0,0:0|0:0|0:0|0:0,0:0:0:0:
167,174,50594,2,0,L|175:119,3,31.4999990386963,8|0|2|0,0:0|0:0|0:0|0:0,0:0:0:0:
153,102,50912,5,4,0:0:0:0:
214,39,51071,2,0,P|252:39|293:59,1,62.9999980773926,2|4,0:0|3:0,0:0:0:0:
319,123,51389,1,2,0:0:0:0:
402,94,51548,2,0,B|493:84|493:84|481:118,1,125.999996154785,4|8,3:0|0:0,0:0:0:0:
347,308,52344,5,2,0:0:0:0:
347,308,52663,1,2,0:0:0:0:
268,338,52822,2,0,L|268:376,2,31.4999990386963,4|2|2,3:0|0:0|0:0,0:0:0:0:
208,276,53140,1,4,3:0:0:0:
200,270,53220,1,2,0:0:0:0:
192,264,53299,1,8,0:0:0:0:
185,257,53379,1,2,0:0:0:0:
176,251,53458,5,4,0:0:0:0:
101,198,53617,1,2,0:0:0:0:
90,109,53777,1,4,3:0:0:0:
90,109,53936,1,2,0:0:0:0:
174,139,54095,2,0,P|202:126|249:126,1,70,4|0,3:0|0:0,0:0:0:0:
300,56,54413,2,0,P|277:120|322:191,1,140,8|4,0:0|3:0,0:0:0:0:
378,238,54891,6,0,L|395:154,1,70,2|4,0:0|3:0,0:0:0:0:
465,210,55209,1,2,0:0:0:0:
465,210,55368,2,0,L|457:244,3,35,4|0|2|0,0:0|0:0|0:0|0:0,0:0:0:0:
485,274,55686,2,0,L|497:334,3,35,12|0|2|0,0:0|0:0|0:0|0:0,0:0:0:0:
500,350,56005,5,4,0:0:0:0:
416,344,56164,2,0,L|341:337,1,70,2|4,0:0|3:0,0:0:0:0:
263,368,56482,1,2,0:0:0:0:
210,293,56641,2,0,L|140:299,1,70,4|0,3:0|0:0,0:0:0:0:
80,371,56960,2,0,P|49:311|66:244,1,140,8|4,0:0|0:0,0:0:0:0:
64,153,57437,6,0,P|99:159|137:189,1,70,2|4,0:0|3:0,0:0:0:0:
214,166,57755,1,2,0:0:0:0:
214,166,57915,2,0,L|206:200,2,35,4|2|2,3:0|0:0|0:0,0:0:0:0:
295,196,58233,2,0,L|288:230,2,35,4|2|2,3:3|0:0|0:0,0:0:0:0:
307,107,58551,5,4,0:0:0:0:
380,161,58710,1,2,0:0:0:0:
423,75,58869,1,4,3:0:0:0:
423,75,59029,1,2,0:0:0:0:
493,135,59188,2,0,L|484:216,1,70,4|0,3:0|0:0,0:0:0:0:
408,254,59506,2,0,B|423:355|423:355|357:331,1,140,8|4,0:0|3:0,0:0:0:0:
301,333,59984,6,0,L|211:346,1,70,2|4,0:0|3:0,0:0:0:0:
166,280,60302,1,2,0:0:0:0:
166,280,60461,2,0,L|102:289,3,35,4|0|2|0,0:0|0:0|0:0|0:0,0:0:0:0:
96,260,60779,2,0,L|33:266,3,35,12|0|2|0,0:0|0:0|0:0|0:0,0:0:0:0:
27,236,61098,5,4,0:0:0:0:
63,161,61257,2,0,P|99:166|143:201,1,70,2|4,0:0|3:0,0:0:0:0:
170,103,61575,1,2,0:0:0:0:
260,93,61734,2,0,L|275:178,1,70,4|0,3:0|0:0,0:0:0:0:
359,137,62052,2,0,L|343:279,1,140,0|0,1:0|0:0,0:0:0:0:
256,347,62530,5,0,0:0:0:0:
256,347,62848,1,0,0:0:0:0:
184,301,63007,2,0,L|191:262,2,20.9999993591309
112,348,63326,1,4,3:0:0:0:
101,345,63405,1,0,3:0:0:0:
90,342,63485,1,0,3:0:0:0:
79,339,63564,1,0,3:0:0:0:
70,336,63644,5,2,0:0:0:0:
244,172,65872,5,2,0:0:0:0:
244,172,66031,1,2,0:0:0:0:
317,127,66190,5,4,0:0:0:0:
491,281,71283,6,0,P|467:271|412:271,1,62.9999980773926,4|0,0:0|0:0,0:0:0:0:
377,322,71602,2,0,P|323:351|254:329,1,125.999996154785,2|2,0:0|0:0,0:0:0:0:
262,336,71999,1,0,0:0:0:0:
262,336,72079,1,0,0:0:0:0:
199,293,72238,2,0,L|119:307,1,62.9999980773926,2|0,0:0|0:0,0:0:0:0:
73,262,72556,6,0,P|60:229|65:192,1,62.9999980773926,2|0,0:0|0:0,0:0:0:0:
118,151,72875,1,2,0:0:0:0:
118,151,73034,1,0,0:0:0:0:
194,161,73193,2,0,L|332:186,1,125.999996154785,2|2,0:0|0:0,0:0:0:0:
396,142,73671,1,2,0:0:0:0:
465,195,73830,6,2,L|452:274,1,62.9999980773926,6|2,0:0|0:0,0:0:0:0:
380,304,74148,2,0,L|388:370,1,62.9999980773926,2|0,0:0|0:0,0:0:0:0:
302,345,74466,2,0,P|233:345|191:297,1,125.999996154785,2|2,0:0|0:0,0:0:0:0:
159,236,74944,1,0,0:0:0:0:
159,236,75103,6,0,P|104:190|45:207,1,122.5,2|0,0:0|0:0,0:0:0:0:
58,197,75739,2,0,P|6:168|6:119,1,94.499997116089,0|0,3:0|3:0,0:0:0:0:
21,104,76058,2,0,L|43:72,3,31.4999990386963,4|0|4|0,3:0|0:0|3:0|0:0,0:0:0:0:
64,51,76377,6,0,P|106:51|152:81,1,83.9999974365235,4|0,3:0|0:0,0:0:0:0:
205,137,76694,2,0,L|194:236,1,83.9999974365235,4|0,0:0|0:0,0:0:0:0:
123,278,77013,2,0,L|69:272,2,41.9999987182618,4|2|2,3:0|0:0|0:0,0:0:0:0:
181,349,77332,1,0,1:0:0:0:
255,294,77491,1,2,0:0:0:0:
319,360,77650,6,0,L|402:351,1,83.9999974365235,2|2,3:2|0:2,0:0:0:0:
460,278,77968,2,0,P|428:262|376:262,1,83.9999974365235,0|2,1:0|0:2,0:0:0:0:
334,181,78286,2,0,P|247:182|201:118,1,167.999994873047,4|0,3:0|1:0,0:0:0:0:
291,99,78764,1,2,0:0:0:0:
382,107,78923,6,0,P|407:96|466:96,1,83.9999974365235,4|0,3:0|0:0,0:0:0:0:
510,173,79241,2,0,B|498:277,1,83.9999974365235,4|0,0:0|0:0,0:0:0:0:
467,347,79559,1,4,3:0:0:0:
467,347,79639,1,2,0:0:0:0:
467,347,79718,1,2,0:0:0:0:
367,336,79878,1,0,1:0:0:0:
345,246,80037,1,2,0:2:0:0:
280,311,80196,6,0,L|193:301,1,83.9999974365235,4|0,3:0|0:0,0:0:0:0:
124,360,80514,2,0,L|37:369,1,83.9999974365235,0|0,1:0|0:0,0:0:0:0:
30,276,80832,2,0,L|113:267,1,83.9999974365235,4|4,3:0|3:0,0:0:0:0:
185,208,81151,1,2,1:2:0:0:
185,208,81310,1,2,0:0:0:0:
236,133,81469,6,0,P|206:119|157:119,1,83.9999974365235,4|0,3:0|0:0,0:0:0:0:
185,208,81787,2,0,P|215:222|264:222,1,83.9999974365235,4|0,0:0|0:0,0:0:0:0:
329,154,82106,1,4,3:0:0:0:
329,154,82185,1,2,0:0:0:0:
329,154,82265,1,2,0:0:0:0:
391,221,82424,1,0,1:0:0:0:
458,157,82583,1,2,0:2:0:0:
511,233,82743,6,0,L|500:341,1,83.9999974365235,4|2,3:0|0:2,0:0:0:0:
425,371,83060,1,2,1:2:0:0:
335,359,83220,1,2,0:2:0:0:
272,289,83379,2,0,P|230:344|135:344,1,167.999994873047,4|0,3:0|1:0,0:0:0:0:
183,264,83857,1,2,0:0:0:0:
246,196,84016,6,0,P|294:196|342:223,1,83.9999974365235,4|0,3:0|0:0,0:0:0:0:
400,264,84334,2,0,L|415:156,1,83.9999974365235,4|0,0:0|0:0,0:0:0:0:
425,89,84652,1,4,3:0:0:0:
425,89,84732,1,2,0:0:0:0:
425,89,84812,1,2,0:0:0:0:
350,34,84971,1,0,1:0:0:0:
257,39,85130,1,2,0:2:0:0:
193,105,85289,6,0,B|85:83|85:83|112:133,1,167.999994873047,4|0,3:0|1:0,0:0:0:0:
219,284,85926,1,4,3:0:0:0:
219,284,86085,1,4,3:0:0:0:
131,313,86244,2,0,L|136:367,3,41.9999987182618,4|4|4|4,3:0|3:0|3:0|3:0,0:0:0:0:
115,382,86562,5,6,0:0:0:0:
6,319,86880,1,2,0:0:0:0:
78,216,87198,2,0,L|73:263,2,28,2|2|2,0:0|0:0|0:0,0:0:0:0:
140,152,87517,2,0,L|130:80,1,56,0|2,0:0|0:0,0:0:0:0:
195,40,87835,5,4,0:0:0:0:
195,40,87994,1,2,0:0:0:0:
273,72,88153,1,4,0:0:0:0:
273,72,88313,1,2,0:0:0:0:
332,11,88472,1,4,0:0:0:0:
419,153,88790,2,0,L|411:209,3,38.5000011749268,4|4|4|4,3:0|3:0|3:0|3:0,0:0:0:0:
406,233,89108,5,4,3:0:0:0:
285,344,89426,2,0,P|258:329|192:328,1,77.0000023498536,4|0,0:0|0:0,0:0:0:0:
122,306,89745,1,4,3:0:0:0:
122,306,89824,1,2,0:0:0:0:
122,306,89904,1,2,0:0:0:0:
53,234,90063,2,0,P|93:212|138:212,1,77.0000023498536,0|2,1:0|0:2,0:0:0:0:
197,159,90381,6,0,L|363:179,2,154.000004699707,4|0|4,3:0|1:0|3:0,0:0:0:0:
135,89,91177,2,0,L|40:98,2,77.0000023498536,4|2|2,3:0|1:2|0:0,0:0:0:0:
197,159,91655,6,0,P|167:83|202:18,1,154.000004699707,4|4,3:0|0:0,0:0:0:0:
407,149,92291,1,4,3:0:0:0:
407,149,92371,1,2,0:0:0:0:
407,149,92450,1,2,0:0:0:0:
342,215,92609,2,0,L|358:308,1,77.0000023498536,0|2,1:0|0:2,0:0:0:0:
280,369,92928,1,4,3:0:0:0:
258,272,93087,1,2,0:2:0:0:
189,337,93246,6,0,L|96:321,1,77.0000023498536,2|2,1:2|0:2,0:0:0:0:
64,246,93564,2,0,P|99:156|165:173,1,154.000004699707,4|0,3:0|1:0,0:0:0:0:
157,65,94042,1,2,0:0:0:0:
157,65,94201,6,0,P|204:87|233:128,1,77.0000023498536,4|0,3:0|0:0,0:0:0:0:
307,75,94519,2,0,L|296:165,1,77.0000023498536,4|0,0:0|0:0,0:0:0:0:
298,250,94838,1,4,3:0:0:0:
298,250,94917,1,0,0:0:0:0:
298,250,94997,1,4,3:0:0:0:
366,316,95156,1,0,1:0:0:0:
453,282,95315,1,2,0:0:0:0:
459,190,95474,5,4,0:0:0:0:
256,192,95633,12,0,96747,0:0:0:0:
