osu file format v14

[General]
AudioFilename: audio.mp3
AudioLeadIn: 0
PreviewTime: 12716
Countdown: 0
SampleSet: Soft
StackLeniency: 0.7
Mode: 0
LetterboxInBreaks: 0
WidescreenStoryboard: 1

[Editor]
Bookmarks: 777,2210,2528,12714,22899,33085,43271,53456,63642,65870,66188,76374,86560,96745
DistanceSpacing: 0.8
BeatDivisor: 4
GridSize: 8
TimelineZoom: 2.2

[Metadata]
Title:Ohayou !
TitleUnicode:OhayƓ !
Artist:Thaehan
ArtistUnicode:Thaehan
Creator:Mafumafu
Version:Taeyang's Expert
Source:osu!
Tags:featured artist Loki bwa Nao Tomori Naotoshi Noffy _Stan Taeyang Regraz mappers' guild electronic
BeatmapID:1972802
BeatmapSetID:725806

[Difficulty]
HPDrainRate:6.5
CircleSize:4
OverallDifficulty:8.2
ApproachRate:9.3
SliderMultiplier:1.92
SliderTickRate:1

[Events]
//Background and Video events
0,0,"BG1366X768.jpg",0,0
//Break Periods
//Storyboard Layer 0 (Background)
//Storyboard Layer 1 (Fail)
//Storyboard Layer 2 (Pass)
//Storyboard Layer 3 (Foreground)
//Storyboard Layer 4 (Overlay)
//Storyboard Sound Samples

[TimingPoints]
-16,318.302387267905,4,2,1,30,1,0
2212,-133.333333333333,4,2,1,30,0,0
2530,-133.333333333333,4,2,1,40,0,0
6350,-200,4,2,1,40,0,0
7623,-133.333333333333,4,2,1,40,0,0
11442,-111.111111111111,4,2,1,40,0,0
11999,-111.111111111111,4,2,1,5,0,0
12079,-111.111111111111,4,2,1,40,0,0
12397,-111.111111111111,4,2,1,60,0,0
12716,-83.3333333333333,4,2,1,80,0,1
22901,-100,4,2,1,60,0,0
33087,-100,4,2,1,70,0,0
43273,-111.111111111111,4,2,1,60,0,0
53458,-100,4,2,1,60,0,0
62371,-200,4,2,1,60,0,0
62928,-200,4,2,1,5,0,0
63007,-200,4,2,1,40,0,0
64440,-100,4,2,1,40,0,0
65793,-100,4,2,1,5,0,0
65872,-133.333333333333,4,2,1,40,0,0
66190,-133.333333333333,4,2,1,50,0,0
70010,-200,4,2,1,50,0,0
71283,-133.333333333333,4,2,1,50,0,0
75103,-111.111111111111,4,2,1,50,0,0
76376,-83.3333333333333,4,2,1,80,0,1
86562,-100,4,2,1,50,0,0
88710,-100,4,2,1,5,0,0
88790,-100,4,2,1,50,0,0
89108,-83.3333333333333,4,2,1,80,0,1
95474,-100,4,2,1,40,0,0

[Colours]
Combo1 : 43,228,255
Combo2 : 255,69,43
Combo3 : 69,43,255

[HitObjects]
138,72,779,6,0,B|146:115|181:150|181:150|212:136|239:72|239:72|222:133|200:190|156:243|156:243|201:192|220:157|238:134|276:73|368:67|430:138|396:292|260:260|250:203|254:184,1,816,2|0,0:0|0:0,0:0:0:0:
366,132,2212,6,0,P|373:166|366:202,1,72.0000027465821,0|0,0:0|0:0,0:0:0:0:
459,320,2530,6,0,P|393:295|322:306,1,144.000005493164,4|0,0:0|0:0,0:0:0:0:
322,306,3167,2,0,L|324:364,2,36.0000013732911,2|0|0,0:0|0:0|0:0,0:0:0:0:
243,224,3485,2,0,P|207:230|171:222,1,72.0000027465821,0|0,0:0|0:0,0:0:0:0:
98,171,3803,5,2,0:0:0:0:
111,84,3962,1,0,0:0:0:0:
85,258,4121,5,0,0:0:0:0:
98,171,4280,1,0,0:0:0:0:
111,84,4440,1,2,0:0:0:0:
111,83,4758,2,0,P|144:72|179:79,1,72.0000027465821,0|0,0:0|0:0,0:0:0:0:
111,83,5076,6,0,P|177:107|246:84,1,144.000005493164,2|0,0:0|0:0,0:0:0:0:
244,85,5713,2,0,L|242:139,2,36.0000013732911,2|0|0,0:0|0:0|0:0,0:0:0:0:
318,147,6031,2,0,L|322:75,1,72.0000027465821,0|0,0:0|0:0,0:0:0:0:
363,215,6350,6,0,B|307:242|264:205|264:205|270:235|270:235|224:205|171:226,1,240,2|0,0:0|0:0,0:0:0:0:
94,263,7304,1,0,0:0:0:0:
101,351,7464,1,0,0:0:0:0:
89,191,7623,6,0,L|94:263,1,72.0000027465821,2|0,0:0|0:0,0:0:0:0:
154,118,7941,2,0,L|149:46,1,72.0000027465821,0|0,0:0|0:0,0:0:0:0:
234,159,8259,1,2,0:0:0:0:
234,159,8339,2,0,P|251:161|269:158,1,36.0000013732911,0|0,0:0|0:0,0:0:0:0:
366,98,8578,2,0,P|400:88|434:97,1,72.0000027465821,0|0,0:0|0:0,0:0:0:0:
338,247,8896,6,0,P|313:221|304:187,1,72.0000027465821,4|0,0:3|0:0,0:0:0:0:
481,195,9214,2,0,P|472:230|447:255,1,72.0000027465821,4|0,0:3|0:0,0:0:0:0:
366,98,9533,2,0,P|400:88|434:97,1,72.0000027465821,4|0,0:3|0:0,0:0:0:0:
338,247,9851,1,4,0:3:0:0:
400,163,10010,1,0,0:0:0:0:
384,307,10169,6,0,P|352:322|316:317,1,72.0000027465821,4|0,0:3|0:0,0:0:0:0:
199,207,10487,2,0,P|167:191|131:196,1,72.0000027465821,4|0,0:3|0:0,0:0:0:0:
235,353,10806,2,0,L|241:263,1,72.0000027465821,4|0,0:3|0:0,0:0:0:0:
152,371,11124,1,4,0:3:0:0:
316,317,11283,1,0,0:0:0:0:
214,161,11442,6,0,B|170:81|116:167|162:340|239:360|239:276,1,302.399990771485,2|0,1:2|0:0,0:0:0:0:
302,236,12079,5,2,0:0:0:0:
302,236,12159,1,0,0:0:0:0:
302,236,12238,1,2,0:0:0:0:
302,236,12318,1,0,0:0:0:0:
302,236,12397,5,4,0:3:0:0:
343,213,12477,1,4,0:3:0:0:
389,228,12556,1,4,0:3:0:0:
408,272,12636,1,4,0:3:0:0:
355,258,12716,6,0,B|370:202|370:202|355:146,1,115.199996484375,4|0,0:0|0:0,0:0:0:0:
275,53,13034,2,0,P|228:36|162:57,1,115.199996484375,0|0,1:0|0:0,0:0:0:0:
102,168,13352,1,4,0:3:0:0:
98,196,13431,1,0,0:0:0:0:
95,225,13511,1,2,0:0:0:0:
209,345,13671,1,0,1:0:0:0:
187,179,13830,1,2,0:0:0:0:
37,277,13989,6,0,P|87:303|141:287,1,115.199996484375,4|2,0:3|0:0,0:0:0:0:
194,163,14307,1,0,1:0:0:0:
221,352,14466,1,2,0:0:0:0:
37,277,14625,2,0,P|91:261|141:287,1,115.199996484375,4|0,0:3|0:0,0:0:0:0:
238,373,14944,1,0,1:0:0:0:
297,217,15103,1,0,0:0:0:0:
465,298,15262,6,0,L|350:304,1,115.199996484375,4|0,0:3|0:0,0:0:0:0:
241,162,15580,2,0,P|292:138|346:155,1,115.199996484375,0|0,1:0|0:0,0:0:0:0:
232,304,15899,1,4,0:3:0:0:
229,275,15978,1,0,0:0:0:0:
227,246,16058,1,2,0:0:0:0:
210,69,16217,1,0,1:0:0:0:
130,276,16376,1,2,0:0:0:0:
241,162,16535,6,0,P|292:138|346:155,1,115.199996484375,4|0,0:3|0:0,0:0:0:0:
178,112,16854,2,0,P|278:62|388:89,1,230.39999296875,0|4,1:0|0:3,0:0:0:0:
438,321,17331,1,0,0:0:0:0:
298,216,17490,1,0,1:0:0:0:
452,135,17649,1,0,0:0:0:0:
359,313,17808,6,0,L|244:304,1,115.199996484375,4|0,0:3|0:0,0:0:0:0:
146,191,18127,2,0,P|78:170|56:230,1,115.199996484375,0|0,1:0|0:0,0:0:0:0:
102,338,18445,1,4,0:3:0:0:
105,300,18524,1,0,0:0:0:0:
109,262,18604,1,2,0:0:0:0:
9,358,18763,1,0,1:0:0:0:
197,380,18922,1,2,0:0:0:0:
288,214,19082,5,4,0:3:0:0:
112,238,19241,1,2,0:0:0:0:
204,344,19400,5,0,1:0:0:0:
380,368,19559,1,2,0:0:0:0:
343,161,19718,6,0,P|249:148|221:180,1,115.199996484375,4|0,0:3|0:0,0:0:0:0:
362,263,20037,1,0,1:0:0:0:
388,71,20196,1,0,0:0:0:0:
177,107,20355,6,0,P|159:161|183:211,1,115.199996484375,4|0,0:3|0:0,0:0:0:0:
237,44,20673,2,0,B|183:26|183:26|126:38,1,115.199996484375,0|0,1:0|0:0,0:0:0:0:
35,136,20991,1,4,0:3:0:0:
36,164,21070,1,0,0:0:0:0:
38,193,21150,1,2,0:0:0:0:
51,338,21310,1,0,1:0:0:0:
117,185,21469,1,2,0:0:0:0:
175,287,21628,6,0,P|227:310|282:296,1,115.199996484375,4|0,0:3|0:0,0:0:0:0:
374,194,21946,2,0,P|425:171|480:185,1,115.199996484375,0|0,1:0|0:0,0:0:0:0:
363,295,22265,1,4,0:3:0:0:
262,132,22424,1,4,0:3:0:0:
175,287,22583,1,4,0:3:0:0:
200,303,22662,1,4,0:3:0:0:
227,310,22742,1,4,0:3:0:0:
256,308,22821,1,4,0:3:0:0:
282,296,22901,5,4,0:0:0:0:
374,194,23060,1,0,0:0:0:0:
234,189,23220,1,4,0:3:0:0:
234,212,23299,1,0,0:0:0:0:
235,236,23379,1,2,0:0:0:0:
156,101,23538,1,4,0:3:0:0:
156,124,23617,1,0,0:0:0:0:
157,148,23697,1,2,0:0:0:0:
279,46,23856,1,4,0:3:0:0:
279,69,23935,1,0,0:0:0:0:
280,93,24015,1,2,0:0:0:0:
196,15,24174,5,4,0:3:0:0:
356,105,24334,1,2,0:0:0:0:
157,148,24493,1,4,0:3:0:0:
156,124,24573,1,0,0:0:0:0:
156,101,24652,1,2,0:0:0:0:
279,46,24811,5,4,0:3:0:0:
279,69,24890,1,0,0:0:0:0:
280,93,24970,1,2,0:0:0:0:
280,115,25050,1,0,0:0:0:0:
281,145,25129,1,4,0:3:0:0:
292,177,25208,1,0,0:0:0:0:
330,185,25288,1,2,0:0:0:0:
362,150,25367,1,0,0:0:0:0:
356,105,25448,5,4,0:3:0:0:
157,148,25607,1,0,0:0:0:0:
209,286,25766,1,4,0:3:0:0:
243,286,25845,1,0,0:0:0:0:
279,284,25925,1,2,0:0:0:0:
159,227,26084,1,4,0:3:0:0:
137,255,26163,1,0,0:0:0:0:
131,290,26243,1,2,0:0:0:0:
141,324,26322,1,0,0:0:0:0:
165,350,26402,1,4,0:3:0:0:
329,366,26562,1,2,0:0:0:0:
420,276,26721,6,0,L|417:175,1,96,4|2,0:3|0:0,0:0:0:0:
420,276,27039,1,4,0:3:0:0:
415,96,27198,1,2,0:0:0:0:
321,213,27358,2,0,P|275:226|231:209,1,96,4|2,0:3|0:0,0:0:0:0:
415,96,27676,1,4,0:3:0:0:
321,213,27835,1,2,0:0:0:0:
256,41,27994,5,4,0:3:0:0:
434,103,28153,1,0,0:0:0:0:
231,209,28312,2,0,P|226:185|230:152,1,48,4|0,0:3|0:0,0:0:0:0:
290,120,28472,1,2,0:0:0:0:
397,127,28631,2,0,P|378:143|348:156,1,48,4|0,0:3|0:0,0:0:0:0:
290,120,28791,1,2,0:0:0:0:
243,25,28949,2,0,P|266:32|292:52,1,48,4|0,0:3|0:0,0:0:0:0:
290,120,29109,1,2,0:0:0:0:
189,297,29267,5,4,0:3:0:0:
180,90,29426,1,2,0:0:0:0:
76,204,29586,2,0,L|142:201,1,48,4|0,0:3|0:0,0:0:0:0:
204,195,29745,1,2,0:0:0:0:
229,334,29904,1,4,0:3:0:0:
229,334,29984,1,0,0:0:0:0:
229,334,30063,1,2,0:0:0:0:
229,334,30143,1,0,0:0:0:0:
229,334,30222,1,4,0:3:0:0:
199,318,30301,1,0,0:0:0:0:
166,315,30381,1,2,0:0:0:0:
133,325,30460,1,0,0:0:0:0:
109,351,30541,5,4,0:3:0:0:
83,334,30620,1,0,0:0:0:0:
68,307,30700,1,2,0:0:0:0:
66,276,30779,1,0,0:0:0:0:
79,248,30859,1,4,0:3:0:0:
114,227,30938,1,0,0:0:0:0:
133,191,31018,1,2,0:0:0:0:
128,149,31097,1,0,0:0:0:0:
102,118,31177,5,4,0:3:0:0:
107,159,31256,1,0,0:0:0:0:
133,191,31336,1,2,0:0:0:0:
169,209,31416,1,0,0:0:0:0:
210,204,31495,1,4,0:3:0:0:
252,179,31574,1,0,0:0:0:0:
302,175,31655,1,2,0:0:0:0:
348,194,31733,1,0,0:0:0:0:
381,230,31814,5,2,0:0:0:0:
350,257,31893,1,0,0:0:0:0:
310,269,31973,1,2,0:0:0:0:
270,261,32052,1,0,0:0:0:0:
236,237,32132,1,0,0:0:0:0:
217,200,32211,1,0,0:0:0:0:
215,160,32291,1,2,0:0:0:0:
232,121,32371,1,0,0:0:0:0:
260,90,32450,2,0,L|307:88,1,48,2|0,0:0|0:0,0:0:0:0:
227,15,32609,2,0,L|274:13,1,48,0|0,0:0|0:0,0:0:0:0:
416,44,32769,1,4,0:3:0:0:
414,55,32848,1,4,0:3:0:0:
413,67,32928,1,4,0:3:0:0:
411,79,33007,1,4,0:3:0:0:
410,91,33087,5,4,0:0:0:0:
375,343,33246,1,0,0:0:0:0:
310,153,33405,1,0,1:0:0:0:
310,153,33485,1,0,0:0:0:0:
310,153,33564,1,2,0:0:0:0:
509,232,33724,1,4,0:3:0:0:
509,232,33804,1,0,0:0:0:0:
509,232,33883,1,2,0:0:0:0:
249,270,34042,1,0,1:0:0:0:
249,270,34122,1,0,0:0:0:0:
249,270,34201,1,2,0:0:0:0:
351,77,34360,5,4,0:3:0:0:
375,343,34519,1,0,0:0:0:0:
194,161,34678,1,0,1:0:0:0:
194,161,34758,1,0,0:0:0:0:
194,161,34838,1,2,0:0:0:0:
401,19,34997,1,4,0:3:0:0:
422,47,35076,1,0,0:0:0:0:
428,82,35156,1,2,0:0:0:0:
416,116,35235,1,0,0:0:0:0:
390,140,35315,1,0,1:0:0:0:
365,174,35395,1,0,0:0:0:0:
358,216,35475,1,2,0:0:0:0:
372,257,35554,1,0,0:0:0:0:
404,286,35633,5,4,0:3:0:0:
351,77,35793,1,2,0:0:0:0:
142,130,35952,1,0,1:0:0:0:
142,130,36031,1,0,0:0:0:0:
142,130,36112,1,2,0:0:0:0:
195,339,36270,1,4,0:3:0:0:
197,303,36349,1,0,0:0:0:0:
200,267,36429,1,2,0:0:0:0:
203,231,36508,1,0,0:0:0:0:
206,195,36588,1,0,1:0:0:0:
101,361,36747,1,0,0:0:0:0:
284,322,36907,6,0,L|290:225,1,96,4|2,0:3|0:0,0:0:0:0:
83,83,37225,1,0,1:0:0:0:
195,339,37384,1,2,0:0:0:0:
342,170,37543,2,0,P|300:149|254:159,1,96,4|2,0:3|0:0,0:0:0:0:
195,339,37861,1,0,1:0:0:0:
409,226,38021,1,2,0:0:0:0:
301,52,38180,5,4,0:3:0:0:
329,267,38339,1,2,0:0:0:0:
423,110,38498,1,0,1:0:0:0:
423,110,38578,1,0,0:0:0:0:
423,110,38657,1,2,0:0:0:0:
169,147,38816,1,4,0:3:0:0:
169,147,38896,1,0,0:0:0:0:
169,147,38975,1,2,0:0:0:0:
315,289,39135,1,0,1:0:0:0:
315,289,39215,1,0,0:0:0:0:
315,289,39294,1,2,0:0:0:0:
217,77,39453,5,4,0:3:0:0:
160,314,39612,1,2,0:0:0:0:
83,134,39771,1,0,1:0:0:0:
83,134,39851,1,0,0:0:0:0:
83,134,39930,1,2,0:0:0:0:
253,260,40090,1,4,0:3:0:0:
280,282,40169,1,0,0:0:0:0:
315,289,40249,1,2,0:0:0:0:
349,278,40328,1,0,0:0:0:0:
374,252,40408,1,0,1:0:0:0:
339,223,40487,1,0,0:0:0:0:
298,214,40567,1,2,0:0:0:0:
257,227,40646,1,0,0:0:0:0:
227,259,40726,5,4,0:3:0:0:
195,274,40805,1,0,0:0:0:0:
156,278,40885,1,2,0:0:0:0:
124,271,40964,1,0,0:0:0:0:
94,252,41045,2,0,L|91:204,1,48,0|0,1:0|0:0,0:0:0:0:
200,43,41204,2,0,L|197:90,1,48,2|0,0:0|0:0,0:0:0:0:
35,153,41363,5,4,0:3:0:0:
64,133,41442,1,0,0:0:0:0:
99,128,41522,1,2,0:0:0:0:
133,139,41601,1,0,0:0:0:0:
161,166,41681,2,0,P|183:174|207:175,1,48,0|0,1:0|0:0,0:0:0:0:
329,63,41840,2,0,P|351:54|375:53,1,48,2|0,0:0|0:0,0:0:0:0:
451,263,41999,5,2,0:0:0:0:
418,297,42078,1,0,0:0:0:0:
372,309,42158,1,2,0:0:0:0:
328,293,42237,1,0,0:0:0:0:
299,256,42317,1,0,0:0:0:0:
295,209,42396,1,0,0:0:0:0:
317,167,42476,1,2,0:0:0:0:
359,144,42556,1,0,0:0:0:0:
406,148,42636,5,2,0:0:0:0:
405,160,42715,1,0,0:0:0:0:
405,172,42795,1,0,0:0:0:0:
404,184,42874,1,0,0:0:0:0:
404,196,42954,1,2,0:0:0:0:
403,208,43033,1,0,0:0:0:0:
403,220,43113,1,2,0:0:0:0:
402,232,43193,1,0,0:0:0:0:
402,244,43272,5,4,0:0:0:0:
217,257,43432,2,0,L|214:213,1,43.1999986816407,2|0,0:0|0:0,0:0:0:0:
207,276,43591,2,0,L|204:232,1,43.1999986816407,4|0,0:3|0:0,0:0:0:0:
197,295,43750,2,0,L|194:251,1,43.1999986816407,2|0,0:0|0:0,0:0:0:0:
299,329,43909,2,0,L|295:242,1,86.3999973632813,4|0,0:3|0:0,0:0:0:0:
118,379,44228,2,0,L|114:292,1,86.3999973632813,4|0,0:3|0:0,0:0:0:0:
207,117,44546,5,4,0:3:0:0:
74,222,44705,1,2,0:0:0:0:
277,161,44864,2,0,P|289:128|279:75,1,86.3999973632813,4|2,0:3|0:0,0:0:0:0:
214,217,45182,1,4,0:3:0:0:
241,236,45261,1,0,0:0:0:0:
272,244,45341,1,2,0:0:0:0:
304,240,45420,1,0,0:0:0:0:
332,225,45500,1,4,0:3:0:0:
358,206,45580,1,0,0:0:0:0:
389,198,45660,1,2,0:0:0:0:
421,202,45739,1,0,0:0:0:0:
449,217,45819,6,0,L|450:303,1,86.3999973632813,4|2,0:3|0:0,0:0:0:0:
465,117,46137,2,0,L|466:203,1,86.3999973632813,4|2,0:3|0:0,0:0:0:0:
394,69,46456,2,0,P|337:49|265:78,1,129.599996044922,4|0,0:3|0:0,0:0:0:0:
236,5,46774,2,0,B|262:37|255:87,1,86.3999973632813,4|0,0:3|0:0,0:0:0:0:
213,291,47092,6,0,P|259:293|306:260,1,86.3999973632813,4|2,0:3|0:0,0:0:0:0:
213,291,47411,2,0,P|169:274|135:223,1,86.3999973632813,4|2,0:3|0:0,0:0:0:0:
326,148,47729,1,4,0:3:0:0:
321,169,47808,1,0,0:0:0:0:
316,190,47888,1,2,0:0:0:0:
160,122,48047,1,4,0:3:0:0:
158,143,48126,1,0,0:0:0:0:
156,164,48206,1,2,0:0:0:0:
255,86,48365,5,4,0:3:0:0:
271,288,48525,2,0,P|290:297|311:298,1,43.1999986816407,2|0,0:0|0:0,0:0:0:0:
284,302,48684,2,0,P|305:306|326:301,1,43.1999986816407,4|0,0:3|0:0,0:0:0:0:
300,312,48843,2,0,P|321:310|340:300,1,43.1999986816407,2|0,0:0|0:0,0:0:0:0:
397,151,49002,2,0,P|387:191|404:241,1,86.3999973632813,4|0,0:3|0:0,0:0:0:0:
394,68,49320,2,0,P|406:109|397:151,1,86.3999973632813,4|0,0:3|0:0,0:0:0:0:
340,300,49639,5,4,0:3:0:0:
471,193,49798,1,2,0:0:0:0:
320,109,49957,2,0,B|278:98|278:98|237:110,1,86.3999973632813,4|2,0:3|0:0,0:0:0:0:
90,197,50275,1,4,0:3:0:0:
113,220,50354,1,0,0:0:0:0:
143,205,50434,1,2,0:0:0:0:
138,172,50513,1,0,0:0:0:0:
105,166,50594,1,4,0:3:0:0:
90,197,50673,1,2,0:0:0:0:
89,229,50753,1,0,0:0:0:0:
89,261,50833,1,0,0:0:0:0:
89,294,50912,5,4,0:3:0:0:
247,215,51071,1,2,0:0:0:0:
169,363,51230,2,0,L|169:272,1,86.3999973632813,4|2,0:3|0:0,0:0:0:0:
247,375,51548,2,0,L|247:232,1,129.599996044922,4|0,0:3|0:0,0:0:0:0:
206,181,51867,2,0,P|246:195|286:183,1,86.3999973632813,4|0,0:3|0:0,0:0:0:0:
357,88,52185,5,0,0:0:0:0:
140,104,52344,1,2,0:0:0:0:
140,104,52663,1,2,0:0:0:0:
182,255,52822,1,0,0:0:0:0:
182,255,52901,1,0,0:0:0:0:
182,255,52981,1,2,0:0:0:0:
250,116,53140,1,4,0:3:0:0:
250,116,53219,1,4,0:3:0:0:
250,116,53299,1,4,0:3:0:0:
250,116,53379,1,4,0:3:0:0:
250,116,53458,5,4,0:3:0:0:
415,204,53617,2,0,L|409:278,1,48
439,183,53777,2,0,L|433:257,1,48,0|0,1:0|0:0,0:0:0:0:
463,162,53936,2,0,L|457:236,1,48
325,337,54095,2,0,P|278:336|231:324,1,96,0|0,0:0|0:0,0:0:0:0:
57,265,54413,2,0,P|104:264|151:252,1,96,0|0,1:0|0:0,0:0:0:0:
250,116,54732,5,4,0:3:0:0:
298,263,54891,1,2,0:0:0:0:
174,154,55050,2,0,P|162:108|180:64,1,96,0|0,1:0|0:0,0:0:0:0:
240,213,55368,1,0,0:0:0:0:
210,233,55447,1,0,0:0:0:0:
175,240,55527,1,2,0:0:0:0:
140,232,55606,1,0,0:0:0:0:
111,211,55686,1,0,1:0:0:0:
83,234,55765,1,0,0:0:0:0:
68,266,55845,1,2,0:0:0:0:
67,302,55924,1,0,0:0:0:0:
81,335,56004,5,4,0:3:0:0:
298,263,56164,1,2,0:0:0:0:
174,154,56323,2,0,P|162:108|180:64,1,96,0|2,1:0|0:0,0:0:0:0:
388,117,56641,2,0,B|320:136|320:136|249:115,1,144,0|0,0:0|0:0,0:0:0:0:
174,154,56960,2,0,P|162:108|180:64,1,96,0|0,1:0|0:0,0:0:0:0:
197,239,57278,6,0,L|78:230,1,96,4|2,0:3|0:0,0:0:0:0:
269,306,57596,2,0,L|388:297,1,96,0|2,1:0|0:0,0:0:0:0:
465,183,57915,1,0,0:0:0:0:
441,179,57994,1,0,0:0:0:0:
417,175,58074,1,2,0:0:0:0:
296,83,58233,1,0,1:0:0:0:
320,79,58313,1,0,0:0:0:0:
344,76,58392,1,2,0:0:0:0:
223,142,58551,5,4,0:3:0:0:
417,37,58710,2,0,P|427:58|426:82,1,48,0|0,0:0|0:0,0:0:0:0:
439,59,58869,2,0,P|443:82|436:105,1,48,0|0,1:0|0:0,0:0:0:0:
454,85,59029,2,0,P|451:108|439:128,1,48,0|0,0:0|0:0,0:0:0:0:
349,221,59188,2,0,P|303:211|256:219,1,96
70,284,59506,2,0,P|117:295|164:287,1,96,0|2,1:0|0:0,0:0:0:0:
223,142,59824,5,4,0:3:0:0:
283,322,59984,1,2,0:0:0:0:
111,211,60143,2,0,L|120:95,1,96,0|2,1:0|0:0,0:0:0:0:
43,259,60461,1,0,0:0:0:0:
68,283,60540,1,0,0:0:0:0:
102,294,60620,1,2,0:0:0:0:
138,289,60699,1,0,0:0:0:0:
167,269,60779,1,0,1:0:0:0:
192,244,60859,1,0,0:0:0:0:
226,233,60939,1,2,0:0:0:0:
262,238,61018,1,0,0:0:0:0:
291,258,61098,6,0,L|283:353,1,96,4|2,0:3|0:0,0:0:0:0:
385,176,61416,2,0,L|377:271,1,96,0|2,1:0|0:0,0:0:0:0:
450,128,61734,2,0,P|390:94|324:119,1,144,0|0,0:0|0:0,0:0:0:0:
263,160,62052,2,0,P|277:114|266:66,1,96,0|0,1:0|0:0,0:0:0:0:
128,93,62371,6,0,P|166:147|180:83,1,168,2|0,0:0|0:0,0:0:0:0:
135,14,63007,5,0,0:0:0:0:
135,14,63087,1,0,0:0:0:0:
135,14,63167,1,0,0:0:0:0:
83,200,63326,1,4,0:3:0:0:
113,219,63405,1,4,0:3:0:0:
147,228,63485,1,4,0:3:0:0:
183,225,63564,1,4,0:3:0:0:
216,211,63644,5,2,0:0:0:0:
363,119,63803,1,2,0:0:0:0:
401,192,64440,6,0,B|467:158|471:68|421:11|335:-7|288:51|274:105|273:124|273:124|270:159|233:210|168:239|117:181|101:90|161:21|235:23|302:101|312:156|307:206|286:228,1,816,0|0,0:0|0:0,0:0:0:0:
238,298,65872,6,0,L|140:295,1,72.0000027465821,0|0,0:0|0:0,0:0:0:0:
317,314,66190,2,0,L|173:311,1,144.000005493164,2|2,0:0|0:0,0:0:0:0:
173,311,66827,2,0,L|176:249,2,36.0000013732911,2|0|0,0:0|0:0|0:0,0:0:0:0:
89,323,67145,2,0,L|95:251,1,72.0000027465821,2|0,0:0|0:0,0:0:0:0:
113,124,67464,5,2,0:0:0:0:
200,137,67623,1,0,0:0:0:0:
26,111,67782,5,2,0:0:0:0:
113,124,67941,1,0,0:0:0:0:
200,137,68101,1,2,0:0:0:0:
200,137,68419,2,0,P|236:140|276:134,1,72.0000027465821,2|0,0:0|0:0,0:0:0:0:
170,210,68737,6,0,P|240:223|310:207,1,144.000005493164,2|2,0:0|0:0,0:0:0:0:
309,207,69373,2,0,L|306:261,2,36.0000013732911,2|0|0,0:0|0:0|0:0,0:0:0:0:
347,104,69692,2,0,P|313:112|277:107,1,72.0000027465821,2|0,0:0|0:0,0:0:0:0:
133,56,70010,6,0,B|92:61|69:109|71:169|107:194|165:197|185:165|160:123|131:132,1,240,2|0,0:0|0:0,0:0:0:0:
59,229,70965,1,2,0:0:0:0:
155,254,71124,1,0,0:0:0:0:
232,197,71283,6,0,P|244:158|237:123,1,72.0000027465821,2|0,0:0|0:0,0:0:0:0:
133,56,71602,2,0,P|168:61|207:49,1,72.0000027465821,2|0,0:0|0:0,0:0:0:0:
329,1,71920,1,2,0:0:0:0:
329,1,71999,2,0,L|325:67,1,36.0000013732911,0|0,0:0|0:0,0:0:0:0:
391,185,72238,2,0,L|394:113,1,72.0000027465821,2|0,0:0|0:0,0:0:0:0:
338,263,72556,6,0,L|273:295,1,72.0000027465821,2|0,0:0|0:0,0:0:0:0:
433,270,72874,2,0,L|493:309,1,72.0000027465821,2|0,0:0|0:0,0:0:0:0:
391,185,73193,2,0,L|394:113,1,72.0000027465821,2|0,0:0|0:0,0:0:0:0:
338,263,73511,1,2,0:0:0:0:
293,137,73671,1,0,0:0:0:0:
153,183,73830,6,0,P|185:197|221:195,1,72.0000027465821,4|0,0:3|0:0,0:0:0:0:
87,112,74148,2,0,P|51:109|18:124,1,72.0000027465821,4|0,0:3|0:0,0:0:0:0:
202,116,74466,1,4,0:3:0:0:
202,116,74546,2,0,L|209:64,1,36.0000013732911,0|0,0:0|0:0,0:0:0:0:
66,189,74785,2,0,L|72:292,1,72.0000027465821,4|0,0:3|0:0,0:0:0:0:
177,341,75103,6,0,B|238:334|246:222|246:222|238:335|301:351,1,302.399990771485,2|0,0:0|0:0,0:0:0:0:
350,288,75739,5,0,0:0:0:0:
350,288,75819,1,0,0:0:0:0:
350,288,75899,1,0,0:0:0:0:
350,288,75978,1,0,0:0:0:0:
380,328,76058,5,4,0:3:0:0:
425,312,76137,1,4,0:3:0:0:
425,262,76217,1,4,0:3:0:0:
380,248,76296,1,4,0:3:0:0:
350,287,76376,6,0,P|295:304|242:287,1,115.199996484375,4|0,0:0|0:0,0:0:0:0:
99,84,76694,2,0,P|142:53|179:91,1,115.199996484375,0|0,1:0|0:0,0:0:0:0:
69,230,77013,1,4,0:3:0:0:
66,201,77092,1,0,0:0:0:0:
64,172,77172,1,2,0:0:0:0:
266,75,77331,1,0,1:0:0:0:
228,269,77490,1,2,0:0:0:0:
138,97,77649,5,4,0:3:0:0:
343,157,77808,1,2,0:0:0:0:
214,176,77968,1,0,1:0:0:0:
390,57,78127,1,2,0:0:0:0:
493,243,78286,2,0,P|438:257|385:237,1,115.199996484375,4|0,0:3|0:0,0:0:0:0:
266,75,78604,1,0,1:0:0:0:
220,295,78763,1,0,0:0:0:0:
106,170,78922,6,0,P|160:155|213:175,1,115.199996484375,4|0,0:3|0:0,0:0:0:0:
46,349,79241,2,0,L|38:234,1,115.199996484375,0|0,1:0|0:0,0:0:0:0:
170,120,79559,1,4,0:3:0:0:
173,91,79639,1,0,0:0:0:0:
176,63,79718,1,2,0:0:0:0:
270,238,79877,1,0,1:0:0:0:
55,119,80037,1,2,0:0:0:0:
263,0,80196,6,0,L|257:115,1,115.199996484375,4|0,0:3|0:0,0:0:0:0:
395,367,80514,2,0,B|409:305|353:217|353:217|362:253|340:285,1,230.39999296875,0|4,1:0|0:3,0:0:0:0:
100,384,80991,1,0,0:0:0:0:
191,177,81151,1,0,1:0:0:0:
288,346,81310,1,0,0:0:0:0:
123,228,81469,6,0,P|105:175|126:123,1,115.199996484375,4|0,0:3|0:0,0:0:0:0:
362,55,81787,2,0,P|394:96|358:135,1,115.199996484375,0|0,1:0|0:0,0:0:0:0:
199,52,82106,1,4,0:3:0:0:
232,48,82185,1,0,0:0:0:0:
267,46,82265,1,2,0:0:0:0:
217,255,82424,1,0,1:0:0:0:
126,123,82583,1,2,0:0:0:0:
357,96,82742,5,4,0:3:0:0:
327,318,82901,1,2,0:0:0:0:
152,352,83060,5,0,1:0:0:0:
118,71,83219,1,2,0:0:0:0:
304,164,83379,6,0,B|248:183|248:183|195:164,1,115.199996484375,4|0,0:3|0:0,0:0:0:0:
357,96,83697,1,0,1:0:0:0:
332,287,83856,1,0,0:0:0:0:
131,214,84015,6,0,P|112:160|135:109,1,115.199996484375,4|0,0:3|0:0,0:0:0:0:
364,70,84334,2,0,B|392:101|392:101|384:174,1,115.199996484375,0|0,1:0|0:0,0:0:0:0:
238,302,84652,1,4,0:3:0:0:
237,273,84731,1,0,0:0:0:0:
235,244,84811,1,2,0:0:0:0:
331,361,84970,1,0,1:0:0:0:
138,341,85129,1,2,0:0:0:0:
181,183,85289,6,0,P|232:160|286:178,1,115.199996484375,4|0,0:3|0:0,0:0:0:0:
131,246,85607,2,0,L|124:130,1,115.199996484375,0|0,1:0|0:0,0:0:0:0:
304,13,85925,1,4,0:3:0:0:
235,244,86084,1,4,0:3:0:0:
64,75,86243,1,4,0:3:0:0:
87,58,86322,1,4,0:3:0:0:
114,50,86402,1,4,0:3:0:0:
143,52,86481,1,4,0:3:0:0:
169,64,86562,6,0,P|249:112|304:74,1,144,4|0,0:0|0:0,0:0:0:0:
334,29,86880,2,0,P|323:99|331:171,1,144,0|0,0:0|0:0,0:0:0:0:
393,250,87198,2,0,L|454:243,2,48,4|0|0,0:3|0:0|0:0,0:0:0:0:
282,326,87517,2,0,L|171:317,1,96,0|0,0:0|0:0,0:0:0:0:
127,108,87835,5,4,0:3:0:0:
42,339,87994,1,4,0:3:0:0:
55,146,88153,5,4,0:3:0:0:
114,301,88312,1,4,0:3:0:0:
218,171,88472,2,0,P|282:143|348:168,1,144,4|0,0:3|0:0,0:0:0:0:
413,221,88790,5,4,0:3:0:0:
412,244,88869,1,4,0:3:0:0:
411,268,88949,1,4,0:3:0:0:
410,292,89028,1,4,0:3:0:0:
409,316,89108,6,0,B|324:336|324:336|233:310,1,172.799994726563,4|0,0:0|0:0,0:0:0:0:
179,362,89426,2,0,P|162:309|184:257,1,115.199996484375,0|0,1:0|0:0,0:0:0:0:
353,111,89745,1,4,0:3:0:0:
350,139,89824,1,0,0:0:0:0:
348,168,89904,1,2,0:0:0:0:
214,81,90063,1,0,1:0:0:0:
425,18,90222,1,2,0:0:0:0:
401,231,90381,6,0,P|341:250|290:227,1,115.199996484375,4|0,0:3|0:0,0:0:0:0:
138,131,90700,2,0,P|74:199|167:210,1,230.39999296875,0|4,1:0|0:3,0:0:0:0:
228,45,91177,1,0,0:0:0:0:
122,181,91336,1,0,1:0:0:0:
204,321,91495,1,0,0:0:0:0:
173,118,91655,6,0,P|121:97|69:117,1,115.199996484375,4|0,0:3|0:0,0:0:0:0:
266,188,91973,2,0,P|318:209|370:189,1,115.199996484375,0|0,1:0|0:0,0:0:0:0:
257,26,92291,1,4,0:3:0:0:
258,59,92370,1,0,0:0:0:0:
259,94,92450,1,2,0:0:0:0:
312,294,92609,1,0,1:0:0:0:
351,94,92769,1,2,0:0:0:0:
161,39,92928,5,4,0:3:0:0:
112,285,93087,1,2,0:0:0:0:
337,374,93246,5,0,1:0:0:0:
259,94,93405,1,2,0:0:0:0:
47,231,93564,6,0,P|26:283|43:337,1,115.199996484375,4|0,0:3|0:0,0:0:0:0:
337,374,93883,1,0,1:0:0:0:
229,170,94042,1,0,0:0:0:0:
118,371,94201,2,0,L|233:365,1,115.199996484375,4|0,0:3|0:0,0:0:0:0:
416,229,94519,2,0,P|362:209|310:231,1,115.199996484375,0|0,1:0|0:0,0:0:0:0:
423,356,94838,5,4,0:3:0:0:
345,110,94997,1,4,0:3:0:0:
330,337,95156,5,0,1:0:0:0:
446,88,95315,1,4,0:3:0:0:
190,233,95474,2,0,B|151:244|112:234|112:234|136:206|171:189|171:189|148:156|143:117|143:117|180:131|207:160|207:160|230:129|267:113|267:113|264:151|246:186|246:186|282:199|310:228|310:228|272:240|233:233|233:233|231:273|213:308|213:308|190:276|189:232,1,768,4|0,0:0|0:0,0:0:0:0:
