osu file format v14

[General]
AudioFilename: audio.mp3
AudioLeadIn: 0
PreviewTime: 12716
Countdown: 0
SampleSet: Soft
StackLeniency: 0.7
Mode: 0
LetterboxInBreaks: 0
WidescreenStoryboard: 1

[Editor]
Bookmarks: 23536,43271,53456,63642,95233
DistanceSpacing: 1.4
BeatDivisor: 4
GridSize: 4
TimelineZoom: 1.4

[Metadata]
Title:Ohayou !
TitleUnicode:OhayƓ !
Artist:Thaehan
ArtistUnicode:Thaehan
Creator:Mafumafu
Version:Stan's Hard
Source:osu!
Tags:featured artist Loki bwa Nao Tomori Naotoshi Noffy _Stan Taeyang Regraz mappers' guild electronic
BeatmapID:1810752
BeatmapSetID:725806

[Difficulty]
HPDrainRate:5
CircleSize:4
OverallDifficulty:5
ApproachRate:7
SliderMultiplier:1.2
SliderTickRate:1

[Events]
//Background and Video events
0,0,"BG1366X768.jpg",0,0
//Break Periods
2,43473,52558
//Storyboard Layer 0 (Background)
//Storyboard Layer 1 (Fail)
//Storyboard Layer 2 (Pass)
//Storyboard Layer 3 (Foreground)
//Storyboard Layer 4 (Overlay)
//Storyboard Sound Samples

[TimingPoints]
-16,318.302387267905,4,2,1,40,1,0
1495,-100,4,2,1,5,0,0
1575,-100,4,2,1,40,0,0
2530,-100,4,2,1,60,0,0
12716,-100,4,2,1,80,0,1
22901,-100,4,2,1,60,0,0
33087,-100,4,2,1,80,0,0
76376,-100,4,2,1,80,0,1
86562,-100,4,2,1,80,0,0
89108,-100,4,2,1,80,0,1
95474,-100,4,2,1,80,0,0

[Colours]
Combo1 : 0,255,128
Combo2 : 255,69,43
Combo3 : 69,43,255
Combo4 : 43,228,255

[HitObjects]
47,167,2212,6,0,P|48:136|56:107,1,60,0|0,0:0|0:0,0:0:0:0:
20,32,2530,6,0,P|70:62|142:69,1,120,4|0,0:0|0:0,0:0:0:0:
125,238,3167,2,0,L|197:225,1,60,2|0,0:0|0:0,0:0:0:0:
245,284,3485,2,0,L|318:269,1,60,0|0,0:0|0:0,0:0:0:0:
369,324,3803,2,0,P|428:303|485:308,2,120,2|0|2,0:0|0:0|0:0,0:0:0:0:
419,163,4758,2,0,P|422:133|434:105,1,60,0|0,0:0|0:0,0:0:0:0:
509,68,5076,6,0,P|449:59|398:29,1,120,2|0,0:0|0:0,0:0:0:0:
256,120,5713,1,2,0:0:0:0:
112,207,6031,2,0,P|91:191|35:171,1,60,0|0,0:0|0:0,0:0:0:0:
42,259,6350,2,0,P|150:282|192:180,1,240,2|0,0:0|0:0,0:0:0:0:
130,123,7145,2,0,P|131:89|145:43,2,60,0|0|0,0:0|0:0|0:0,0:0:0:0:
60,176,7623,5,2,0:0:0:0:
54,8,7941,1,0,0:0:0:0:
217,44,8259,2,0,P|255:44|291:38,1,60,2|0,0:0|0:0,0:0:0:0:
305,120,8578,2,0,L|364:117,1,60,0|0,0:0|0:0,0:0:0:0:
391,195,8896,2,0,P|452:229|487:280,2,120,4|4|4,0:3|0:3|0:3,0:0:0:0:
336,354,9851,2,0,P|302:344|271:344,1,60,4|0,0:3|0:0,0:0:0:0:
194,354,10169,5,4,0:3:0:0:
27,371,10487,1,4,0:3:0:0:
13,203,10806,1,4,0:3:0:0:
179,184,11124,1,4,0:3:0:0:
338,237,11442,2,0,P|313:332|246:260,1,240,2|2,1:2|0:0,0:0:0:0:
379,158,12397,2,0,P|402:176|418:201,1,60,4|4,0:3|0:3,0:0:0:0:
440,283,12716,5,4,0:0:0:0:
492,123,13034,1,0,1:0:0:0:
350,30,13352,1,4,0:3:0:0:
187,75,13671,2,0,L|198:142,1,60,0|2,1:0|0:0,0:0:0:0:
118,164,13989,2,0,P|118:200|112:229,1,60,4|2,0:3|0:0,0:0:0:0:
29,220,14307,2,0,P|28:190|33:160,1,60,0|2,1:0|0:0,0:0:0:0:
75,87,14625,1,4,0:3:0:0:
203,222,14944,2,0,P|224:253|230:279,1,60,0|0,1:0|0:0,0:0:0:0:
189,348,15262,6,0,P|239:316|298:309,1,120,4|0,0:3|1:0,0:0:0:0:
459,348,15899,1,4,0:3:0:0:
423,186,16217,2,0,P|425:150|436:125,1,60,0|2,1:0|0:0,0:0:0:0:
503,172,16535,2,0,P|487:238|342:193,1,240,4|4,0:3|0:3,0:0:0:0:
270,183,17331,2,0,P|266:157|244:117,2,60,0|0|0,0:0|1:0|0:0,0:0:0:0:
186,184,17808,5,4,0:3:0:0:
19,158,18127,1,0,1:0:0:0:
153,58,18445,2,0,P|140:88|136:122,1,60,4|2,0:3|0:0,0:0:0:0:
100,190,18763,2,0,P|95:219|82:246,1,60,0|2,1:0|0:0,0:0:0:0:
14,296,19082,2,0,P|73:298|127:322,2,120,4|0|4,0:3|1:0|0:3,0:0:0:0:
176,250,20037,2,0,L|248:241,1,60,0|0,1:0|0:0,0:0:0:0:
302,292,20355,6,0,P|320:237|296:183,1,120,4|0,0:3|1:0,0:0:0:0:
200,45,20991,2,0,P|181:100|205:154,1,120,4|0,0:3|1:0,0:0:0:0:
372,131,21628,1,4,0:3:0:0:
205,154,21946,1,0,1:0:0:0:
90,277,22265,2,0,L|98:217,1,60,4|4,0:3|0:3,0:0:0:0:
16,197,22583,2,0,L|7:137,1,60,4|4,0:3|0:3,0:0:0:0:
81,95,22901,6,0,P|117:49|171:23,1,120,4|4,0:0|0:3,0:0:0:0:
334,64,23538,2,0,B|380:70|380:70|458:35,1,120,4|4,0:3|0:3,0:0:0:0:
481,204,24174,2,0,P|463:260|476:319,1,120,4|4,0:3|0:3,0:0:0:0:
310,291,24811,2,0,P|276:313|247:321,1,60,4|2,0:3|0:0,0:0:0:0:
182,281,25129,2,0,P|142:290|112:287,1,60,4|2,0:3|0:0,0:0:0:0:
91,210,25448,6,0,P|60:206|9:131,1,120,4|4,0:3|0:3,0:0:0:0:
158,62,26084,2,0,B|183:46|216:46|242:56|242:56|297:51,1,120,4|4,0:3|0:3,0:0:0:0:
433,108,26721,2,0,L|444:48,2,60,4|2|4,0:3|0:0|0:3,0:0:0:0:
400,185,27198,1,2,0:0:0:0:
330,233,27358,2,0,L|326:297,2,60,4|2|4,0:3|0:0|0:3,0:0:0:0:
249,256,27835,1,2,0:0:0:0:
207,184,27994,6,0,P|260:157|319:154,1,120,4|4,0:3|0:3,0:0:0:0:
470,228,28631,2,0,P|416:254|357:257,1,120,4|4,0:3|0:3,0:0:0:0:
214,346,29267,2,0,B|167:328|167:328|84:337,1,120,4|4,0:3|0:3,0:0:0:0:
19,186,29904,2,0,P|24:145|36:118,1,60,4|2,0:3|0:0,0:0:0:0:
113,110,30222,2,0,P|131:73|153:52,1,60,4|2,0:3|0:0,0:0:0:0:
224,32,30541,5,4,0:3:0:0:
224,32,30859,1,4,0:3:0:0:
332,159,31177,1,4,0:3:0:0:
332,159,31495,1,4,0:3:0:0:
451,41,31814,2,0,P|373:120|430:215,1,240,2|2,0:0|0:0,0:0:0:0:
275,328,32769,2,0,P|288:281|292:245,1,60,4|4,0:3|0:3,0:0:0:0:
296,189,33087,5,4,0:0:0:0:
462,130,33405,1,0,1:0:0:0:
299,86,33724,2,0,B|252:105|252:105|170:88,1,120,4|0,0:3|1:0,0:0:0:0:
23,42,34360,1,4,0:3:0:0:
57,206,34678,1,0,1:0:0:0:
14,368,34997,2,0,P|58:341|81:335,1,60,4|2,0:3|0:0,0:0:0:0:
147,355,35315,2,0,P|185:320|207:310,1,60,0|2,1:0|0:0,0:0:0:0:
274,336,35633,6,0,B|311:255|311:255|340:242,1,120,4|0,0:3|1:0,0:0:0:0:
491,170,36270,2,0,B|454:251|454:251|425:264,1,120,4|0,0:3|1:0,0:0:0:0:
286,169,36907,2,0,P|280:134|258:96,2,60,4|2|0,0:3|0:0|1:0,0:0:0:0:
223,224,37384,1,2,0:0:0:0:
159,279,37543,2,0,P|141:309|133:352,2,60,4|2|0,0:3|0:0|1:0,0:0:0:0:
78,252,38021,1,2,0:0:0:0:
9,200,38180,6,0,P|74:201|129:165,1,120,4|0,0:3|1:0,0:0:0:0:
242,59,38816,2,0,P|177:58|122:94,1,120,4|0,0:3|1:0,0:0:0:0:
168,248,39453,2,0,P|233:249|288:213,1,120,4|0,0:3|1:0,0:0:0:0:
447,225,40090,2,0,P|412:210|371:207,1,60,4|2,0:3|0:0,0:0:0:0:
367,287,40408,2,0,P|401:301|442:304,1,60,0|2,1:0|0:0,0:0:0:0:
505,287,40726,5,4,0:3:0:0:
445,129,41045,1,0,1:0:0:0:
308,227,41363,1,4,0:3:0:0:
244,71,41681,1,0,1:0:0:0:
256,192,41999,12,4,43273,0:0:0:0:
333,289,53458,6,0,L|270:253,1,60,4|0,0:3|0:0,0:0:0:0:
205,296,53777,2,0,L|145:262,1,60,0|0,1:0|0:0,0:0:0:0:
92,324,54095,2,0,P|90:264|60:212,1,120,0|0,0:0|1:0,0:0:0:0:
13,51,54732,2,0,B|61:62|61:62|142:46,1,120,4|0,0:3|1:0,0:0:0:0:
230,183,55368,2,0,L|297:196,1,60,0|2,0:0|0:0,0:0:0:0:
317,273,55686,2,0,L|375:261,1,60,0|2,1:0|0:0,0:0:0:0:
439,317,56005,5,4,0:3:0:0:
489,157,56323,1,0,1:0:0:0:
356,54,56641,2,0,B|308:65|308:65|227:49,1,120,0|0,0:0|1:0,0:0:0:0:
119,170,57278,2,0,B|49:156|49:156|1:167,1,120,4|0,0:3|1:0,0:0:0:0:
149,248,57915,2,0,P|180:229|195:201,1,60,0|2,0:0|0:0,0:0:0:0:
273,189,58233,2,0,P|290:164|316:150,1,60,0|2,1:0|0:0,0:0:0:0:
383,199,58551,6,0,L|459:185,1,60,4|0,0:3|0:0,0:0:0:0:
462,271,58869,2,0,L|402:281,1,60,0|0,1:0|0:0,0:0:0:0:
338,336,59188,2,0,B|293:328|293:328|205:350,1,120,0|0,0:0|1:0,0:0:0:0:
69,273,59824,2,0,P|128:270|175:234,1,120,4|0,0:3|1:0,0:0:0:0:
91,88,60461,2,0,L|82:153,1,60,0|2,0:0|0:0,0:0:0:0:
165,131,60779,2,0,L|173:71,1,60,0|2,1:0|0:0,0:0:0:0:
242,23,61098,5,4,0:3:0:0:
403,69,61416,1,0,1:0:0:0:
366,232,61734,2,0,P|421:252|462:296,1,120,0|0,0:0|1:0,0:0:0:0:
293,294,62371,2,0,P|285:177|389:139,1,240,2|0,0:0|0:0,0:0:0:0:
216,123,63326,2,0,L|157:77,1,60,4|4,0:3|0:3,0:0:0:0:
256,192,63644,12,0,65554,0:0:0:0:
329,214,66190,6,0,P|348:270|340:329,1,120,2|2,0:0|0:0,0:0:0:0:
187,283,66827,2,0,P|167:226|175:167,1,120,2|2,0:0|0:0,0:0:0:0:
337,118,67464,2,0,P|303:128|277:125,1,60,2|0,0:0|0:0,0:0:0:0:
203,88,67782,2,0,P|186:63|162:44,1,60,2|0,0:0|0:0,0:0:0:0:
82,21,68100,1,2,0:0:0:0:
75,189,68419,2,0,L|65:248,1,60,2|0,0:0|0:0,0:0:0:0:
11,312,68737,6,0,P|68:295|127:305,1,120,2|2,0:0|0:0,0:0:0:0:
289,349,69373,1,2,0:0:0:0:
444,285,69692,2,0,L|434:221,1,60,2|0,0:0|0:0,0:0:0:0:
480,155,70010,2,0,P|377:209|300:127,1,240,2|0,0:0|0:0,0:0:0:0:
217,121,70806,2,0,P|190:98|158:90,2,60,0|2|0,0:0|0:0|0:0,0:0:0:0:
237,202,71283,5,2,0:0:0:0:
394,120,71602,1,2,0:0:0:0:
387,287,71920,2,0,P|426:331|480:358,1,120,2|2,0:0|0:0,0:0:0:0:
408,204,72556,2,0,P|347:212|305:257,2,120,2|2|2,0:0|0:0|0:0,0:0:0:0:
464,45,73511,2,0,L|410:77,1,60,2|0,0:0|0:0,0:0:0:0:
339,118,73830,5,4,0:3:0:0:
339,118,74148,1,4,0:3:0:0:
190,39,74466,1,4,0:3:0:0:
187,40,74785,1,4,0:3:0:0:
146,202,75103,2,0,P|109:238|106:132,1,240,2|0,0:0|0:0,0:0:0:0:
250,179,76058,2,0,P|276:204|294:233,1,60,4|4,0:3|0:3,0:0:0:0:
304,306,76376,5,4,0:0:0:0:
353,145,76694,1,0,1:0:0:0:
476,259,77013,2,0,P|449:272|419:278,1,60,4|2,0:3|0:0,0:0:0:0:
346,233,77331,2,0,P|318:221|289:223,1,60,0|2,1:0|0:0,0:0:0:0:
221,272,77649,2,0,B|180:256|180:256|84:282,2,120,4|0|4,0:3|1:0|0:3,0:0:0:0:
78,182,78604,2,0,L|66:117,1,60,0|0,1:0|0:0,0:0:0:0:
10,61,78922,6,0,P|68:72|126:57,1,120,4|0,0:3|1:0,0:0:0:0:
294,60,79559,2,0,P|327:39|349:35,1,60,4|2,0:3|0:0,0:0:0:0:
396,103,79877,2,0,P|432:88|455:88,1,60,0|2,1:0|0:0,0:0:0:0:
503,155,80196,1,4,0:3:0:0:
473,320,80514,1,0,1:0:0:0:
325,239,80832,1,4,0:3:0:0:
254,283,80991,2,0,P|241:316|219:345,2,60,0|0|0,0:0|1:0|0:0,0:0:0:0:
245,199,81469,6,0,P|220:151|223:87,1,120,4|0,0:3|1:0,0:0:0:0:
138,233,82106,2,0,P|95:249|70:249,1,60,4|2,0:3|0:0,0:0:0:0:
59,171,82424,2,0,P|85:157|115:153,1,60,0|2,1:0|0:0,0:0:0:0:
139,73,82742,1,4,0:3:0:0:
296,129,83060,1,0,1:0:0:0:
430,28,83379,1,4,0:3:0:0:
440,195,83697,2,0,L|446:258,1,60,0|0,1:0|0:0,0:0:0:0:
509,309,84015,6,0,P|436:299|394:321,1,120,4|0,0:3|1:0,0:0:0:0:
233,359,84652,2,0,P|216:327|197:311,1,60,4|2,0:3|0:0,0:0:0:0:
114,318,84970,2,0,P|108:282|96:261,1,60,0|2,1:0|0:0,0:0:0:0:
14,241,85289,2,0,P|72:219|117:169,1,120,4|0,0:3|1:0,0:0:0:0:
272,130,85925,1,4,0:3:0:0:
251,211,86084,1,4,0:3:0:0:
276,290,86243,1,4,0:3:0:0:
349,331,86403,1,4,0:3:0:0:
430,313,86562,6,0,B|446:251|446:251|429:197,1,120,4|0,0:0|0:0,0:0:0:0:
327,44,87198,2,0,B|311:106|311:106|327:159,1,120,4|0,0:3|0:0,0:0:0:0:
291,348,87835,2,0,L|233:317,1,60,4|4,0:3|0:3,0:0:0:0:
159,348,88153,2,0,L|101:317,1,60,4|4,0:3|0:3,0:0:0:0:
26,347,88472,1,4,0:3:0:0:
46,168,88790,2,0,P|55:131|55:105,1,60,4|4,0:3|0:3,0:0:0:0:
26,30,89108,6,0,P|70:66|130:81,1,120,4|0,0:0|1:0,0:0:0:0:
290,29,89745,2,0,L|356:20,1,60,4|2,0:3|0:0,0:0:0:0:
355,104,90063,2,0,L|421:113,1,60,0|2,1:0|0:0,0:0:0:0:
464,44,90381,2,0,P|410:144|479:235,1,240,4|4,0:3|0:3,0:0:0:0:
446,312,91177,2,0,L|501:362,2,60,0|0|0,0:0|1:0|0:0,0:0:0:0:
361,315,91655,6,0,P|325:337|239:338,1,120,4|0,0:3|1:0,0:0:0:0:
103,257,92291,2,0,P|139:249|169:256,1,60,4|2,0:3|0:0,0:0:0:0:
138,333,92609,2,0,P|109:340|79:337,1,60,0|2,1:0|0:0,0:0:0:0:
22,274,92928,2,0,L|10:215,1,60,4|2,0:3|0:0,0:0:0:0:
66,152,93246,2,0,L|54:93,1,60,0|2,1:0|0:0,0:0:0:0:
98,22,93564,1,4,0:3:0:0:
253,85,93883,2,0,P|299:88|327:80,1,60,0|0,1:0|0:0,0:0:0:0:
380,37,94201,6,0,P|350:88|340:146,1,120,4|0,0:3|1:0,0:0:0:0:
416,297,94838,1,4,0:3:0:0:
359,234,94997,1,4,0:3:0:0:
278,210,95156,1,0,1:0:0:0:
197,234,95315,1,4,0:3:0:0:
151,316,95474,6,0,P|281:271|100:242,1,480,4|0,0:0|0:0,0:0:0:0:
