osu file format v14

[General]
AudioFilename: audio.mp3
AudioLeadIn: 0
PreviewTime: 59718
Countdown: 0
SampleSet: Soft
StackLeniency: 0.3
Mode: 0
LetterboxInBreaks: 0
WidescreenStoryboard: 1

[Editor]
Bookmarks: 18034,29718,60981,81192,84350,102665,121613,139297
DistanceSpacing: 0.3
BeatDivisor: 4
GridSize: 16
TimelineZoom: 2.2

[Metadata]
Title:Never Give Up
TitleUnicode:Never Give Up
Artist:Thaehan
ArtistUnicode:Thaehan
Creator:verychill
Version:Insane
Source:osu!
Tags:owc 2020 symphonic melodic metal instrumental fa featured artist loki mg mappers' guild dtm9 nowa
BeatmapID:2699285
BeatmapSetID:1048705

[Difficulty]
HPDrainRate:5
CircleSize:2.6
OverallDifficulty:8
ApproachRate:9
SliderMultiplier:1.9
SliderTickRate:1

[Events]
//Background and Video events
0,0,"mountaineer_bg.jpg",0,0
//Break Periods
//Storyboard Layer 0 (Background)
//Storyboard Layer 1 (Fail)
//Storyboard Layer 2 (Pass)
//Storyboard Layer 3 (Foreground)
//Storyboard Layer 4 (Overlay)
//Storyboard Sound Samples

[TimingPoints]
350,315.789473684211,4,2,1,70,1,0
5086,-71.4285714285714,4,2,1,70,0,0
5323,-71.4285714285714,4,2,99,5,0,0
5402,-100,4,2,1,70,0,0
15192,-71.4285714285714,4,2,1,70,0,0
15428,-71.4285714285714,4,2,99,5,0,0
15507,-100,4,2,1,70,0,0
18034,-153.846153846154,4,2,1,65,0,0
18665,-105.263157894737,4,2,1,70,0,0
19297,-100,4,2,1,75,0,0
19928,-250,4,2,1,80,0,1
20165,-71.4285714285714,4,2,99,5,0,0
20560,-76.9230769230769,4,2,1,80,0,1
24981,-100,4,2,1,70,0,1
25613,-76.9230769230769,4,2,1,80,0,1
27507,-66.6666666666667,4,2,1,80,0,1
27823,-76.9230769230769,4,2,1,80,0,1
29402,-83.3333333333333,4,2,1,70,0,1
30350,-111.111111111111,4,2,1,70,0,1
30586,-111.111111111111,4,2,99,5,0,1
30665,-83.3333333333333,4,2,1,70,0,0
33192,-71.4285714285714,4,2,1,70,0,0
35718,-83.3333333333333,4,2,1,70,0,0
40455,-125,4,2,1,70,0,0
40771,-83.3333333333333,4,2,1,70,0,0
43297,-71.4285714285714,4,2,1,70,0,0
45823,-83.3333333333333,4,2,1,70,0,0
48350,-83.3333333333333,4,2,1,70,0,0
49613,-83.3333333333333,4,2,1,70,0,0
50876,-100,4,2,1,70,0,0
55928,-125,4,2,1,70,0,0
58455,-100,4,2,1,70,0,0
60902,-71.4285714285714,4,2,99,5,0,0
60981,-76.9230769230769,4,2,1,80,0,1
70771,-76.9230769230769,4,2,1,80,0,0
71086,-76.9230769230769,4,2,1,80,0,1
81192,-83.3333333333333,4,2,1,70,0,0
86165,-83.3333333333333,4,2,99,5,0,0
86244,-83.3333333333333,4,2,1,70,0,0
88771,-71.4285714285714,4,2,1,70,0,0
90665,-100,4,2,1,70,0,0
91297,-83.3333333333333,4,2,1,70,0,0
96271,-83.3333333333333,4,2,99,5,0,0
96350,-83.3333333333333,4,2,1,70,0,0
98876,-71.4285714285714,4,2,1,75,0,0
102665,-125,4,2,1,65,0,0
103850,-125,4,2,99,5,0,0
103928,-100,4,2,1,70,0,0
108665,-71.4285714285714,4,2,1,70,0,0
108902,-71.4285714285714,4,2,99,5,0,0
108981,-100,4,2,1,70,0,0
114034,-66.6666666666667,4,2,1,75,0,0
114271,-66.6666666666667,4,2,99,5,0,0
114350,-66.6666666666667,4,2,1,75,0,0
115534,-66.6666666666667,4,2,99,5,0,0
115613,-66.6666666666667,4,2,1,75,0,0
116797,-66.6666666666667,4,2,99,5,0,0
116876,-66.6666666666667,4,2,1,75,0,0
118060,-66.6666666666667,4,2,99,5,0,0
118139,-66.6666666666667,4,2,1,75,0,0
118771,-71.4285714285714,4,2,1,75,0,0
119007,-83.3333333333333,4,2,99,5,0,0
119086,-66.6666666666667,4,2,1,75,0,0
119323,-66.6666666666667,4,2,99,5,0,0
119402,-66.6666666666667,4,2,1,75,0,0
120586,-66.6666666666667,4,2,99,5,0,0
120665,-66.6666666666667,4,2,1,75,0,0
121613,-153.846153846154,4,2,1,70,0,0
121928,-125,4,2,1,70,0,0
122244,-105.263157894737,4,2,1,75,0,0
122876,-66.6666666666667,4,2,1,80,0,0
123507,-66.6666666666667,4,2,1,85,0,1
123744,-66.6666666666667,4,2,99,5,0,0
123823,-66.6666666666667,4,2,1,85,0,1
124060,-66.6666666666667,4,2,99,5,0,0
124139,-66.6666666666667,4,2,1,85,0,1
128165,-66.6666666666667,4,2,99,5,0,1
128244,-66.6666666666667,4,2,1,85,0,1
128481,-66.6666666666667,4,2,99,5,0,1
128560,-100,4,2,1,85,0,1
129192,-66.6666666666667,4,2,1,85,0,1
131718,-66.6666666666667,4,2,1,85,0,1
132981,-83.3333333333333,4,2,1,85,0,1
133928,-111.111111111111,4,2,1,85,0,1
134165,-83.3333333333333,4,2,99,5,0,0
134244,-62.5,4,2,1,85,0,1
138271,-62.5,4,2,99,5,0,1
138350,-62.5,4,2,1,85,0,1
138586,-62.5,4,2,99,5,0,1
138665,-62.5,4,2,1,85,0,1
143718,-62.5,4,2,1,30,0,0

[Colours]
Combo1 : 234,84,57
Combo2 : 252,192,148
Combo3 : 136,156,227
Combo4 : 137,31,137
Combo5 : 38,102,166

[HitObjects]
512,147,350,6,0,P|464:111|327:142,1,190,4|0,3:1|3:2,0:0:0:0:
329,142,744,1,0,3:2:0:0:
322,159,823,1,0,3:2:0:0:
425,274,981,2,0,L|420:226,2,47.5,8|0|0,0:2|3:2|3:2,0:0:0:0:
298,337,1297,2,0,L|294:385,2,47.5,0|0|0,3:2|3:2|3:2,0:0:0:0:
172,213,1613,6,0,P|136:165|167:28,1,190,4|0,3:2|3:2,0:0:0:0:
167,30,2007,1,0,3:2:0:0:
184,23,2086,1,0,3:2:0:0:
322,26,2244,1,8,0:2:0:0:
283,235,2402,1,0,3:2:0:0:
241,119,2560,1,0,3:2:0:0:
362,142,2718,1,0,3:2:0:0:
121,104,2876,54,0,B|81:171|81:171|96:300,1,190,4|0,3:2|3:2,0:0:0:0:
98,300,3271,1,0,3:2:0:0:
101,318,3350,1,0,3:2:0:0:
256,232,3507,2,0,L|208:237,2,47.5,8|0|0,0:2|3:2|3:2,0:0:0:0:
319,359,3823,2,0,L|367:363,2,47.5,0|0|0,3:2|3:2|3:2,0:0:0:0:
512,224,4139,6,0,B|455:169|455:169|326:155,1,190,4|0,3:2|3:2,0:0:0:0:
326,157,4534,1,0,3:2:0:0:
307,156,4613,1,0,3:2:0:0:
176,2,4771,1,8,0:2:0:0:
352,18,4928,1,0,3:2:0:0:
158,0,5086,22,0,B|149:41|149:41|162:88|162:88|126:140|162:211,1,199.499993911743,2|0,3:1|0:0,0:0:0:0:
175,217,5402,22,0,B|129:225|76:191|76:191|16:181|-9:256,1,190,4|0,3:1|3:2,0:0:0:0:
0,244,5797,1,0,3:2:0:0:
1,262,5876,1,0,3:2:0:0:
110,384,6034,2,0,L|114:336,2,47.5,8|0|0,0:2|3:2|3:2,0:0:0:0:
266,285,6350,2,0,L|271:333,2,47.5,0|0|0,3:2|3:2|3:2,0:0:0:0:
302,108,6665,6,0,B|348:116|401:82|401:82|461:72|486:147,1,190,4|0,3:2|3:2,0:0:0:0:
477,135,7060,1,0,3:2:0:0:
476,153,7139,1,0,3:2:0:0:
345,226,7297,1,8,0:2:0:0:
428,337,7455,1,8,0:3:0:0:
338,384,7613,2,0,L|243:381,1,95,4|0,0:3|0:0,0:0:0:0:
124,347,7928,5,4,3:1:0:0:
150,207,8086,1,2,3:2:0:0:
18,261,8244,1,10,0:2:0:0:
164,196,8402,2,0,B|190:226|247:222|251:194|308:186|342:213,1,190,2|2,3:2|3:2,0:0:0:0:
403,125,8876,1,10,0:2:0:0:
214,110,9034,2,0,B|187:79|130:83|126:111|69:119|35:92,1,190,2|2,3:2|3:2,0:0:0:0:
82,5,9507,1,10,0:2:0:0:
164,196,9665,2,0,B|167:233|167:233|165:259|107:302,1,95,2|0,3:2|0:0,0:0:0:0:
43,201,9981,5,0,3:2:0:0:
33,199,10060,1,0,3:2:0:0:
23,197,10139,2,0,L|30:267,3,47.5,8|8|4|4,0:2|0:3|0:3|0:3,0:0:0:0:
42,336,10455,22,0,P|123:380|212:353,1,190,4|0,3:1|3:2,0:0:0:0:
226,342,10850,1,0,3:2:0:0:
233,325,10928,1,0,3:2:0:0:
330,222,11086,2,0,L|402:229,2,47.5,8|0|0,0:2|3:2|3:2,0:0:0:0:
196,141,11402,2,0,L|126:148,2,47.5,0|0|0,3:2|3:2|3:2,0:0:0:0:
446,131,11718,6,0,P|490:212|464:301,1,190,4|0,3:2|3:2,0:0:0:0:
451,314,12113,1,0,3:2:0:0:
434,321,12192,1,0,3:2:0:0:
282,303,12350,1,8,0:2:0:0:
377,226,12507,1,0,3:2:0:0:
262,181,12665,1,0,3:2:0:0:
168,261,12823,1,0,3:2:0:0:
192,77,12981,54,0,B|133:73|133:73|45:97|50:200,1,190,4|0,3:2|3:2,0:0:0:0:
53,184,13376,1,0,3:2:0:0:
58,201,13455,1,0,3:2:0:0:
258,227,13613,2,0,L|265:155,2,47.5,8|0|0,0:2|3:2|3:2,0:0:0:0:
137,336,13928,2,0,L|130:406,2,47.5,0|0|0,3:2|3:2|3:2,0:0:0:0:
372,365,14244,6,0,B|431:369|431:369|519:345|514:242,1,190,4|0,3:2|3:2,0:0:0:0:
511,258,14639,1,0,3:2:0:0:
506,241,14718,1,0,3:2:0:0:
397,77,14876,1,8,0:2:0:0:
394,253,15034,1,0,3:2:0:0:
400,61,15192,22,0,B|359:52|359:52|312:65|312:65|260:29|189:65,1,199.499993911743,2|0,3:1|0:0,0:0:0:0:
180,74,15507,22,0,B|178:126|141:155|141:155|179:189|178:241,1,190,4|0,3:1|3:2,0:0:0:0:
178,260,15902,1,0,3:2:0:0:
177,279,15981,1,0,3:2:0:0:
260,158,16139,2,0,L|332:150,2,47.5,8|0|0,0:2|3:2|3:2,0:0:0:0:
87,236,16455,2,0,L|17:229,2,47.5,0|0|0,3:2|3:2|3:2,0:0:0:0:
305,319,16771,6,0,B|307:267|344:238|344:238|306:204|307:152,1,190,4|0,3:2|3:2,0:0:0:0:
307,133,17165,1,0,3:2:0:0:
308,114,17244,1,0,3:2:0:0:
236,238,17402,1,8,3:3:0:0:
395,155,17560,1,8,0:2:0:0:
225,49,17718,2,0,P|186:21|140:16,1,95,4|0,0:3|0:0,0:0:0:0:
44,72,18034,6,0,L|50:133,3,61.7499971733095,4|4|4|4,0:3|0:3|0:3|0:3,0:0:0:0:
77,348,18665,6,0,L|66:258,1,90.2499975900651,8|8,0:3|0:3,0:0:0:0:
61,142,18981,1,12,0:3:0:0:
150,122,19139,1,12,0:3:0:0:
220,249,19297,53,8,0:2:0:0:
75,248,19455,1,8,0:2:0:0:
176,104,19613,1,8,0:2:0:0:
222,282,19771,1,8,0:2:0:0:
47,233,19928,53,12,0:2:0:0:
47,233,20560,38,0,P|121:254|186:220,2,123.499994346619,4|2|10,3:1|3:2|0:0,0:0:0:0:
23,56,21034,2,0,P|124:123|161:239,1,246.999988693238,2|2,3:2|3:2,0:0:0:0:
273,378,21507,1,10,0:2:0:0:
467,337,21665,54,0,P|484:215|447:99,1,246.999988693238,2|2,3:2|3:2,0:0:0:0:
301,0,22139,1,10,0:2:0:0:
512,0,22297,2,0,P|492:58|447:99,1,123.499994346619,2|0,3:2|0:0,0:0:0:0:
320,158,22613,1,0,3:2:0:0:
308,164,22692,1,0,3:2:0:0:
296,170,22771,2,0,P|245:211|222:272,1,123.499994346619,10|0,0:2|3:2,0:0:0:0:
60,323,23086,5,2,3:2:0:0:
60,323,23244,1,2,3:2:0:0:
0,161,23402,53,10,0:2:0:0:
0,161,23560,1,2,3:2:0:0:
163,99,23718,5,2,3:2:0:0:
163,99,23876,1,2,3:2:0:0:
224,264,24034,53,10,0:2:0:0:
224,264,24192,1,2,3:2:0:0:
396,293,24350,6,0,B|444:244|448:193|448:193|375:149|381:88,1,246.999988693238,2|8,3:2|0:2,0:0:0:0:
381,89,24981,6,0,L|334:97,3,47.5,0|0|0|0,3:2|3:2|3:2|3:2,0:0:0:0:
222,115,25297,1,8,0:2:0:0:
203,118,25376,1,8,0:0:0:0:
184,122,25455,1,8,0:2:0:0:
165,125,25534,1,8,0:0:0:0:
148,129,25613,38,0,P|99:195|115:262,1,123.499994346619,6|0,3:2|3:2,0:0:0:0:
229,224,25928,1,10,0:2:0:0:
6,169,26086,2,0,P|70:66|185:25,1,246.999988693238,2|2,3:2|3:2,0:0:0:0:
343,141,26560,1,10,0:2:0:0:
260,317,26718,6,0,P|146:336|100:231,1,246.999988693238,2|0,3:2|3:2,0:0:0:0:
106,210,27113,1,0,3:0:0:0:
121,194,27192,2,0,P|182:188|234:219,1,123.499994346619,10|0,0:2|3:2,0:0:0:0:
365,382,27507,2,0,B|375:337|375:337|356:287|356:287|360:244,1,142.500005435944,2|0,3:1|3:2,0:0:0:0:
512,84,27823,2,0,P|502:144|469:195,1,123.499994346619,10|0,0:2|3:2,0:0:0:0:
303,84,28139,53,2,3:2:0:0:
303,84,28297,1,2,3:2:0:0:
138,143,28455,5,10,0:2:0:0:
138,143,28613,1,2,3:2:0:0:
199,308,28771,53,2,3:2:0:0:
199,308,28928,1,2,3:2:0:0:
362,246,29086,5,10,0:2:0:0:
362,246,29244,1,2,3:2:0:0:
303,84,29402,54,0,L|282:168,3,56.9999982604981,8|8|0|0,3:2|0:2|3:2|3:2,0:0:0:0:
307,238,29718,2,0,L|294:294,3,56.9999982604981,8|8|0|0,0:3|0:3|3:2|3:2,0:0:0:0:
199,308,30034,1,4,0:3:0:0:
176,302,30113,1,4,0:3:0:0:
154,296,30192,1,0,3:2:0:0:
132,290,30271,1,0,3:2:0:0:
110,284,30350,2,0,P|76:254|75:146,1,128.249996086121,8|0,0:2|0:0,0:0:0:0:
5,112,30665,22,0,L|118:121,1,113.999996520996,4|8,3:1|0:2,0:0:0:0:
195,0,30981,2,0,L|81:9,1,113.999996520996,0|8,3:2|0:2,0:0:0:0:
225,104,31297,1,2,3:2:0:0:
290,25,31455,1,10,0:2:0:0:
355,104,31613,1,2,3:2:0:0:
420,25,31771,1,10,0:2:0:0:
512,133,31928,6,0,L|502:246,1,113.999996520996,2|8,3:2|0:2,0:0:0:0:
400,348,32244,2,0,L|390:234,1,113.999996520996,0|8,3:2|0:2,0:0:0:0:
216,253,32560,1,2,3:2:0:0:
295,318,32718,1,10,0:2:0:0:
216,383,32876,1,2,3:2:0:0:
205,383,32955,1,0,3:2:0:0:
194,383,33034,1,10,0:2:0:0:
61,237,33192,54,0,P|124:250|208:225,1,132.999995941162,2|8,3:2|0:2,0:0:0:0:
339,148,33507,1,0,3:2:0:0:
424,321,33665,2,0,P|361:334|277:309,1,132.999995941162,10|0,0:2|3:2,0:0:0:0:
345,133,33981,1,8,0:2:0:0:
158,12,34139,2,0,P|128:72|126:137,1,132.999995941162,2|8,3:2|0:2,0:0:0:0:
326,33,34455,2,0,P|391:43|436:91,1,132.999995941162,2|8,3:2|0:2,0:0:0:0:
361,233,34771,2,0,P|297:221|252:174,1,132.999995941162,0|8,3:2|0:2,0:0:0:0:
82,280,35086,5,2,3:3:0:0:
161,361,35244,1,8,0:2:0:0:
176,360,35323,1,0,3:2:0:0:
192,359,35402,2,0,L|267:352,1,66.4999979705811,8|0,3:3|0:0,0:0:0:0:
354,378,35560,1,4,0:3:0:0:
367,377,35639,1,4,0:3:0:0:
380,376,35718,54,0,L|493:366,1,113.999996520996,4|8,3:2|0:2,0:0:0:0:
477,164,36034,2,0,L|467:277,1,113.999996520996,0|8,3:2|0:2,0:0:0:0:
295,276,36350,1,2,3:2:0:0:
374,211,36507,1,10,0:2:0:0:
295,146,36665,1,2,3:2:0:0:
374,81,36823,1,10,0:2:0:0:
241,29,36981,6,0,L|127:38,1,113.999996520996,2|8,3:2|0:2,0:0:0:0:
29,126,37297,2,0,L|38:13,1,113.999996520996,0|8,3:2|0:2,0:0:0:0:
100,225,37613,1,2,3:2:0:0:
165,146,37771,1,10,0:2:0:0:
230,225,37928,1,2,3:2:0:0:
229,235,38007,1,0,3:2:0:0:
229,246,38086,1,10,0:2:0:0:
295,146,38244,53,2,3:2:0:0:
294,128,38323,1,0,3:2:0:0:
297,111,38402,1,8,3:2:0:0:
308,97,38481,1,0,3:2:0:0:
323,89,38560,1,0,3:2:0:0:
339,84,38639,1,0,3:2:0:0:
356,84,38718,1,8,3:2:0:0:
371,90,38797,1,0,3:2:0:0:
382,103,38876,6,0,P|385:131|379:158,1,56.9999982604981,2|0,3:2|0:0,0:0:0:0:
441,217,39034,2,0,P|418:234|391:243,1,56.9999982604981,10|0,3:2|0:0,0:0:0:0:
372,326,39192,2,0,P|345:315|324:296,1,56.9999982604981,2|0,3:2|0:0,0:0:0:0:
243,320,39350,2,0,P|239:291|245:264,1,56.9999982604981,10|0,3:2|0:0,0:0:0:0:
167,181,39507,54,0,P|160:152|144:129,5,56.9999982604981,6|0|8|0|0|0,3:3|3:3|3:3|3:3|3:3|3:3,0:3:0:0:
59,161,39981,2,0,P|65:188|81:211,1,56.9999982604981,10|0,3:2|0:0,0:3:0:0:
27,304,40139,5,6,3:2:0:0:
38,324,40218,1,0,3:2:0:0:
60,342,40297,1,8,3:2:0:0:
88,353,40376,1,0,3:2:0:0:
119,351,40455,2,0,P|131:325|131:295,3,38,8|8|4|4,0:2|0:3|0:3|0:3,0:0:0:0:
244,264,40771,6,0,P|212:217|215:161,2,113.999996520996,4|8|0,3:1|0:2|3:2,0:0:0:0:
361,253,41244,1,8,0:2:0:0:
414,184,41402,1,2,3:2:0:0:
334,119,41560,1,10,0:2:0:0:
408,27,41718,1,2,3:2:0:0:
511,111,41876,1,10,0:2:0:0:
485,243,42034,54,0,P|479:306|515:360,2,113.999996520996,2|8|0,3:2|0:2|3:2,0:0:0:0:
511,111,42507,1,8,0:2:0:0:
442,58,42665,1,2,3:2:0:0:
377,138,42823,1,10,0:2:0:0:
285,64,42981,1,2,3:2:0:0:
285,52,43060,1,0,3:2:0:0:
285,40,43139,1,8,0:2:0:0:
97,23,43297,6,0,P|70:83|83:148,1,132.999995941162,2|8,3:2|0:2,0:0:0:0:
216,285,43613,1,0,3:2:0:0:
33,360,43771,2,0,P|27:294|56:235,1,132.999995941162,10|0,0:2|3:2,0:0:0:0:
237,294,44086,1,8,0:2:0:0:
238,101,44244,1,2,3:2:0:0:
179,180,44402,1,10,0:0:0:0:
332,300,44560,2,0,P|394:279|433:226,1,132.999995941162,2|8,3:2|0:2,0:0:0:0:
325,53,44876,1,0,3:2:0:0:
424,74,45034,1,8,0:2:0:0:
434,227,45192,54,0,P|348:249|297:214,1,132.999995941162,2|8,3:3|0:2,0:0:0:0:
300,217,45428,1,0,3:2:0:0:
286,205,45507,2,0,P|255:186|218:180,1,66.4999979705811,8|0,3:3|0:0,0:0:0:0:
129,224,45665,1,4,0:3:0:0:
120,239,45744,1,4,0:3:0:0:
117,255,45823,6,0,P|162:285|218:281,2,113.999996520996,4|8|0,3:2|0:2|3:2,0:0:0:0:
92,154,46297,1,8,0:2:0:0:
161,101,46455,1,2,3:2:0:0:
226,181,46613,1,10,0:2:0:0:
318,107,46771,1,2,3:2:0:0:
234,4,46928,1,10,0:2:0:0:
102,30,47086,54,0,P|39:31|-19:-43,2,113.999996520996,2|8|0,3:2|0:2|3:2,0:0:0:0:
234,4,47560,1,8,0:2:0:0:
287,73,47718,1,2,3:2:0:0:
207,138,47876,1,10,0:2:0:0:
281,230,48034,1,2,3:2:0:0:
293,230,48113,1,0,3:2:0:0:
305,230,48192,1,8,0:2:0:0:
201,295,48350,5,2,3:2:0:0:
183,294,48428,1,0,3:2:0:0:
166,297,48507,1,8,3:2:0:0:
152,308,48586,1,0,3:2:0:0:
144,323,48665,1,0,3:2:0:0:
141,339,48744,1,0,3:2:0:0:
144,355,48823,54,0,P|172:358|199:352,5,56.9999982604981,10|0|0|0|8|0,3:2|3:2|3:2|3:2|0:0|3:0,0:0:0:0:
225,262,49297,2,0,P|196:258|169:265,1,56.9999982604981,2|0,3:2|0:0,0:0:0:0:
290,327,49455,2,0,P|307:305|317:277,1,56.9999982604981,10|0,3:2|0:0,0:0:0:0:
409,297,49613,6,0,P|409:325|418:352,7,56.9999982604981,8|8|0|0|8|8|0|0,3:2|2:0|3:2|3:2|0:3|0:3|3:0|3:0,0:0:0:0:
503,307,50244,1,2,0:3:0:0:
508,290,50323,1,2,0:3:0:0:
511,273,50402,1,0,3:2:0:0:
510,254,50481,1,0,3:2:0:0:
508,236,50560,54,0,P|497:209|479:188,3,56.9999982604981,8|8|8|8,0:2|0:2|0:2|0:2,0:0:0:0:
407,91,50876,54,0,B|360:86|360:86|320:112,1,95,4|8,3:1|0:2,0:0:0:0:
130,194,51192,2,0,P|165:163|211:151,1,95,0|8,3:2|0:2,0:0:0:0:
327,299,51507,1,2,3:2:0:0:
215,268,51665,1,10,0:2:0:0:
211,152,51823,1,2,3:2:0:0:
320,112,51981,1,10,0:2:0:0:
327,299,52139,21,4,3:2:0:0:
211,152,52297,1,8,0:3:0:0:
393,202,52455,1,8,0:3:0:0:
215,268,52613,2,0,B|163:278|163:278|121:252|77:245|77:245|47:265|39:286,1,190,4|0,3:2|3:2,0:0:0:0:
37,288,53007,1,0,3:2:0:0:
32,301,53086,1,8,0:2:0:0:
121,379,53244,1,8,3:3:0:0:
270,367,53402,38,0,B|311:343|311:343|327:298,1,95,4|8,3:2|0:2,0:0:0:0:
200,62,53718,2,0,P|194:108|211:152,1,95,0|8,3:2|0:2,0:0:0:0:
393,202,54034,1,2,3:2:0:0:
321,111,54192,1,10,0:2:0:0:
212,153,54350,1,2,3:2:0:0:
216,268,54507,1,10,0:2:0:0:
393,202,54665,21,4,3:2:0:0:
212,153,54823,1,8,0:3:0:0:
327,299,54981,1,8,0:3:0:0:
321,111,55139,2,0,B|314:75|314:75|241:36|241:36|143:47,1,190,4|0,3:2|3:2,0:0:0:0:
156,46,55534,1,0,3:2:0:0:
141,48,55613,1,8,0:2:0:0:
47,116,55771,1,0,3:2:0:0:
2,277,55928,38,0,P|64:283|100:269,3,76,4|8|0|8,3:2|0:2|3:2|0:2,0:0:0:0:
186,242,56560,2,0,P|223:236|260:244,1,76,2|8,3:2|0:2,0:0:0:0:
266,364,56876,1,2,3:2:0:0:
170,380,57034,1,10,0:2:0:0:
76,279,57192,22,0,P|70:217|84:181,3,76,2|8|0|8,3:2|0:2|3:2|0:2,0:0:0:0:
111,94,57823,2,0,P|116:56|108:19,1,76,2|8,3:2|0:2,0:0:0:0:
0,112,58139,1,2,3:2:0:0:
73,204,58297,1,10,0:2:0:0:
252,207,58455,37,4,3:2:0:0:
270,205,58534,1,0,3:2:0:0:
287,198,58613,1,8,3:2:0:0:
301,186,58692,1,0,3:2:0:0:
312,171,58771,1,0,3:2:0:0:
319,153,58850,1,0,3:2:0:0:
324,135,58928,1,8,3:2:0:0:
323,116,59007,1,0,3:2:0:0:
320,97,59086,22,0,P|313:74|312:42,3,47.5,0|0|8|0,3:2|3:2|3:2|3:2,0:0:0:0:
421,60,59402,2,0,P|433:41|459:22,3,47.5,0|0|8|0,3:2|3:2|3:2|3:2,0:0:0:0:
512,121,59718,21,8,0:2:0:0:
460,243,59876,1,8,0:2:0:0:
320,97,60034,1,8,0:2:0:0:
260,259,60192,1,8,0:2:0:0:
104,122,60350,54,0,L|94:40,1,47.5,10|0,2:2|0:0,0:0:0:0:
178,2,60507,1,0,3:0:0:0:
186,6,60586,1,0,3:2:0:0:
195,9,60665,2,0,B|222:54|222:54|208:152,1,142.5,4|0,3:2|0:0,0:0:0:0:
187,187,60981,38,0,P|165:301|269:362,1,246.999988693238,4|10,3:1|0:2,0:0:0:0:
374,303,61455,1,2,0:2:0:0:
427,124,61613,1,2,3:2:0:0:
510,289,61771,1,2,3:2:0:0:
424,106,61928,2,0,L|267:123,1,123.499994346619,10|0,0:2|0:0,0:0:0:0:
75,54,62244,21,2,3:2:0:0:
163,0,62402,1,2,0:2:0:0:
97,146,62560,2,0,L|219:164,1,123.499994346619,10|0,0:0|0:0,0:0:0:0:
47,248,62876,1,2,3:2:0:0:
155,332,63034,1,2,3:2:0:0:
165,339,63113,1,0,3:2:0:0:
176,344,63192,2,0,L|333:327,1,123.499994346619,10|2,0:2|3:2,0:0:0:0:
483,380,63507,38,0,P|435:342|425:272,1,123.499994346619,2|0,3:2|0:2,0:2:0:0:
456,149,63823,1,10,0:2:0:0:
316,60,63981,1,2,3:2:0:0:
511,77,64139,21,2,3:2:0:0:
348,161,64297,1,2,3:2:0:0:
435,15,64455,1,10,0:2:0:0:
435,15,64613,1,8,0:2:0:0:
435,15,64928,53,2,3:2:0:0:
422,14,65007,1,0,3:2:0:0:
409,13,65086,2,0,L|252:-4,1,123.499994346619,10|2,0:2|3:2,0:0:0:0:
172,144,65402,1,2,3:2:0:0:
274,14,65560,1,2,3:2:0:0:
162,156,65718,2,0,L|240:164,3,61.7499971733095,10|8|4|4,0:2|0:3|0:3|0:3,0:0:0:0:
330,104,66034,54,0,P|370:163|307:361,1,246.999988693238,4|10,3:2|0:2,0:0:0:0:
215,335,66507,1,2,0:2:0:0:
162,156,66665,1,2,3:2:0:0:
78,322,66823,1,2,3:2:0:0:
165,138,66981,2,0,L|181:-19,1,123.499994346619,10|0,0:2|0:0,0:0:0:0:
316,0,67297,21,2,3:2:0:0:
404,54,67455,1,2,0:2:0:0:
260,164,67613,1,10,0:2:0:0:
383,146,67771,1,2,3:2:0:0:
306,283,67928,2,0,L|463:266,1,123.499994346619,2|2,3:2|3:2,0:0:0:0:
430,259,68165,1,0,3:2:0:0:
432,248,68244,2,0,L|275:265,1,123.499994346619,10|2,0:2|3:2,0:0:0:0:
107,217,68560,38,0,P|86:156|118:95,2,123.499994346619,2|2|10,3:2|3:2|0:0,0:0:0:0:
182,322,69034,1,2,3:2:0:0:
174,163,69192,21,2,3:2:0:0:
31,260,69350,1,2,3:2:0:0:
19,89,69507,1,10,0:2:0:0:
75,171,69665,1,8,0:2:0:0:
75,171,69981,53,2,3:2:0:0:
88,170,70060,1,0,3:2:0:0:
101,169,70139,2,0,L|258:157,1,123.499994346619,10|2,0:2|3:2,0:0:0:0:
366,287,70455,1,2,3:2:0:0:
405,94,70613,1,2,3:2:0:0:
424,198,70771,1,10,0:2:0:0:
405,194,70850,1,8,0:3:0:0:
387,191,70928,1,4,0:3:0:0:
368,187,71007,1,4,0:3:0:0:
350,183,71086,54,0,P|328:161|314:133,3,61.7499971733095,10|8|4|4,0:3|0:3|0:3|0:3,0:0:0:0:
250,31,71402,1,10,0:2:0:0:
137,81,71560,1,2,0:2:0:0:
84,260,71718,1,2,3:2:0:0:
0,94,71876,1,2,3:2:0:0:
87,278,72034,2,0,L|244:261,1,123.499994346619,10|0,0:2|0:0,0:0:0:0:
414,238,72350,21,2,3:2:0:0:
348,384,72507,1,2,0:2:0:0:
436,330,72665,1,10,0:2:0:0:
292,220,72823,1,2,3:2:0:0:
357,52,72981,1,2,3:2:0:0:
458,136,73139,1,2,3:2:0:0:
459,147,73218,1,0,3:2:0:0:
461,158,73297,2,0,L|304:141,1,123.499994346619,10|2,0:2|3:2,0:0:0:0:
185,270,73613,38,0,P|122:227|99:170,1,123.499994346619,2|0,3:2|0:0,0:0:0:0:
61,57,73929,1,10,0:2:0:0:
217,156,74087,1,2,3:2:0:0:
0,137,74245,21,2,3:2:0:0:
182,44,74403,1,2,3:2:0:0:
85,206,74561,1,10,0:2:0:0:
85,206,74719,1,8,0:2:0:0:
85,206,75034,53,2,3:2:0:0:
86,193,75113,1,0,3:2:0:0:
87,180,75192,2,0,L|104:23,1,123.499994346619,10|2,0:2|3:2,0:0:0:0:
292,46,75507,1,2,3:2:0:0:
120,57,75665,1,2,3:2:0:0:
310,48,75823,2,0,L|318:129,3,61.7499971733095,10|8|4|4,0:2|0:0|0:3|0:3,0:0:0:0:
363,227,76139,54,0,P|289:250|221:228,1,123.499994346619,4|2,3:2|0:2,0:0:0:0:
211,121,76455,1,10,0:2:0:0:
310,48,76613,1,2,0:2:0:0:
363,227,76771,1,2,3:2:0:0:
447,61,76928,1,2,3:2:0:0:
360,245,77086,2,0,L|343:402,1,123.499994346619,10|0,0:2|0:0,0:0:0:0:
186,330,77402,21,2,3:2:0:0:
98,384,77560,1,2,0:2:0:0:
42,220,77718,1,10,0:2:0:0:
164,238,77876,1,2,3:2:0:0:
214,136,78034,1,2,3:2:0:0:
106,53,78192,1,2,3:2:0:0:
107,42,78271,1,0,3:2:0:0:
109,31,78350,2,0,L|266:48,1,123.499994346619,10|2,0:2|3:2,0:0:0:0:
409,154,78665,37,2,3:2:0:0:
470,32,78823,1,2,3:2:0:0:
508,135,78981,1,10,0:2:0:0:
371,51,79139,1,2,3:2:0:0:
334,229,79297,21,2,3:2:0:0:
496,119,79455,1,2,3:2:0:0:
510,313,79612,1,10,0:2:0:0:
446,221,79770,1,8,0:2:0:0:
446,221,80086,53,2,3:2:0:0:
433,222,80165,1,0,3:2:0:0:
420,223,80244,2,0,L|262:234,1,123.499994346619,10|2,0:2|3:2,0:0:0:0:
209,326,80560,1,8,0:2:0:0:
199,317,80639,1,8,0:2:0:0:
189,309,80718,2,0,P|165:274|173:207,1,61.7499971733095,2|0,3:2|0:2,0:0:0:0:
50,250,80876,1,8,0:2:0:0:
52,236,80955,1,8,0:2:0:0:
54,224,81034,2,0,P|72:185|134:159,1,61.7499971733095,8|0,0:2|0:2,0:0:0:0:
0,71,81192,38,0,P|54:85|109:72,1,113.999996520996,4|8,3:1|0:2,0:0:0:0:
284,0,81507,2,0,P|244:39|228:93,1,113.999996520996,0|8,3:2|0:2,0:0:0:0:
203,281,81823,2,0,P|188:227|149:186,1,113.999996520996,2|8,3:2|0:2,0:0:0:0:
310,271,82139,1,2,3:2:0:0:
344,172,82297,1,10,0:2:0:0:
310,287,82455,22,0,P|324:341|364:381,1,113.999996520996,2|8,3:2|0:2,0:0:0:0:
466,295,82771,1,0,3:2:0:0:
466,278,82850,1,0,3:2:0:0:
467,263,82928,1,8,0:2:0:0:
396,72,83086,37,2,3:2:0:0:
491,43,83244,1,10,0:2:0:0:
412,170,83402,21,2,3:2:0:0:
512,164,83560,1,10,0:2:0:0:
298,213,83718,38,0,L|412:218,2,113.999996520996,2|10|2,3:2|0:2|3:2,0:0:0:0:
172,271,84192,1,8,0:2:0:0:
172,271,84350,2,0,L|167:385,1,113.999996520996,0|8,3:2|0:2,0:0:0:0:
55,201,84665,1,0,3:2:0:0:
55,201,84823,2,0,L|50:315,1,113.999996520996,8|0,0:2|3:2,0:0:0:0:
56,97,85139,38,0,L|0:88,1,56.9999982604981,8|0,0:2|0:0,0:0:0:0:
54,9,85297,2,0,L|122:-3,1,56.9999982604981,8|0,0:2|0:0,0:0:0:0:
198,103,85455,2,0,L|142:94,1,56.9999982604981,8|0,0:2|0:0,0:0:0:0:
196,15,85613,1,8,0:2:0:0:
210,12,85692,1,0,3:2:0:0:
224,10,85771,1,0,3:2:0:0:
238,7,85850,1,0,3:2:0:0:
252,5,85928,2,0,B|282:3|315:11|315:11|387:49|387:76|375:90|362:73,1,170.999994781494,8|0,0:2|0:0,0:0:0:0:
428,118,86244,54,0,P|441:63|481:23,1,113.999996520996,4|8,3:1|0:2,0:0:0:0:
512,207,86560,2,0,P|498:261|458:301,1,113.999996520996,0|8,3:2|0:2,0:0:0:0:
267,207,86876,2,0,P|237:158|237:102,1,113.999996520996,2|8,3:2|0:2,0:0:0:0:
329,302,87192,1,2,3:2:0:0:
404,208,87350,1,10,0:2:0:0:
313,310,87507,38,0,P|257:320|204:301,1,113.999996520996,2|8,3:2|0:2,0:0:0:0:
77,352,87823,1,0,3:2:0:0:
77,369,87902,1,0,3:2:0:0:
78,384,87981,1,8,0:2:0:0:
21,285,88139,21,2,3:2:0:0:
87,199,88297,1,10,0:2:0:0:
0,103,88455,37,2,3:2:0:0:
105,0,88613,1,10,0:2:0:0:
208,150,88771,54,0,B|269:176|269:176|332:156,1,132.999995941162,6|10,3:2|0:2,0:0:0:0:
446,106,89086,1,0,3:2:0:0:
478,187,89244,1,8,0:2:0:0:
512,37,89402,38,0,B|451:11|451:11|387:30,1,132.999995941162,6|8,3:2|0:2,0:0:0:0:
338,242,89718,1,6,3:2:0:0:
274,81,89876,1,10,0:2:0:0:
166,216,90034,22,0,B|140:277|140:277|159:340,1,132.999995941162,6|0,3:2|3:2,0:0:0:0:
165,353,90271,1,0,3:2:0:0:
170,365,90350,1,8,0:2:0:0:
321,358,90507,1,0,3:2:0:0:
327,347,90586,1,0,3:2:0:0:
333,336,90665,38,0,L|337:241,1,95,8|8,0:2|0:2,0:0:0:0:
424,316,90981,2,0,L|428:221,1,95,8|4,0:3|0:3,0:0:0:0:
377,131,91297,38,0,P|431:119|515:154,1,113.999996520996,4|0,3:2|3:2,0:0:0:0:
326,51,91613,1,0,3:2:0:0:
326,51,91771,1,0,3:2:0:0:
236,178,91928,2,0,P|279:214|300:266,1,113.999996520996,10|0,0:2|3:2,0:0:0:0:
138,328,92244,1,2,3:2:0:0:
139,339,92323,1,0,3:2:0:0:
140,350,92402,1,2,3:2:0:0:
141,361,92481,1,0,3:2:0:0:
142,371,92560,22,0,P|182:331|197:277,1,113.999996520996,10|0,0:2|3:2,0:0:0:0:
46,264,92876,1,0,3:2:0:0:
46,264,93034,1,0,3:2:0:0:
39,120,93192,37,10,0:2:0:0:
72,26,93350,1,2,3:2:0:0:
128,165,93507,21,2,3:2:0:0:
170,48,93665,1,2,3:2:0:0:
214,213,93823,38,0,L|100:218,2,113.999996520996,10|2|2,0:2|3:2|3:2,0:0:0:0:
340,271,94297,1,0,3:2:0:0:
340,271,94455,2,0,L|345:385,2,113.999996520996,8|0|0,0:2|3:2|3:2,0:0:0:0:
457,201,94928,2,0,L|462:315,1,113.999996520996,0|0,3:2|3:2,0:0:0:0:
455,97,95244,38,0,L|512:88,1,56.9999982604981,8|0,0:2|0:0,0:0:0:0:
458,9,95402,2,0,L|401:0,1,56.9999982604981,8|0,0:2|0:0,0:0:0:0:
313,103,95560,2,0,L|370:94,1,56.9999982604981,8|0,0:2|0:0,0:0:0:0:
316,15,95718,1,8,0:2:0:0:
302,12,95797,1,0,3:2:0:0:
288,10,95876,1,0,3:2:0:0:
274,7,95955,1,0,3:2:0:0:
260,5,96034,2,0,B|230:3|197:11|197:11|125:49|125:76|137:90|150:73,1,170.999994781494,8|0,0:2|0:0,0:0:0:0:
79,114,96350,54,0,P|135:119|180:152,1,113.999996520996,4|0,3:2|3:2,0:0:0:0:
245,320,96665,1,0,3:2:0:0:
245,320,96823,1,0,3:2:0:0:
102,209,96981,2,0,P|51:230|18:276,1,113.999996520996,10|0,0:2|3:2,0:0:0:0:
144,384,97297,1,2,3:2:0:0:
143,372,97376,1,0,3:2:0:0:
141,360,97455,1,2,3:2:0:0:
139,348,97534,1,0,3:2:0:0:
138,336,97613,38,0,P|190:313|245:320,1,113.999996520996,10|0,0:2|3:2,0:0:0:0:
397,378,97928,1,0,3:2:0:0:
397,378,98086,1,0,3:2:0:0:
464,277,98244,21,2,3:2:0:0:
383,205,98402,1,2,3:2:0:0:
363,47,98560,37,10,0:2:0:0:
484,88,98718,1,2,3:2:0:0:
304,150,98876,54,0,B|243:176|243:176|180:156,1,132.999995941162,6|8,3:2|0:2,0:0:0:0:
66,106,99192,1,0,3:2:0:0:
34,187,99350,1,8,0:2:0:0:
0,37,99507,38,0,B|61:11|61:11|125:30,1,132.999995941162,6|8,3:2|0:2,0:0:0:0:
174,242,99823,1,6,3:2:0:0:
238,81,99981,1,10,0:2:0:0:
346,216,100139,22,0,B|372:277|372:277|353:340,1,132.999995941162,6|10,3:2|0:2,0:0:0:0:
206,323,100455,1,0,3:2:0:0:
174,242,100613,1,8,0:2:0:0:
26,382,100771,38,0,B|0:321|0:321|20:258,1,132.999995941162,6|8,3:2|0:2,0:0:0:0:
260,254,101086,1,6,3:2:0:0:
120,311,101244,1,10,0:2:0:0:
140,161,101402,22,0,B|79:187|79:187|15:168,1,132.999995941162,6|8,3:2|0:2,0:0:0:0:
235,82,101718,1,0,3:2:0:0:
154,50,101876,1,8,0:2:0:0:
304,16,102034,38,0,B|330:77|330:77|311:141,1,132.999995941162,6|8,3:2|0:2,0:0:0:0:
380,347,102350,1,6,3:2:0:0:
260,254,102507,1,10,0:2:0:0:
400,196,102665,6,0,B|425:212|443:243|429:318|321:332|260:254|260:254|182:330|26:286|7:173,1,570,4|0,3:1|0:0,0:0:0:0:
0,147,103928,22,0,P|48:111|185:142,1,190,4|0,3:1|3:2,0:0:0:0:
183,142,104323,1,0,3:2:0:0:
190,159,104402,1,0,3:2:0:0:
87,274,104560,2,0,L|92:226,2,47.5,8|0|0,0:2|3:2|3:2,0:0:0:0:
214,337,104876,2,0,L|218:385,2,47.5,0|0|0,3:2|3:2|3:2,0:0:0:0:
322,128,105192,6,0,P|286:176|317:313,1,190,4|0,3:2|3:2,0:0:0:0:
317,311,105586,1,0,3:2:0:0:
334,318,105665,1,0,3:2:0:0:
472,315,105823,1,8,0:2:0:0:
433,106,105981,1,0,3:2:0:0:
391,222,106139,1,0,3:2:0:0:
512,199,106297,1,0,3:2:0:0:
322,128,106455,54,0,B|255:88|255:88|126:103,1,190,4|0,3:2|3:2,0:0:0:0:
126,105,106850,1,0,3:2:0:0:
108,108,106928,1,0,3:2:0:0:
179,236,107086,2,0,L|227:231,2,47.5,8|0|0,0:2|3:2|3:2,0:0:0:0:
106,367,107402,2,0,L|58:363,2,47.5,0|0|0,3:2|3:2|3:2,0:0:0:0:
352,382,107718,6,0,B|310:314|310:314|323:185,1,190,4|0,3:2|3:2,0:0:0:0:
325,186,108113,1,0,3:2:0:0:
328,167,108192,1,0,3:2:0:0:
465,33,108350,1,8,0:2:0:0:
512,217,108507,1,0,3:2:0:0:
467,15,108665,22,0,B|426:6|426:6|379:19|379:19|327:-17|256:19,1,199.499993911743,2|0,3:1|0:0,0:0:0:0:
242,16,108981,22,0,B|197:27|207:87|207:87|241:140|233:186,1,190,4|0,3:1|3:2,0:0:0:0:
229,201,109376,1,0,3:2:0:0:
223,218,109455,1,0,3:2:0:0:
43,161,109613,2,0,L|91:157,2,47.5,8|0|0,0:2|3:2|3:2,0:0:0:0:
118,16,109928,2,0,L|70:11,2,47.5,0|0|0,3:2|3:2|3:2,0:0:0:0:
320,86,110244,6,0,B|364:97|354:157|354:157|320:210|328:256,1,190,4|0,3:2|3:2,0:0:0:0:
333,271,110639,1,0,3:2:0:0:
339,288,110718,1,0,3:2:0:0:
171,240,110876,1,8,0:2:0:0:
126,384,111034,1,8,0:3:0:0:
36,334,111192,2,0,L|39:239,1,95,4|0,0:3|0:0,0:0:0:0:
47,114,111507,5,4,3:1:0:0:
189,130,111665,1,2,3:2:0:0:
117,7,111823,1,10,0:2:0:0:
200,144,111981,2,0,B|230:170|226:227|198:231|190:288|217:322,1,190,2|2,3:2|3:2,0:0:0:0:
311,381,112455,1,10,0:2:0:0:
335,183,112613,2,0,B|304:156|308:99|336:95|344:38|317:4,1,190,2|2,3:2|3:2,0:0:0:0:
227,55,113086,1,10,0:2:0:0:
424,132,113244,2,0,B|458:119|458:119|484:114|541:159,1,95,2|0,3:2|0:0,0:0:0:0:
498,253,113560,5,0,3:2:0:0:
488,252,113639,1,0,3:2:0:0:
478,251,113718,1,8,0:2:0:0:
474,269,113797,1,8,0:2:0:0:
469,287,113876,1,4,0:3:0:0:
465,305,113955,1,4,0:3:0:0:
461,322,114034,6,0,B|451:356|451:356|338:412|336:314|239:374,1,213.750008153916,4|0,3:1|0:0,0:0:0:0:
192,359,114350,2,0,P|156:364|125:380,2,71.2500027179719,0|0|0,3:0|3:0|3:0,0:0:0:0:
329,248,114665,2,0,L|351:176,1,71.2500027179719,8|0,0:2|0:0,0:0:0:0:
319,228,114823,2,0,L|339:160,1,71.2500027179719,0|0,3:2|0:0,0:0:0:0:
258,51,114981,1,0,3:0:0:0:
248,86,115059,1,0,3:0:0:0:
238,120,115138,1,0,3:0:0:0:
34,255,115297,22,0,B|81:292|152:274|152:274|125:237|74:233,1,213.750008153916,4|0,3:2|0:0,0:0:0:0:
15,167,115613,2,0,P|-1:127|10:88,2,71.2500027179719,0|0|0,3:0|3:0|3:0,0:0:0:0:
170,100,115928,2,0,L|242:122,1,71.2500027179719,8|0,0:2|0:0,0:0:0:0:
190,90,116086,2,0,L|258:110,1,71.2500027179719,0|0,3:2|0:0,0:0:0:0:
239,230,116244,2,0,L|311:208,1,71.2500027179719,0|0,3:2|0:0,0:0:0:0:
259,240,116402,2,0,L|327:220,1,71.2500027179719,0|0,3:2|0:0,0:0:0:0:
406,298,116560,38,0,B|407:274|407:274|449:253|440:154|383:135|383:135|381:113,1,213.750008153916,4|0,3:2|0:0,0:0:0:0:
404,18,116876,2,0,P|438:29|460:57,2,71.2500027179719,0|0|0,3:0|3:0|3:0,0:0:0:0:
237,41,117192,2,0,L|259:113,1,71.2500027179719,8|0,0:2|0:0,0:0:0:0:
227,61,117350,2,0,L|247:129,1,71.2500027179719,0|0,3:2|0:0,0:0:0:0:
113,64,117507,1,0,3:0:0:0:
123,98,117585,1,0,3:0:0:0:
133,132,117664,1,0,3:0:0:0:
27,293,117823,22,0,B|-25:277|-13:220|-13:220|48:187|97:236,1,213.750008153916,4|0,3:2|0:0,0:0:0:0:
147,309,118139,2,0,P|163:348|151:387,2,71.2500027179719,0|0|0,3:0|3:0|3:0,0:0:0:0:
313,384,118455,2,0,L|333:316,1,71.2500027179719,8|0,0:2|0:0,0:0:0:0:
453,335,118613,2,0,L|431:263,1,71.2500027179719,0|0,3:2|0:0,0:0:0:0:
341,179,118771,22,0,B|358:136|358:136|328:90|328:90|369:33|332:-9,1,199.499993911743,2|0,3:1|0:0,0:0:0:0:
260,31,119086,6,0,B|249:49|249:49|331:47|331:47|355:60|355:60|475:80,1,213.750008153916,4|0,3:1|0:0,0:0:0:0:
497,137,119402,2,0,P|513:176|501:215,2,71.2500027179719,0|0|0,3:0|3:0|3:0,0:0:0:0:
453,335,119718,2,0,L|381:313,1,71.2500027179719,8|0,0:2|0:0,0:0:0:0:
433,345,119876,2,0,L|365:325,1,71.2500027179719,0|0,3:2|0:0,0:0:0:0:
341,179,120034,1,0,3:0:0:0:
376,190,120112,1,0,3:0:0:0:
410,200,120191,1,0,3:0:0:0:
191,381,120350,22,0,B|155:347|164:302|164:302|184:290|184:290|222:237|202:194,1,213.750008153916,4|0,3:2|0:0,0:0:0:0:
173,106,120665,2,0,P|147:72|107:63,2,71.2500027179719,0|0|0,3:0|3:0|3:0,0:0:0:0:
298,258,120981,1,8,3:3:0:0:
111,176,121139,1,8,0:2:0:0:
239,30,121297,2,0,B|271:8|271:8|325:1|397:20,1,142.500005435944,4|4,0:3|0:3,0:0:0:0:
461,133,121613,6,0,L|467:71,1,61.7499971733095,4|4,0:3|0:3,0:0:0:0:
372,113,121928,2,0,L|363:188,1,76,4|4,0:3|0:3,0:0:0:0:
435,348,122244,6,0,L|445:258,1,90.2499975900651,8|8,0:3|0:3,0:0:0:0:
451,142,122560,1,12,0:3:0:0:
362,122,122718,1,12,0:3:0:0:
291,249,122876,53,8,0:2:0:0:
436,248,123034,1,8,0:2:0:0:
336,104,123192,1,8,0:2:0:0:
290,282,123350,1,8,0:2:0:0:
465,233,123507,54,0,B|489:156|489:156|473:114|473:114|494:28,1,213.750008153916,12|0,3:2|0:0,0:0:0:0:
512,30,123823,2,0,B|491:116|491:116|507:158|507:158|482:234,1,213.750008153916,12|0,3:2|0:0,0:0:0:0:
464,232,124139,38,0,P|406:190|335:181,2,142.500005435944,4|2|10,3:1|3:2|0:0,0:0:0:0:
199,286,124613,2,0,P|339:297|464:233,1,285.000010871888,2|2,3:2|3:2,0:0:0:0:
194,384,125086,1,10,0:2:0:0:
267,173,125244,54,0,P|134:73|16:47,1,285.000010871888,2|2,3:2|3:2,0:0:0:0:
67,247,125718,1,10,0:2:0:0:
20,47,125876,2,0,P|76:87|146:93,1,142.500005435944,2|0,3:2|0:0,0:0:0:0:
262,188,126192,1,0,3:2:0:0:
259,202,126271,1,0,3:2:0:0:
256,216,126350,2,0,P|260:280|309:348,1,142.500005435944,10|0,0:2|3:2,0:0:0:0:
437,281,126665,5,2,3:2:0:0:
437,281,126823,1,2,3:2:0:0:
323,34,126981,53,10,0:2:0:0:
323,34,127139,1,2,3:2:0:0:
503,102,127297,5,2,3:2:0:0:
503,102,127455,1,2,3:2:0:0:
256,216,127613,53,10,0:2:0:0:
256,216,127771,1,2,3:2:0:0:
360,347,127928,6,0,B|328:344|321:372|269:359|269:359|239:383|239:383|169:376|138:341,1,213.750008153916,2|0,3:2|0:3,0:0:0:0:
121,320,128244,2,0,B|94:280|113:215|113:215|101:206|101:206|90:149|129:78,1,213.750008153916,8|8,0:2|0:3,0:0:0:0:
127,101,128560,6,0,L|174:109,3,47.5,0|0|0|0,3:2|3:2|3:2|3:2,0:0:0:0:
280,126,128876,1,10,0:2:0:0:
299,129,128955,1,8,0:0:0:0:
318,133,129034,1,8,0:2:0:0:
337,136,129113,1,8,0:0:0:0:
354,139,129192,38,0,P|405:186|398:255,1,142.500005435944,6|2,3:2|3:2,0:0:0:0:
247,228,129507,1,10,0:2:0:0:
445,31,129665,2,0,P|355:115|399:256,1,285.000010871888,2|2,3:2|3:2,0:0:0:0:
505,160,130139,1,10,0:2:0:0:
197,317,130297,6,0,B|327:378|327:378|398:255,1,285.000010871888,2|2,3:2|3:2,0:0:0:0:
391,232,130692,1,0,3:2:0:0:
378,212,130771,2,0,B|309:196|309:196|246:228,1,142.500005435944,10|2,0:2|3:2,0:0:0:0:
291,55,131086,2,0,B|230:67|230:67|210:50|210:50|156:60,1,142.500005435944,2|0,3:1|3:2,0:0:0:0:
0,297,131402,2,0,P|-8:227|24:164,1,142.500005435944,10|0,0:2|3:2,0:0:0:0:
161,64,131718,53,2,3:2:0:0:
161,64,131876,1,2,3:2:0:0:
277,317,132034,5,10,0:2:0:0:
277,317,132192,1,2,3:2:0:0:
90,246,132350,53,2,3:2:0:0:
90,246,132507,1,2,3:2:0:0:
347,127,132665,5,10,0:2:0:0:
347,127,132823,1,2,3:2:0:0:
161,64,132981,54,0,L|182:148,3,56.9999982604981,8|8|0|0,2:3|0:3|3:3|3:3,0:0:0:0:
156,217,133297,2,0,L|169:273,3,56.9999982604981,4|4|0|0,0:3|0:3|3:2|3:0,0:0:0:0:
277,317,133613,1,4,0:3:0:0:
300,311,133692,1,4,0:3:0:0:
322,305,133771,1,0,3:2:0:0:
344,299,133850,1,0,3:2:0:0:
366,293,133928,22,0,P|379:230|322:215,1,128.249996086121,12|0,3:2|0:0,0:0:0:0:
298,223,134244,54,0,B|228:246|228:246|155:216,1,152,4|2,3:1|3:2,0:0:0:0:
0,126,134560,1,10,0:2:0:0:
162,2,134718,2,0,B|313:11|313:11|411:128,1,304,2|2,3:2|3:2,0:0:0:0:
355,333,135192,1,10,0:2:0:0:
128,359,135350,54,0,B|60:222|60:222|112:79,1,304,2|2,3:2|3:2,0:0:0:0:
329,230,135823,1,10,0:2:0:0:
491,53,135981,2,0,B|417:23|417:23|348:46,1,152,2|0,3:2|0:0,0:0:0:0:
184,181,136297,1,0,3:2:0:0:
185,203,136376,1,0,3:2:0:0:
187,225,136455,2,0,B|260:254|260:254|329:231,1,152,10|0,0:2|3:2,0:0:0:0:
482,341,136771,5,2,3:2:0:0:
482,341,136928,1,2,3:2:0:0:
334,235,137086,53,10,0:2:0:0:
334,235,137244,1,2,3:2:0:0:
160,374,137402,5,2,3:2:0:0:
160,374,137560,1,2,3:2:0:0:
0,199,137718,53,10,0:2:0:0:
0,199,137876,1,2,3:2:0:0:
206,42,138034,6,0,B|245:30|245:30|279:47|279:47|347:23|393:36|429:85,1,228,2|0,3:2|0:2,0:0:0:0:
442,113,138350,2,0,B|436:147|468:181|468:181|459:216|459:216|486:253|463:322|409:315,1,228,8|0,0:2|0:0,0:0:0:0:
426,305,138665,5,0,3:2:0:0:
423,296,138744,1,0,3:2:0:0:
419,288,138823,1,0,3:2:0:0:
416,279,138902,1,0,3:2:0:0:
412,270,138981,1,10,2:2:0:0:
391,260,139060,1,8,0:2:0:0:
369,251,139139,1,8,0:2:0:0:
347,244,139218,1,8,0:2:0:0:
325,237,139297,38,0,B|255:214|255:214|182:244,1,152,6|2,3:2|3:2,0:0:0:0:
255,384,139613,1,10,0:2:0:0:
111,157,139771,2,0,B|250:96|250:96|393:148,1,304,2|2,3:2|3:2,0:0:0:0:
290,6,140244,1,10,0:2:0:0:
51,26,140402,6,0,B|47:102|-1:169|-1:169|49:222|66:300,1,304,2|2,3:2|3:2,0:0:0:0:
74,322,140797,1,0,3:2:0:0:
79,344,140876,1,10,0:2:0:0:
184,226,141034,1,2,3:2:0:0:
144,12,141192,2,0,B|192:22|192:22|241:2|241:2|291:7,1,152,2|0,3:1|3:2,0:0:0:0:
512,163,141507,2,0,P|451:153|352:187,1,152,10|0,0:2|3:2,0:0:0:0:
258,384,141823,53,2,3:2:0:0:
258,384,141981,1,2,3:2:0:0:
347,286,142139,5,10,0:2:0:0:
347,286,142297,1,2,3:2:0:0:
163,211,142455,53,2,3:2:0:0:
163,211,142613,1,2,3:2:0:0:
393,146,142771,5,10,0:2:0:0:
393,146,142928,1,2,3:2:0:0:
189,22,143086,53,8,0:2:0:0:
177,223,143244,1,8,0:2:0:0:
392,119,143402,1,8,0:2:0:0:
174,35,143560,1,4,3:1:0:0:
