osu file format v14

[General]
AudioFilename: audio.mp3
AudioLeadIn: 0
PreviewTime: 18275
Countdown: 0
SampleSet: Normal
StackLeniency: 0.2
Mode: 1
LetterboxInBreaks: 0
WidescreenStoryboard: 0

[Editor]
Bookmarks: 9132,13704,18275,27418,36561,45704,54847,63990,73132,82275,91418,100561,109704,118847
DistanceSpacing: 1
BeatDivisor: 2
GridSize: 32
TimelineZoom: 1.95

[Metadata]
Title:Leprechaun
TitleUnicode:Leprechaun
Artist:Thaehan
ArtistUnicode:Thaehan
Creator:teaMblack19
Version:xfrac's Futsuu
Source:osu!
Tags:Loki Bwa Featured Artist Electronic Medieval xfraczynho Alwaysyukaz [R]
BeatmapID:1329529
BeatmapSetID:609290

[Difficulty]
HPDrainRate:6
CircleSize:0
OverallDifficulty:4
ApproachRate:0
SliderMultiplier:1.4
SliderTickRate:1

[Events]
//Background and Video events
0,0,"BG.jpg",0,0
//Break Periods
//Storyboard Layer 0 (Background)
//Storyboard Layer 1 (Fail)
//Storyboard Layer 2 (Pass)
//Storyboard Layer 3 (Foreground)
//Storyboard Sound Samples

[TimingPoints]
-10,285.714285714286,4,1,0,50,1,0
9132,-100,4,1,0,60,0,0
17132,-100,4,1,0,75,0,0
18275,-100,4,1,0,75,0,1
36561,-100,4,1,0,75,0,0
91419,-100,4,1,0,50,0,0
100562,-100,4,1,0,60,0,0
108561,-100,4,1,0,75,0,0
109704,-100,4,1,0,75,0,1
127418,-100,4,1,0,75,0,0

[HitObjects]
256,192,9132,5,8,0:0:0:0:
256,192,9704,1,0,0:0:0:0:
256,192,10275,1,8,0:0:0:0:
256,192,10847,1,0,0:0:0:0:
256,192,11418,1,8,0:0:0:0:
256,192,11990,1,0,0:0:0:0:
256,192,12561,1,8,0:0:0:0:
256,192,12847,1,8,0:0:0:0:
256,192,13132,1,0,0:0:0:0:
256,192,13704,1,8,0:0:0:0:
256,192,14275,1,0,0:0:0:0:
256,192,14847,1,8,0:0:0:0:
256,192,15418,1,0,0:0:0:0:
256,192,15990,1,8,0:0:0:0:
256,192,16561,1,0,0:0:0:0:
256,192,17132,1,12,0:0:0:0:
256,192,17418,1,4,0:0:0:0:
256,192,17704,1,4,0:0:0:0:
256,192,18275,1,12,0:0:0:0:
256,192,18847,1,0,0:0:0:0:
256,192,19418,1,8,0:0:0:0:
256,192,19704,1,0,0:0:0:0:
256,192,19990,1,0,0:0:0:0:
256,192,20275,1,8,0:0:0:0:
256,192,20418,1,8,0:0:0:0:
256,192,20561,1,8,0:0:0:0:
256,192,21132,1,8,0:0:0:0:
256,192,21704,1,8,0:0:0:0:
256,192,21990,1,0,0:0:0:0:
256,192,22275,1,8,0:0:0:0:
256,192,22561,1,8,0:0:0:0:
256,192,22704,1,8,0:0:0:0:
256,192,22847,1,8,0:0:0:0:
256,192,23418,1,0,0:0:0:0:
256,192,23990,1,8,0:0:0:0:
256,192,24275,1,0,0:0:0:0:
256,192,24561,1,8,0:0:0:0:
256,192,24847,1,0,0:0:0:0:
256,192,24990,1,0,0:0:0:0:
256,192,25132,1,0,0:0:0:0:
256,192,25704,1,0,0:0:0:0:
256,192,26275,1,8,0:0:0:0:
256,192,26561,1,0,0:0:0:0:
256,192,26847,1,8,0:0:0:0:
256,192,27132,1,0,0:0:0:0:
256,192,27275,1,0,0:0:0:0:
256,192,27418,1,12,0:0:0:0:
256,192,27990,1,0,0:0:0:0:
256,192,28561,1,8,0:0:0:0:
256,192,28847,1,0,0:0:0:0:
256,192,29133,1,0,0:0:0:0:
256,192,29418,1,8,0:0:0:0:
256,192,29561,1,8,0:0:0:0:
256,192,29704,1,8,0:0:0:0:
256,192,30275,1,8,0:0:0:0:
256,192,30847,1,8,0:0:0:0:
256,192,31133,1,0,0:0:0:0:
256,192,31418,1,8,0:0:0:0:
256,192,31704,1,8,0:0:0:0:
256,192,31847,1,8,0:0:0:0:
256,192,31990,1,8,0:0:0:0:
256,192,32561,1,0,0:0:0:0:
256,192,33133,1,8,0:0:0:0:
256,192,33418,1,0,0:0:0:0:
256,192,33704,1,8,0:0:0:0:
256,192,33990,1,0,0:0:0:0:
256,192,34133,1,0,0:0:0:0:
256,192,34275,1,0,0:0:0:0:
256,192,34847,1,0,0:0:0:0:
256,192,35418,1,12,0:0:0:0:
256,192,35704,1,4,0:0:0:0:
256,192,35990,1,12,0:0:0:0:
256,192,36275,1,0,0:0:0:0:
256,192,36418,1,0,0:0:0:0:
256,192,36561,1,12,0:0:0:0:
256,192,36990,1,0,0:0:0:0:
256,192,37418,1,8,0:0:0:0:
256,192,37847,1,0,0:0:0:0:
256,192,38275,1,8,0:0:0:0:
256,192,38561,1,0,0:0:0:0:
256,192,38847,1,8,0:0:0:0:
256,192,39275,1,0,0:0:0:0:
256,192,39704,1,8,0:0:0:0:
256,192,39990,1,8,0:0:0:0:
256,192,40561,1,0,0:0:0:0:
256,192,40847,1,0,0:0:0:0:
256,192,41132,1,8,0:0:0:0:
256,192,41561,1,0,0:0:0:0:
256,192,41989,1,8,0:0:0:0:
256,192,42418,1,0,0:0:0:0:
256,192,42846,1,8,0:0:0:0:
256,192,43132,1,0,0:0:0:0:
256,192,43418,1,8,0:0:0:0:
256,192,43990,1,0,0:0:0:0:
256,192,44561,1,8,0:0:0:0:
256,192,44847,1,0,0:0:0:0:
256,192,45132,1,0,0:0:0:0:
256,192,45418,1,0,0:0:0:0:
256,192,45561,1,0,0:0:0:0:
256,192,45703,1,12,0:0:0:0:
256,192,46132,1,0,0:0:0:0:
256,192,46560,1,8,0:0:0:0:
256,192,46989,1,0,0:0:0:0:
256,192,47417,1,0,0:0:0:0:
256,192,47703,1,0,0:0:0:0:
256,192,47989,1,8,0:0:0:0:
256,192,48417,1,0,0:0:0:0:
256,192,48846,1,8,0:0:0:0:
256,192,49132,1,8,0:0:0:0:
256,192,49703,1,0,0:0:0:0:
256,192,49989,1,0,0:0:0:0:
256,192,50274,1,8,0:0:0:0:
256,192,50703,1,0,0:0:0:0:
256,192,51131,1,8,0:0:0:0:
256,192,51560,1,0,0:0:0:0:
256,192,51990,1,0,0:0:0:0:
256,192,52274,1,0,0:0:0:0:
256,192,52560,1,8,0:0:0:0:
256,192,53703,1,8,0:0:0:0:
256,192,53989,1,8,0:0:0:0:
256,192,54274,1,0,0:0:0:0:
256,192,54560,1,0,0:0:0:0:
256,192,54704,1,0,0:0:0:0:
256,192,54847,1,12,0:0:0:0:
256,192,55418,1,8,0:0:0:0:
256,192,55704,1,0,0:0:0:0:
256,192,55990,1,0,0:0:0:0:
256,192,56275,1,8,0:0:0:0:
256,192,56561,1,8,0:0:0:0:
256,192,57132,1,0,0:0:0:0:
256,192,57561,1,8,0:0:0:0:
256,192,57704,1,8,0:0:0:0:
256,192,58275,1,8,0:0:0:0:
256,192,58847,1,0,0:0:0:0:
256,192,59418,1,8,0:0:0:0:
256,192,59990,1,8,0:0:0:0:
256,192,60275,1,0,0:0:0:0:
256,192,60561,1,0,0:0:0:0:
256,192,60846,1,8,0:0:0:0:
256,192,61132,1,8,0:0:0:0:
256,192,61703,1,0,0:0:0:0:
256,192,62275,1,8,0:0:0:0:
256,192,62847,1,8,0:0:0:0:
256,192,63132,1,0,0:0:0:0:
256,192,63418,1,8,0:0:0:0:
256,192,63704,1,0,0:0:0:0:
256,192,63847,1,0,0:0:0:0:
256,192,63990,1,12,0:0:0:0:
256,192,64561,1,8,0:0:0:0:
256,192,64847,1,0,0:0:0:0:
256,192,65133,1,0,0:0:0:0:
256,192,65418,1,8,0:0:0:0:
256,192,65704,1,8,0:0:0:0:
256,192,66275,1,0,0:0:0:0:
256,192,66704,1,8,0:0:0:0:
256,192,66847,1,8,0:0:0:0:
256,192,67418,1,8,0:0:0:0:
256,192,67990,1,0,0:0:0:0:
256,192,68275,1,0,0:0:0:0:
256,192,68418,1,0,0:0:0:0:
256,192,68561,1,8,0:0:0:0:
256,192,69132,1,8,0:0:0:0:
256,192,69418,1,0,0:0:0:0:
256,192,69704,1,0,0:0:0:0:
256,192,69989,1,8,0:0:0:0:
256,192,70275,1,8,0:0:0:0:
256,192,70846,1,0,0:0:0:0:
256,192,71418,1,8,0:0:0:0:
256,192,71989,1,8,0:0:0:0:
256,192,72275,1,0,0:0:0:0:
256,192,72561,1,8,0:0:0:0:
256,192,72847,1,0,0:0:0:0:
256,192,72990,1,0,0:0:0:0:
256,192,73132,1,12,0:0:0:0:
256,192,73704,1,0,0:0:0:0:
256,192,74275,1,0,0:0:0:0:
256,192,74561,1,8,0:0:0:0:
256,192,74847,1,0,0:0:0:0:
256,192,75418,1,8,0:0:0:0:
256,192,75704,1,0,0:0:0:0:
256,192,75847,1,0,0:0:0:0:
256,192,75990,1,0,0:0:0:0:
256,192,76561,1,8,0:0:0:0:
256,192,76847,1,0,0:0:0:0:
256,192,76990,1,0,0:0:0:0:
256,192,77132,1,0,0:0:0:0:
256,192,77418,1,0,0:0:0:0:
256,192,77704,1,8,0:0:0:0:
256,192,78276,1,0,0:0:0:0:
256,192,78847,1,0,0:0:0:0:
256,192,79133,1,8,0:0:0:0:
256,192,79419,1,0,0:0:0:0:
256,192,79990,1,8,0:0:0:0:
256,192,80276,1,0,0:0:0:0:
256,192,80419,1,0,0:0:0:0:
256,192,80562,1,0,0:0:0:0:
256,192,81133,1,8,0:0:0:0:
256,192,81419,1,0,0:0:0:0:
256,192,81704,1,8,0:0:0:0:
256,192,81990,1,0,0:0:0:0:
256,192,82132,1,0,0:0:0:0:
256,192,82275,1,8,0:0:0:0:
256,192,82847,1,0,0:0:0:0:
256,192,83418,1,0,0:0:0:0:
256,192,83704,1,8,0:0:0:0:
256,192,83990,1,0,0:0:0:0:
256,192,84561,1,8,0:0:0:0:
256,192,84847,1,0,0:0:0:0:
256,192,84990,1,0,0:0:0:0:
256,192,85133,1,0,0:0:0:0:
256,192,85704,1,8,0:0:0:0:
256,192,85990,1,0,0:0:0:0:
256,192,86132,1,0,0:0:0:0:
256,192,86275,1,0,0:0:0:0:
256,192,86561,1,0,0:0:0:0:
256,192,86847,1,8,0:0:0:0:
256,192,87419,1,0,0:0:0:0:
256,192,87990,1,0,0:0:0:0:
256,192,88276,1,8,0:0:0:0:
256,192,88562,1,0,0:0:0:0:
256,192,89133,1,8,0:0:0:0:
256,192,89419,1,0,0:0:0:0:
256,192,89562,1,0,0:0:0:0:
256,192,89705,1,0,0:0:0:0:
256,192,90276,1,8,0:0:0:0:
256,192,90562,1,8,0:0:0:0:
256,192,90847,1,0,0:0:0:0:
256,192,91418,1,12,0:0:0:0:
256,192,93704,1,0,0:0:0:0:
256,192,94847,1,0,0:0:0:0:
256,192,95990,1,8,0:0:0:0:
256,192,98275,5,0,0:0:0:0:
256,192,99418,1,0,0:0:0:0:
256,192,100561,5,8,0:0:0:0:
256,192,101133,1,0,0:0:0:0:
256,192,101704,1,8,0:0:0:0:
256,192,102276,1,0,0:0:0:0:
256,192,102847,1,8,0:0:0:0:
256,192,103419,1,0,0:0:0:0:
256,192,103990,1,8,0:0:0:0:
256,192,104276,1,8,0:0:0:0:
256,192,104561,1,0,0:0:0:0:
256,192,105133,1,8,0:0:0:0:
256,192,105704,1,0,0:0:0:0:
256,192,106276,1,8,0:0:0:0:
256,192,106847,1,0,0:0:0:0:
256,192,107419,1,8,0:0:0:0:
256,192,107990,1,0,0:0:0:0:
256,192,108561,1,12,0:0:0:0:
256,192,108847,1,4,0:0:0:0:
256,192,109133,1,4,0:0:0:0:
256,192,109704,1,12,0:0:0:0:
256,192,110276,1,0,0:0:0:0:
256,192,110847,1,8,0:0:0:0:
256,192,111133,1,0,0:0:0:0:
256,192,111419,1,0,0:0:0:0:
256,192,111704,1,8,0:0:0:0:
256,192,111847,1,8,0:0:0:0:
256,192,111990,1,8,0:0:0:0:
256,192,112561,1,8,0:0:0:0:
256,192,113133,1,8,0:0:0:0:
256,192,113419,1,0,0:0:0:0:
256,192,113704,1,8,0:0:0:0:
256,192,113990,1,8,0:0:0:0:
256,192,114133,1,8,0:0:0:0:
256,192,114276,1,8,0:0:0:0:
256,192,114847,1,8,0:0:0:0:
256,192,115419,1,8,0:0:0:0:
256,192,115704,1,0,0:0:0:0:
256,192,115990,1,8,0:0:0:0:
256,192,116276,1,0,0:0:0:0:
256,192,116419,1,0,0:0:0:0:
256,192,116561,1,0,0:0:0:0:
256,192,117133,1,0,0:0:0:0:
256,192,117704,1,8,0:0:0:0:
256,192,117990,1,0,0:0:0:0:
256,192,118275,1,8,0:0:0:0:
256,192,118561,1,0,0:0:0:0:
256,192,118704,1,0,0:0:0:0:
256,192,118847,1,8,0:0:0:0:
256,192,119419,1,4,0:0:0:0:
256,192,119990,1,8,0:0:0:0:
256,192,120276,1,0,0:0:0:0:
256,192,120562,1,0,0:0:0:0:
256,192,120847,1,8,0:0:0:0:
256,192,120990,1,8,0:0:0:0:
256,192,121133,1,8,0:0:0:0:
256,192,121704,1,8,0:0:0:0:
256,192,122276,1,8,0:0:0:0:
256,192,122562,1,0,0:0:0:0:
256,192,122847,1,8,0:0:0:0:
256,192,123133,1,8,0:0:0:0:
256,192,123276,1,8,0:0:0:0:
256,192,123419,1,8,0:0:0:0:
256,192,123990,1,0,0:0:0:0:
256,192,124562,1,8,0:0:0:0:
256,192,124847,1,0,0:0:0:0:
256,192,125133,1,8,0:0:0:0:
256,192,125419,1,0,0:0:0:0:
256,192,125562,1,0,0:0:0:0:
256,192,125704,1,0,0:0:0:0:
256,192,126276,1,0,0:0:0:0:
256,192,126847,1,12,0:0:0:0:
256,192,127133,1,4,0:0:0:0:
256,192,127419,1,12,0:0:0:0:
