osu file format v14

[General]
AudioFilename: audio.mp3
AudioLeadIn: 0
PreviewTime: 18275
Countdown: 0
SampleSet: Normal
StackLeniency: 0.2
Mode: 1
LetterboxInBreaks: 0
WidescreenStoryboard: 1

[Editor]
Bookmarks: 54847
DistanceSpacing: 1
BeatDivisor: 4
GridSize: 32
TimelineZoom: 3.2

[Metadata]
Title:Leprechaun
TitleUnicode:Leprechaun
Artist:Thaehan
ArtistUnicode:Thaehan
Creator:teaMblack19
Version:Ron's Oni
Source:osu!
Tags:Loki Bwa Featured Artist Electronic Medieval xfraczynho Alwaysyukaz [R]
BeatmapID:1330604
BeatmapSetID:609290

[Difficulty]
HPDrainRate:5
CircleSize:0
OverallDifficulty:5
ApproachRate:0
SliderMultiplier:1.4
SliderTickRate:1

[Events]
//Background and Video events
0,0,"BG.jpg",0,0
//Break Periods
//Storyboard Layer 0 (Background)
//Storyboard Layer 1 (Fail)
//Storyboard Layer 2 (Pass)
//Storyboard Layer 3 (Foreground)
//Storyboard Sound Samples

[TimingPoints]
-10,285.714285714286,4,1,0,50,1,0
9132,-111.111111111111,4,1,0,60,0,0
17132,-100,4,1,0,75,0,0
18275,-100,4,1,0,75,0,1
36561,-100,4,1,0,75,0,0
91419,-117.647058823529,4,1,0,50,0,0
100562,-111.111111111111,4,1,0,60,0,0
108561,-100,4,1,0,75,0,0
109704,-100,4,1,0,75,0,1
127418,-100,4,1,0,75,0,0

[HitObjects]
256,192,9132,5,8,0:0:0:0:
256,192,9418,1,0,0:0:0:0:
256,192,9561,1,0,0:0:0:0:
256,192,9704,1,8,0:0:0:0:
256,192,9990,1,0,0:0:0:0:
256,192,10275,1,8,0:0:0:0:
256,192,10418,1,8,0:0:0:0:
256,192,10561,1,0,0:0:0:0:
256,192,10704,1,0,0:0:0:0:
256,192,10847,1,8,0:0:0:0:
256,192,11418,1,0,0:0:0:0:
256,192,11704,1,8,0:0:0:0:
256,192,11847,1,8,0:0:0:0:
256,192,11990,1,8,0:0:0:0:
256,192,12132,1,0,0:0:0:0:
256,192,12275,1,8,0:0:0:0:
256,192,12561,1,8,0:0:0:0:
256,192,12704,1,8,0:0:0:0:
256,192,12847,1,0,0:0:0:0:
256,192,12990,1,8,0:0:0:0:
256,192,13132,1,0,0:0:0:0:
256,192,13275,1,8,0:0:0:0:
256,192,13704,1,8,0:0:0:0:
256,192,13990,1,8,0:0:0:0:
256,192,14132,1,8,0:0:0:0:
256,192,14275,1,0,0:0:0:0:
256,192,14847,1,0,0:0:0:0:
256,192,14990,1,8,0:0:0:0:
256,192,15132,1,8,0:0:0:0:
256,192,15275,1,0,0:0:0:0:
256,192,15418,1,8,0:0:0:0:
256,192,15704,1,8,0:0:0:0:
256,192,15847,1,8,0:0:0:0:
256,192,15990,1,0,0:0:0:0:
256,192,16275,1,0,0:0:0:0:
256,192,16418,1,8,0:0:0:0:
256,192,16561,1,0,0:0:0:0:
256,192,16704,1,0,0:0:0:0:
256,192,16847,1,8,0:0:0:0:
256,192,17132,1,12,0:0:0:0:
256,192,17418,1,4,0:0:0:0:
256,192,17704,1,12,0:0:0:0:
256,192,17990,1,0,0:0:0:0:
256,192,18132,1,0,0:0:0:0:
256,192,18275,1,12,0:0:0:0:
256,192,18561,1,8,0:0:0:0:
256,192,18704,1,0,0:0:0:0:
256,192,18847,1,8,0:0:0:0:
256,192,18918,1,8,0:0:0:0:
256,192,18990,1,0,0:0:0:0:
256,192,19132,1,8,0:0:0:0:
256,192,19275,1,8,0:0:0:0:
256,192,19418,1,0,0:0:0:0:
256,192,19704,1,0,0:0:0:0:
256,192,19847,1,8,0:0:0:0:
256,192,19990,1,0,0:0:0:0:
256,192,20132,1,0,0:0:0:0:
256,192,20204,1,0,0:0:0:0:
256,192,20275,1,8,0:0:0:0:
256,192,20418,1,0,0:0:0:0:
256,192,20561,1,8,0:0:0:0:
256,192,20847,1,8,0:0:0:0:
256,192,20990,1,0,0:0:0:0:
256,192,21132,1,8,0:0:0:0:
256,192,21204,1,0,0:0:0:0:
256,192,21275,1,8,0:0:0:0:
256,192,21418,1,0,0:0:0:0:
256,192,21561,1,8,0:0:0:0:
256,192,21704,1,0,0:0:0:0:
256,192,21990,1,8,0:0:0:0:
256,192,22132,1,0,0:0:0:0:
256,192,22275,1,8,0:0:0:0:
256,192,22347,1,8,0:0:0:0:
256,192,22418,1,0,0:0:0:0:
256,192,22561,1,8,0:0:0:0:
256,192,22704,1,0,0:0:0:0:
256,192,22847,1,12,0:0:0:0:
256,192,23132,1,8,0:0:0:0:
256,192,23275,1,0,0:0:0:0:
256,192,23418,1,8,0:0:0:0:
256,192,23704,1,0,0:0:0:0:
256,192,23847,1,0,0:0:0:0:
256,192,23990,1,8,0:0:0:0:
256,192,24132,1,0,0:0:0:0:
256,192,24204,1,8,0:0:0:0:
256,192,24275,1,0,0:0:0:0:
256,192,24418,1,0,0:0:0:0:
256,192,24561,1,8,0:0:0:0:
256,192,24847,1,0,0:0:0:0:
256,192,24990,1,8,0:0:0:0:
256,192,25132,1,0,0:0:0:0:
256,192,25418,1,0,0:0:0:0:
256,192,25561,1,0,0:0:0:0:
256,192,25704,1,8,0:0:0:0:
256,192,25847,1,8,0:0:0:0:
256,192,25990,1,0,0:0:0:0:
256,192,26275,1,12,0:0:0:0:
256,192,26561,1,4,0:0:0:0:
256,192,26847,1,12,0:0:0:0:
256,192,27132,1,0,0:0:0:0:
256,192,27275,1,0,0:0:0:0:
256,192,27418,1,12,0:0:0:0:
256,192,27704,1,8,0:0:0:0:
256,192,27847,1,0,0:0:0:0:
256,192,27990,1,8,0:0:0:0:
256,192,28061,1,8,0:0:0:0:
256,192,28133,1,0,0:0:0:0:
256,192,28275,1,8,0:0:0:0:
256,192,28418,1,8,0:0:0:0:
256,192,28561,1,0,0:0:0:0:
256,192,28847,1,0,0:0:0:0:
256,192,28990,1,8,0:0:0:0:
256,192,29133,1,0,0:0:0:0:
256,192,29275,1,0,0:0:0:0:
256,192,29347,1,0,0:0:0:0:
256,192,29418,1,8,0:0:0:0:
256,192,29561,1,0,0:0:0:0:
256,192,29704,1,8,0:0:0:0:
256,192,29990,1,8,0:0:0:0:
256,192,30133,1,0,0:0:0:0:
256,192,30275,1,8,0:0:0:0:
256,192,30347,1,0,0:0:0:0:
256,192,30418,1,8,0:0:0:0:
256,192,30561,1,0,0:0:0:0:
256,192,30704,1,8,0:0:0:0:
256,192,30847,1,0,0:0:0:0:
256,192,31132,1,8,0:0:0:0:
256,192,31275,1,0,0:0:0:0:
256,192,31418,1,8,0:0:0:0:
256,192,31490,1,8,0:0:0:0:
256,192,31561,1,0,0:0:0:0:
256,192,31704,1,8,0:0:0:0:
256,192,31847,1,0,0:0:0:0:
256,192,31990,1,12,0:0:0:0:
256,192,32275,1,8,0:0:0:0:
256,192,32418,1,0,0:0:0:0:
256,192,32561,1,8,0:0:0:0:
256,192,32847,1,0,0:0:0:0:
256,192,32990,1,0,0:0:0:0:
256,192,33133,1,8,0:0:0:0:
256,192,33275,1,0,0:0:0:0:
256,192,33347,1,8,0:0:0:0:
256,192,33418,1,0,0:0:0:0:
256,192,33561,1,0,0:0:0:0:
256,192,33704,1,8,0:0:0:0:
256,192,33990,1,0,0:0:0:0:
256,192,34133,1,8,0:0:0:0:
256,192,34275,1,0,0:0:0:0:
256,192,34561,1,0,0:0:0:0:
256,192,34704,1,0,0:0:0:0:
256,192,34847,1,8,0:0:0:0:
256,192,34990,1,8,0:0:0:0:
256,192,35133,1,0,0:0:0:0:
256,192,35418,1,12,0:0:0:0:
256,192,35704,1,4,0:0:0:0:
256,192,35990,1,12,0:0:0:0:
256,192,36275,1,8,0:0:0:0:
256,192,36418,1,0,0:0:0:0:
256,192,36561,1,4,0:0:0:0:
256,192,36847,1,8,0:0:0:0:
256,192,36990,1,0,0:0:0:0:
256,192,37132,1,8,0:0:0:0:
256,192,37418,1,0,0:0:0:0:
256,192,37704,1,8,0:0:0:0:
256,192,37847,1,0,0:0:0:0:
256,192,38275,1,8,0:0:0:0:
256,192,38347,1,8,0:0:0:0:
256,192,38418,1,0,0:0:0:0:
256,192,38561,1,8,0:0:0:0:
256,192,38704,1,8,0:0:0:0:
256,192,38847,1,4,0:0:0:0:
256,192,39132,1,0,0:0:0:0:
256,192,39275,1,0,0:0:0:0:
256,192,39418,1,8,0:0:0:0:
256,192,39704,1,0,0:0:0:0:
256,192,39990,1,12,0:0:0:0:
256,192,40561,1,12,0:0:0:0:
256,192,40704,1,0,0:0:0:0:
256,192,40847,1,8,0:0:0:0:
256,192,40990,1,0,0:0:0:0:
256,192,41132,1,4,0:0:0:0:
256,192,41418,1,8,0:0:0:0:
256,192,41561,1,0,0:0:0:0:
256,192,41704,1,8,0:0:0:0:
256,192,41990,1,0,0:0:0:0:
256,192,42275,1,8,0:0:0:0:
256,192,42418,1,0,0:0:0:0:
256,192,42847,1,8,0:0:0:0:
256,192,42918,1,8,0:0:0:0:
256,192,42990,1,0,0:0:0:0:
256,192,43132,1,8,0:0:0:0:
256,192,43275,1,8,0:0:0:0:
256,192,43418,1,4,0:0:0:0:
256,192,43704,1,8,0:0:0:0:
256,192,43847,1,0,0:0:0:0:
256,192,43990,1,0,0:0:0:0:
256,192,44561,1,4,0:0:0:0:
256,192,44704,1,8,0:0:0:0:
256,192,44847,1,4,0:0:0:0:
256,192,45132,1,12,0:0:0:0:
256,192,45418,1,8,0:0:0:0:
256,192,45561,1,0,0:0:0:0:
256,192,45704,1,4,0:0:0:0:
256,192,45990,1,8,0:0:0:0:
256,192,46133,1,0,0:0:0:0:
256,192,46275,1,8,0:0:0:0:
256,192,46561,1,0,0:0:0:0:
256,192,46847,1,8,0:0:0:0:
256,192,46990,1,0,0:0:0:0:
256,192,47418,1,8,0:0:0:0:
256,192,47490,1,8,0:0:0:0:
256,192,47561,1,0,0:0:0:0:
256,192,47704,1,8,0:0:0:0:
256,192,47847,1,8,0:0:0:0:
256,192,47990,1,4,0:0:0:0:
256,192,48275,1,0,0:0:0:0:
256,192,48418,1,0,0:0:0:0:
256,192,48561,1,8,0:0:0:0:
256,192,48847,1,0,0:0:0:0:
256,192,49133,1,12,0:0:0:0:
256,192,49704,1,12,0:0:0:0:
256,192,49847,1,0,0:0:0:0:
256,192,49990,1,8,0:0:0:0:
256,192,50133,1,0,0:0:0:0:
256,192,50275,1,4,0:0:0:0:
256,192,50561,1,8,0:0:0:0:
256,192,50704,1,0,0:0:0:0:
256,192,50847,1,8,0:0:0:0:
256,192,51133,1,0,0:0:0:0:
256,192,51418,1,8,0:0:0:0:
256,192,51561,1,0,0:0:0:0:
256,192,51990,1,8,0:0:0:0:
256,192,52061,1,8,0:0:0:0:
256,192,52133,1,0,0:0:0:0:
256,192,52275,1,8,0:0:0:0:
256,192,52418,1,8,0:0:0:0:
256,192,52561,1,4,0:0:0:0:
256,192,52847,1,8,0:0:0:0:
256,192,52990,1,0,0:0:0:0:
256,192,53133,1,0,0:0:0:0:
256,192,53704,1,4,0:0:0:0:
256,192,53847,1,8,0:0:0:0:
256,192,53990,1,4,0:0:0:0:
256,192,54132,1,8,0:0:0:0:
256,192,54275,1,0,0:0:0:0:
256,192,54418,1,8,0:0:0:0:
256,192,54561,1,8,0:0:0:0:
256,192,54704,1,8,0:0:0:0:
256,192,54847,1,4,0:0:0:0:
256,192,55132,1,8,0:0:0:0:
256,192,55275,1,0,0:0:0:0:
256,192,55347,1,0,0:0:0:0:
256,192,55418,1,0,0:0:0:0:
256,192,55561,1,0,0:0:0:0:
256,192,55704,1,8,0:0:0:0:
256,192,55990,1,0,0:0:0:0:
256,192,56132,1,0,0:0:0:0:
256,192,56275,1,8,0:0:0:0:
256,192,56418,1,0,0:0:0:0:
256,192,56561,1,8,0:0:0:0:
256,192,56632,1,8,0:0:0:0:
256,192,56704,1,0,0:0:0:0:
256,192,56847,1,8,0:0:0:0:
256,192,56990,1,0,0:0:0:0:
256,192,57132,1,4,0:0:0:0:
256,192,57418,1,8,0:0:0:0:
256,192,57561,1,0,0:0:0:0:
256,192,57632,1,8,0:0:0:0:
256,192,57704,1,0,0:0:0:0:
256,192,57847,1,0,0:0:0:0:
256,192,57990,1,8,0:0:0:0:
256,192,58275,1,8,0:0:0:0:
256,192,58418,1,0,0:0:0:0:
256,192,58490,1,0,0:0:0:0:
256,192,58561,1,8,0:0:0:0:
256,192,58704,1,0,0:0:0:0:
256,192,58847,1,8,0:0:0:0:
256,192,59132,1,8,0:0:0:0:
256,192,59275,1,8,0:0:0:0:
256,192,59418,1,4,0:0:0:0:
256,192,59704,1,8,0:0:0:0:
256,192,59847,1,0,0:0:0:0:
256,192,59918,1,8,0:0:0:0:
256,192,59990,1,0,0:0:0:0:
256,192,60132,1,0,0:0:0:0:
256,192,60275,1,8,0:0:0:0:
256,192,60561,1,0,0:0:0:0:
256,192,60704,1,0,0:0:0:0:
256,192,60847,1,8,0:0:0:0:
256,192,60990,1,0,0:0:0:0:
256,192,61132,1,8,0:0:0:0:
256,192,61275,1,0,0:0:0:0:
256,192,61347,1,0,0:0:0:0:
256,192,61418,1,8,0:0:0:0:
256,192,61561,1,0,0:0:0:0:
256,192,61704,1,4,0:0:0:0:
256,192,61990,1,8,0:0:0:0:
256,192,62132,1,0,0:0:0:0:
256,192,62204,1,8,0:0:0:0:
256,192,62275,1,0,0:0:0:0:
256,192,62418,1,0,0:0:0:0:
256,192,62561,1,8,0:0:0:0:
256,192,62847,1,4,0:0:0:0:
256,192,62990,1,8,0:0:0:0:
256,192,63132,1,4,0:0:0:0:
256,192,63275,1,8,0:0:0:0:
256,192,63418,1,4,0:0:0:0:
256,192,63561,1,8,0:0:0:0:
256,192,63704,1,8,0:0:0:0:
256,192,63847,1,8,0:0:0:0:
256,192,63990,1,4,0:0:0:0:
256,192,64275,1,8,0:0:0:0:
256,192,64418,1,0,0:0:0:0:
256,192,64490,1,0,0:0:0:0:
256,192,64561,1,0,0:0:0:0:
256,192,64704,1,0,0:0:0:0:
256,192,64847,1,8,0:0:0:0:
256,192,65133,1,0,0:0:0:0:
256,192,65275,1,0,0:0:0:0:
256,192,65418,1,8,0:0:0:0:
256,192,65561,1,0,0:0:0:0:
256,192,65704,1,8,0:0:0:0:
256,192,65775,1,8,0:0:0:0:
256,192,65847,1,0,0:0:0:0:
256,192,65990,1,8,0:0:0:0:
256,192,66133,1,0,0:0:0:0:
256,192,66275,1,4,0:0:0:0:
256,192,66561,1,8,0:0:0:0:
256,192,66704,1,0,0:0:0:0:
256,192,66775,1,8,0:0:0:0:
256,192,66847,1,0,0:0:0:0:
256,192,66990,1,0,0:0:0:0:
256,192,67133,1,8,0:0:0:0:
256,192,67418,1,8,0:0:0:0:
256,192,67561,1,0,0:0:0:0:
256,192,67632,1,0,0:0:0:0:
256,192,67704,1,8,0:0:0:0:
256,192,67847,1,0,0:0:0:0:
256,192,67990,1,8,0:0:0:0:
256,192,68275,1,8,0:0:0:0:
256,192,68418,1,8,0:0:0:0:
256,192,68561,1,4,0:0:0:0:
256,192,68847,1,8,0:0:0:0:
256,192,68990,1,0,0:0:0:0:
256,192,69061,1,8,0:0:0:0:
256,192,69133,1,0,0:0:0:0:
256,192,69275,1,0,0:0:0:0:
256,192,69418,1,8,0:0:0:0:
256,192,69704,1,0,0:0:0:0:
256,192,69847,1,0,0:0:0:0:
256,192,69990,1,8,0:0:0:0:
256,192,70133,1,0,0:0:0:0:
256,192,70275,1,8,0:0:0:0:
256,192,70418,1,0,0:0:0:0:
256,192,70490,1,0,0:0:0:0:
256,192,70561,1,8,0:0:0:0:
256,192,70704,1,8,0:0:0:0:
256,192,70847,1,0,0:0:0:0:
256,192,71133,1,8,0:0:0:0:
256,192,71275,1,0,0:0:0:0:
256,192,71418,1,0,0:0:0:0:
256,192,71704,1,8,0:0:0:0:
256,192,71990,1,0,0:0:0:0:
256,192,72275,1,0,0:0:0:0:
256,192,72561,1,0,0:0:0:0:
256,192,72704,1,8,0:0:0:0:
256,192,72847,1,8,0:0:0:0:
256,192,72990,1,8,0:0:0:0:
256,192,73132,1,4,0:0:0:0:
256,192,73418,1,8,0:0:0:0:
256,192,73561,1,0,0:0:0:0:
256,192,73704,1,0,0:0:0:0:
256,192,73990,1,8,0:0:0:0:
256,192,74275,1,0,0:0:0:0:
256,192,74418,1,0,0:0:0:0:
256,192,74561,1,8,0:0:0:0:
256,192,74632,1,8,0:0:0:0:
256,192,74704,1,8,0:0:0:0:
256,192,74847,1,0,0:0:0:0:
256,192,74990,1,0,0:0:0:0:
256,192,75132,1,8,0:0:0:0:
256,192,75418,1,0,0:0:0:0:
256,192,75561,1,0,0:0:0:0:
256,192,75704,1,0,0:0:0:0:
256,192,75847,1,0,0:0:0:0:
256,192,76132,1,8,0:0:0:0:
256,192,76275,1,8,0:0:0:0:
256,192,76418,1,8,0:0:0:0:
256,192,76704,1,0,0:0:0:0:
256,192,76847,1,0,0:0:0:0:
256,192,76990,1,0,0:0:0:0:
256,192,77132,1,8,0:0:0:0:
256,192,77275,1,0,0:0:0:0:
256,192,77346,1,0,0:0:0:0:
256,192,77418,1,8,0:0:0:0:
256,192,77704,1,4,0:0:0:0:
256,192,77990,1,8,0:0:0:0:
256,192,78132,1,0,0:0:0:0:
256,192,78275,1,0,0:0:0:0:
256,192,78561,1,8,0:0:0:0:
256,192,78847,1,0,0:0:0:0:
256,192,78990,1,0,0:0:0:0:
256,192,79132,1,8,0:0:0:0:
256,192,79204,1,8,0:0:0:0:
256,192,79275,1,8,0:0:0:0:
256,192,79418,1,0,0:0:0:0:
256,192,79561,1,0,0:0:0:0:
256,192,79704,1,8,0:0:0:0:
256,192,79990,1,0,0:0:0:0:
256,192,80085,1,0,0:0:0:0:
256,192,80180,1,0,0:0:0:0:
256,192,80275,1,0,0:0:0:0:
256,192,80561,1,0,0:0:0:0:
256,192,80704,1,8,0:0:0:0:
256,192,80847,1,8,0:0:0:0:
256,192,80990,1,8,0:0:0:0:
256,192,81132,1,4,0:0:0:0:
256,192,81275,1,8,0:0:0:0:
256,192,81418,1,4,0:0:0:0:
256,192,81704,1,12,0:0:0:0:
256,192,81990,1,8,0:0:0:0:
256,192,82132,1,8,0:0:0:0:
256,192,82275,1,4,0:0:0:0:
256,192,82561,1,8,0:0:0:0:
256,192,82704,1,0,0:0:0:0:
256,192,82847,1,0,0:0:0:0:
256,192,83133,1,8,0:0:0:0:
256,192,83418,1,0,0:0:0:0:
256,192,83561,1,0,0:0:0:0:
256,192,83704,1,8,0:0:0:0:
256,192,83775,1,8,0:0:0:0:
256,192,83847,1,8,0:0:0:0:
256,192,83990,1,0,0:0:0:0:
256,192,84133,1,0,0:0:0:0:
256,192,84275,1,8,0:0:0:0:
256,192,84561,1,0,0:0:0:0:
256,192,84704,1,0,0:0:0:0:
256,192,84847,1,0,0:0:0:0:
256,192,84990,1,0,0:0:0:0:
256,192,85275,1,8,0:0:0:0:
256,192,85418,1,8,0:0:0:0:
256,192,85561,1,8,0:0:0:0:
256,192,85847,1,0,0:0:0:0:
256,192,85990,1,0,0:0:0:0:
256,192,86132,1,0,0:0:0:0:
256,192,86275,1,8,0:0:0:0:
256,192,86418,1,0,0:0:0:0:
256,192,86489,1,0,0:0:0:0:
256,192,86561,1,8,0:0:0:0:
256,192,86847,1,4,0:0:0:0:
256,192,87133,1,8,0:0:0:0:
256,192,87275,1,0,0:0:0:0:
256,192,87418,1,0,0:0:0:0:
256,192,87704,1,8,0:0:0:0:
256,192,87990,1,0,0:0:0:0:
256,192,88133,1,0,0:0:0:0:
256,192,88275,1,8,0:0:0:0:
256,192,88347,1,8,0:0:0:0:
256,192,88418,1,8,0:0:0:0:
256,192,88561,1,0,0:0:0:0:
256,192,88704,1,0,0:0:0:0:
256,192,88847,1,8,0:0:0:0:
256,192,89133,1,0,0:0:0:0:
256,192,89228,1,0,0:0:0:0:
256,192,89323,1,0,0:0:0:0:
256,192,89418,1,0,0:0:0:0:
256,192,89704,1,0,0:0:0:0:
256,192,89847,1,8,0:0:0:0:
256,192,89990,1,8,0:0:0:0:
256,192,90132,1,8,0:0:0:0:
256,192,90275,1,4,0:0:0:0:
256,192,90418,1,8,0:0:0:0:
256,192,90561,1,4,0:0:0:0:
256,192,90847,1,12,0:0:0:0:
256,192,90990,1,0,0:0:0:0:
256,192,91133,1,8,0:0:0:0:
256,192,91275,1,8,0:0:0:0:
256,192,91418,1,4,0:0:0:0:
256,192,91990,1,0,0:0:0:0:
256,192,92275,1,8,0:0:0:0:
256,192,92561,1,0,0:0:0:0:
256,192,92704,1,0,0:0:0:0:
256,192,92847,1,8,0:0:0:0:
256,192,93132,1,0,0:0:0:0:
256,192,93704,1,0,0:0:0:0:
256,192,94275,1,8,0:0:0:0:
256,192,94561,1,0,0:0:0:0:
256,192,94847,1,8,0:0:0:0:
256,192,94990,1,0,0:0:0:0:
256,192,95132,1,8,0:0:0:0:
256,192,95418,1,0,0:0:0:0:
256,192,95990,1,8,0:0:0:0:
256,192,96275,1,8,0:0:0:0:
256,192,96561,1,0,0:0:0:0:
256,192,97132,1,0,0:0:0:0:
256,192,97418,1,0,0:0:0:0:
256,192,97704,1,8,0:0:0:0:
256,192,97990,1,8,0:0:0:0:
256,192,98132,1,0,0:0:0:0:
256,192,98275,1,0,0:0:0:0:
256,192,98561,1,0,0:0:0:0:
256,192,98847,1,0,0:0:0:0:
256,192,98990,1,0,0:0:0:0:
256,192,99132,1,8,0:0:0:0:
256,192,99418,1,0,0:0:0:0:
256,192,99704,1,8,0:0:0:0:
256,192,99990,1,0,0:0:0:0:
256,192,100561,1,8,0:0:0:0:
256,192,100847,1,0,0:0:0:0:
256,192,100990,1,0,0:0:0:0:
256,192,101132,1,8,0:0:0:0:
256,192,101418,1,0,0:0:0:0:
256,192,101704,1,8,0:0:0:0:
256,192,101847,1,8,0:0:0:0:
256,192,101990,1,0,0:0:0:0:
256,192,102132,1,0,0:0:0:0:
256,192,102275,1,8,0:0:0:0:
256,192,102847,1,0,0:0:0:0:
256,192,103132,1,8,0:0:0:0:
256,192,103275,1,8,0:0:0:0:
256,192,103418,1,8,0:0:0:0:
256,192,103561,1,0,0:0:0:0:
256,192,103704,1,8,0:0:0:0:
256,192,103990,1,8,0:0:0:0:
256,192,104132,1,8,0:0:0:0:
256,192,104275,1,0,0:0:0:0:
256,192,104418,1,8,0:0:0:0:
256,192,104561,1,0,0:0:0:0:
256,192,104704,1,8,0:0:0:0:
256,192,105132,1,8,0:0:0:0:
256,192,105418,1,8,0:0:0:0:
256,192,105561,1,8,0:0:0:0:
256,192,105704,1,0,0:0:0:0:
256,192,106275,1,0,0:0:0:0:
256,192,106418,1,8,0:0:0:0:
256,192,106561,1,8,0:0:0:0:
256,192,106704,1,0,0:0:0:0:
256,192,106847,1,8,0:0:0:0:
256,192,107132,1,8,0:0:0:0:
256,192,107275,1,8,0:0:0:0:
256,192,107418,1,0,0:0:0:0:
256,192,107704,1,0,0:0:0:0:
256,192,107847,1,8,0:0:0:0:
256,192,107990,1,0,0:0:0:0:
256,192,108132,1,0,0:0:0:0:
256,192,108275,1,8,0:0:0:0:
256,192,108561,1,12,0:0:0:0:
256,192,108847,1,4,0:0:0:0:
256,192,109132,1,12,0:0:0:0:
256,192,109418,1,0,0:0:0:0:
256,192,109560,1,0,0:0:0:0:
256,192,109703,1,12,0:0:0:0:
256,192,109989,1,8,0:0:0:0:
256,192,110132,1,0,0:0:0:0:
256,192,110275,1,8,0:0:0:0:
256,192,110346,1,8,0:0:0:0:
256,192,110418,1,0,0:0:0:0:
256,192,110560,1,8,0:0:0:0:
256,192,110703,1,8,0:0:0:0:
256,192,110846,1,4,0:0:0:0:
256,192,111132,1,0,0:0:0:0:
256,192,111275,1,8,0:0:0:0:
256,192,111418,1,0,0:0:0:0:
256,192,111560,1,0,0:0:0:0:
256,192,111632,1,0,0:0:0:0:
256,192,111703,1,8,0:0:0:0:
256,192,111846,1,0,0:0:0:0:
256,192,111989,1,12,0:0:0:0:
256,192,112275,1,8,0:0:0:0:
256,192,112418,1,0,0:0:0:0:
256,192,112560,1,8,0:0:0:0:
256,192,112632,1,0,0:0:0:0:
256,192,112703,1,8,0:0:0:0:
256,192,112846,1,0,0:0:0:0:
256,192,112989,1,8,0:0:0:0:
256,192,113132,1,4,0:0:0:0:
256,192,113418,1,8,0:0:0:0:
256,192,113560,1,0,0:0:0:0:
256,192,113703,1,8,0:0:0:0:
256,192,113775,1,8,0:0:0:0:
256,192,113846,1,0,0:0:0:0:
256,192,113989,1,8,0:0:0:0:
256,192,114132,1,0,0:0:0:0:
256,192,114275,1,12,0:0:0:0:
256,192,114560,1,8,0:0:0:0:
256,192,114703,1,0,0:0:0:0:
256,192,114846,1,8,0:0:0:0:
256,192,115132,1,0,0:0:0:0:
256,192,115275,1,0,0:0:0:0:
256,192,115418,1,12,0:0:0:0:
256,192,115560,1,0,0:0:0:0:
256,192,115632,1,8,0:0:0:0:
256,192,115703,1,0,0:0:0:0:
256,192,115846,1,0,0:0:0:0:
256,192,115989,1,8,0:0:0:0:
256,192,116275,1,4,0:0:0:0:
256,192,116418,1,8,0:0:0:0:
256,192,116560,1,4,0:0:0:0:
256,192,116846,1,0,0:0:0:0:
256,192,116990,1,0,0:0:0:0:
256,192,117132,1,8,0:0:0:0:
256,192,117275,1,8,0:0:0:0:
256,192,117418,1,0,0:0:0:0:
256,192,117703,1,12,0:0:0:0:
256,192,117989,1,4,0:0:0:0:
256,192,118275,1,12,0:0:0:0:
256,192,118560,1,0,0:0:0:0:
256,192,118703,1,0,0:0:0:0:
256,192,118846,1,8,0:0:0:0:
256,192,119132,1,8,0:0:0:0:
256,192,119275,1,0,0:0:0:0:
256,192,119418,1,8,0:0:0:0:
256,192,119489,1,8,0:0:0:0:
256,192,119561,1,0,0:0:0:0:
256,192,119632,1,0,0:0:0:0:
256,192,119703,1,8,0:0:0:0:
256,192,119846,1,8,0:0:0:0:
256,192,119989,1,4,0:0:0:0:
256,192,120275,1,0,0:0:0:0:
256,192,120418,1,8,0:0:0:0:
256,192,120561,1,0,0:0:0:0:
256,192,120703,1,0,0:0:0:0:
256,192,120775,1,0,0:0:0:0:
256,192,120846,1,8,0:0:0:0:
256,192,120989,1,0,0:0:0:0:
256,192,121132,1,12,0:0:0:0:
256,192,121418,1,8,0:0:0:0:
256,192,121561,1,0,0:0:0:0:
256,192,121703,1,8,0:0:0:0:
256,192,121775,1,0,0:0:0:0:
256,192,121846,1,8,0:0:0:0:
256,192,121918,1,8,0:0:0:0:
256,192,121989,1,0,0:0:0:0:
256,192,122132,1,8,0:0:0:0:
256,192,122275,1,4,0:0:0:0:
256,192,122561,1,8,0:0:0:0:
256,192,122703,1,0,0:0:0:0:
256,192,122846,1,8,0:0:0:0:
256,192,122918,1,8,0:0:0:0:
256,192,122989,1,0,0:0:0:0:
256,192,123132,1,8,0:0:0:0:
256,192,123275,1,0,0:0:0:0:
256,192,123418,1,12,0:0:0:0:
256,192,123703,1,8,0:0:0:0:
256,192,123846,1,0,0:0:0:0:
256,192,123989,1,8,0:0:0:0:
256,192,124275,1,0,0:0:0:0:
256,192,124418,1,0,0:0:0:0:
256,192,124561,1,8,0:0:0:0:
256,192,124632,1,8,0:0:0:0:
256,192,124703,1,0,0:0:0:0:
256,192,124775,1,8,0:0:0:0:
256,192,124846,1,0,0:0:0:0:
256,192,124989,1,0,0:0:0:0:
256,192,125132,1,8,0:0:0:0:
256,192,125418,1,4,0:0:0:0:
256,192,125561,1,8,0:0:0:0:
256,192,125703,1,4,0:0:0:0:
256,192,125989,1,0,0:0:0:0:
256,192,126132,1,0,0:0:0:0:
256,192,126275,1,8,0:0:0:0:
256,192,126418,1,8,0:0:0:0:
256,192,126561,1,0,0:0:0:0:
256,192,126703,1,0,0:0:0:0:
256,192,126846,1,12,0:0:0:0:
256,192,127132,1,4,0:0:0:0:
256,192,127418,1,12,0:0:0:0:
