osu file format v14

[General]
AudioFilename: audio.mp3
AudioLeadIn: 0
PreviewTime: 18275
Countdown: 0
SampleSet: Normal
StackLeniency: 0.2
Mode: 1
LetterboxInBreaks: 0
WidescreenStoryboard: 0

[Editor]
DistanceSpacing: 1
BeatDivisor: 4
GridSize: 32
TimelineZoom: 3

[Metadata]
Title:Leprechaun
TitleUnicode:Leprechaun
Artist:Thaehan
ArtistUnicode:Thaehan
Creator:teaMblack19
Version:Inner Oni
Source:osu!
Tags:Loki Bwa Featured Artist Electronic Medieval xfraczynho Alwaysyukaz [R]
BeatmapID:1286659
BeatmapSetID:609290

[Difficulty]
HPDrainRate:5
CircleSize:0
OverallDifficulty:6
ApproachRate:0
SliderMultiplier:1.4
SliderTickRate:1

[Events]
//Background and Video events
0,0,"BG.jpg",0,0
//Break Periods
//Storyboard Layer 0 (Background)
//Storyboard Layer 1 (Fail)
//Storyboard Layer 2 (Pass)
//Storyboard Layer 3 (Foreground)
//Storyboard Sound Samples

[TimingPoints]
-10,285.714285714286,4,1,0,50,1,0
9132,-111.111111111111,4,1,0,60,0,0
17132,-100,4,1,0,75,0,0
18275,-100,4,1,0,75,0,1
36561,-100,4,1,0,75,0,0
91419,-117.647058823529,4,1,0,50,0,0
100562,-111.111111111111,4,1,0,60,0,0
108561,-100,4,1,0,75,0,0
109704,-100,4,1,0,75,0,1
127418,-100,4,1,0,75,0,0

[HitObjects]
256,192,9132,5,8,0:0:0:0:
256,192,9418,1,0,0:0:0:0:
256,192,9561,1,8,0:0:0:0:
256,192,9704,1,0,0:0:0:0:
256,192,9847,1,0,0:0:0:0:
256,192,9990,1,8,0:0:0:0:
256,192,10275,1,0,0:0:0:0:
256,192,10418,1,8,0:0:0:0:
256,192,10561,1,8,0:0:0:0:
256,192,10704,1,0,0:0:0:0:
256,192,10847,1,0,0:0:0:0:
256,192,11132,1,8,0:0:0:0:
256,192,11418,1,0,0:0:0:0:
256,192,11490,1,8,0:0:0:0:
256,192,11561,1,0,0:0:0:0:
256,192,11704,1,8,0:0:0:0:
256,192,11847,1,8,0:0:0:0:
256,192,11990,1,8,0:0:0:0:
256,192,12132,1,0,0:0:0:0:
256,192,12275,1,8,0:0:0:0:
256,192,12561,1,8,0:0:0:0:
256,192,12632,1,8,0:0:0:0:
256,192,12704,1,8,0:0:0:0:
256,192,12847,1,0,0:0:0:0:
256,192,12990,1,8,0:0:0:0:
256,192,13132,1,0,0:0:0:0:
256,192,13275,1,8,0:0:0:0:
256,192,13347,1,0,0:0:0:0:
256,192,13418,1,8,0:0:0:0:
256,192,13704,1,8,0:0:0:0:
256,192,13990,1,8,0:0:0:0:
256,192,14132,1,8,0:0:0:0:
256,192,14275,1,0,0:0:0:0:
256,192,14561,1,0,0:0:0:0:
256,192,14847,1,0,0:0:0:0:
256,192,14990,1,8,0:0:0:0:
256,192,15132,1,8,0:0:0:0:
256,192,15275,1,0,0:0:0:0:
256,192,15418,1,8,0:0:0:0:
256,192,15704,1,8,0:0:0:0:
256,192,15847,1,8,0:0:0:0:
256,192,15990,1,0,0:0:0:0:
256,192,16275,1,0,0:0:0:0:
256,192,16418,1,8,0:0:0:0:
256,192,16561,1,0,0:0:0:0:
256,192,16704,1,0,0:0:0:0:
256,192,16847,1,8,0:0:0:0:
256,192,17132,5,12,0:0:0:0:
256,192,17418,5,4,0:0:0:0:
256,192,17704,5,12,0:0:0:0:
256,192,17990,1,0,0:0:0:0:
256,192,18132,1,0,0:0:0:0:
256,192,18275,5,12,0:0:0:0:
256,192,18418,1,8,0:0:0:0:
256,192,18561,1,0,0:0:0:0:
256,192,18632,1,0,0:0:0:0:
256,192,18704,1,8,0:0:0:0:
256,192,18775,1,8,0:0:0:0:
256,192,18847,1,0,0:0:0:0:
256,192,18990,1,0,0:0:0:0:
256,192,19132,1,8,0:0:0:0:
256,192,19204,1,0,0:0:0:0:
256,192,19275,1,8,0:0:0:0:
256,192,19418,5,4,0:0:0:0:
256,192,19561,1,8,0:0:0:0:
256,192,19632,1,0,0:0:0:0:
256,192,19704,1,8,0:0:0:0:
256,192,19775,1,8,0:0:0:0:
256,192,19847,1,0,0:0:0:0:
256,192,19990,1,0,0:0:0:0:
256,192,20132,1,8,0:0:0:0:
256,192,20275,5,4,0:0:0:0:
256,192,20561,5,12,0:0:0:0:
256,192,20704,1,0,0:0:0:0:
256,192,20775,1,0,0:0:0:0:
256,192,20847,1,8,0:0:0:0:
256,192,20990,1,8,0:0:0:0:
256,192,21132,1,8,0:0:0:0:
256,192,21204,1,8,0:0:0:0:
256,192,21275,1,0,0:0:0:0:
256,192,21347,1,0,0:0:0:0:
256,192,21418,1,8,0:0:0:0:
256,192,21490,1,0,0:0:0:0:
256,192,21561,1,8,0:0:0:0:
256,192,21704,5,4,0:0:0:0:
256,192,21847,1,8,0:0:0:0:
256,192,21918,1,8,0:0:0:0:
256,192,21990,1,0,0:0:0:0:
256,192,22132,1,8,0:0:0:0:
256,192,22275,5,4,0:0:0:0:
256,192,22418,1,8,0:0:0:0:
256,192,22490,1,0,0:0:0:0:
256,192,22561,1,8,0:0:0:0:
256,192,22847,5,12,0:0:0:0:
256,192,22990,1,0,0:0:0:0:
256,192,23061,1,0,0:0:0:0:
256,192,23132,1,8,0:0:0:0:
256,192,23275,1,8,0:0:0:0:
256,192,23347,1,8,0:0:0:0:
256,192,23418,1,0,0:0:0:0:
256,192,23561,1,0,0:0:0:0:
256,192,23704,1,8,0:0:0:0:
256,192,23775,1,0,0:0:0:0:
256,192,23847,1,8,0:0:0:0:
256,192,23990,5,12,0:0:0:0:
256,192,24132,1,8,0:0:0:0:
256,192,24204,1,0,0:0:0:0:
256,192,24275,1,8,0:0:0:0:
256,192,24418,1,0,0:0:0:0:
256,192,24490,1,0,0:0:0:0:
256,192,24561,1,8,0:0:0:0:
256,192,24704,1,0,0:0:0:0:
256,192,24847,5,12,0:0:0:0:
256,192,25132,5,4,0:0:0:0:
256,192,25275,1,8,0:0:0:0:
256,192,25347,1,8,0:0:0:0:
256,192,25418,1,0,0:0:0:0:
256,192,25490,1,0,0:0:0:0:
256,192,25561,1,8,0:0:0:0:
256,192,25704,1,8,0:0:0:0:
256,192,25775,1,0,0:0:0:0:
256,192,25847,1,8,0:0:0:0:
256,192,25918,1,0,0:0:0:0:
256,192,25990,1,0,0:0:0:0:
256,192,26061,1,8,0:0:0:0:
256,192,26132,1,8,0:0:0:0:
256,192,26275,5,12,0:0:0:0:
256,192,26561,5,4,0:0:0:0:
256,192,26847,5,12,0:0:0:0:
256,192,27132,1,0,0:0:0:0:
256,192,27275,1,0,0:0:0:0:
256,192,27418,5,12,0:0:0:0:
256,192,27561,1,8,0:0:0:0:
256,192,27704,1,0,0:0:0:0:
256,192,27775,1,0,0:0:0:0:
256,192,27847,1,8,0:0:0:0:
256,192,27918,1,8,0:0:0:0:
256,192,27990,1,0,0:0:0:0:
256,192,28132,1,0,0:0:0:0:
256,192,28275,1,8,0:0:0:0:
256,192,28347,1,0,0:0:0:0:
256,192,28418,1,8,0:0:0:0:
256,192,28561,5,4,0:0:0:0:
256,192,28704,1,8,0:0:0:0:
256,192,28775,1,0,0:0:0:0:
256,192,28847,1,8,0:0:0:0:
256,192,28918,1,0,0:0:0:0:
256,192,28990,1,0,0:0:0:0:
256,192,29132,1,0,0:0:0:0:
256,192,29275,1,8,0:0:0:0:
256,192,29418,5,4,0:0:0:0:
256,192,29704,5,12,0:0:0:0:
256,192,29847,1,0,0:0:0:0:
256,192,29918,1,0,0:0:0:0:
256,192,29990,1,8,0:0:0:0:
256,192,30132,1,8,0:0:0:0:
256,192,30275,1,8,0:0:0:0:
256,192,30347,1,0,0:0:0:0:
256,192,30418,1,0,0:0:0:0:
256,192,30490,1,8,0:0:0:0:
256,192,30561,1,0,0:0:0:0:
256,192,30632,1,0,0:0:0:0:
256,192,30704,1,8,0:0:0:0:
256,192,30847,5,4,0:0:0:0:
256,192,30990,1,8,0:0:0:0:
256,192,31061,1,8,0:0:0:0:
256,192,31132,1,0,0:0:0:0:
256,192,31275,1,8,0:0:0:0:
256,192,31418,5,4,0:0:0:0:
256,192,31561,1,8,0:0:0:0:
256,192,31632,1,0,0:0:0:0:
256,192,31704,1,8,0:0:0:0:
256,192,31990,5,12,0:0:0:0:
256,192,32132,1,0,0:0:0:0:
256,192,32204,1,0,0:0:0:0:
256,192,32275,1,8,0:0:0:0:
256,192,32418,1,8,0:0:0:0:
256,192,32490,1,8,0:0:0:0:
256,192,32561,1,0,0:0:0:0:
256,192,32704,1,0,0:0:0:0:
256,192,32847,1,8,0:0:0:0:
256,192,32918,1,0,0:0:0:0:
256,192,32990,1,8,0:0:0:0:
256,192,33132,5,12,0:0:0:0:
256,192,33275,1,0,0:0:0:0:
256,192,33347,1,8,0:0:0:0:
256,192,33418,1,8,0:0:0:0:
256,192,33561,1,0,0:0:0:0:
256,192,33632,1,0,0:0:0:0:
256,192,33704,1,8,0:0:0:0:
256,192,33847,1,0,0:0:0:0:
256,192,33990,5,12,0:0:0:0:
256,192,34275,5,4,0:0:0:0:
256,192,34418,1,8,0:0:0:0:
256,192,34490,1,8,0:0:0:0:
256,192,34561,1,0,0:0:0:0:
256,192,34632,1,0,0:0:0:0:
256,192,34704,1,8,0:0:0:0:
256,192,34847,1,8,0:0:0:0:
256,192,34918,1,0,0:0:0:0:
256,192,34990,1,0,0:0:0:0:
256,192,35061,1,8,0:0:0:0:
256,192,35132,1,8,0:0:0:0:
256,192,35204,1,0,0:0:0:0:
256,192,35275,1,8,0:0:0:0:
256,192,35418,5,12,0:0:0:0:
256,192,35704,5,4,0:0:0:0:
256,192,35990,5,12,0:0:0:0:
256,192,36275,1,0,0:0:0:0:
256,192,36418,1,0,0:0:0:0:
256,192,36561,5,4,0:0:0:0:
256,192,36847,1,8,0:0:0:0:
256,192,36990,5,4,0:0:0:0:
256,192,37132,1,8,0:0:0:0:
256,192,37418,5,4,0:0:0:0:
256,192,37704,1,8,0:0:0:0:
256,192,37847,5,4,0:0:0:0:
256,192,37990,1,8,0:0:0:0:
256,192,38132,1,0,0:0:0:0:
256,192,38275,1,8,0:0:0:0:
256,192,38347,1,8,0:0:0:0:
256,192,38418,1,0,0:0:0:0:
256,192,38561,1,8,0:0:0:0:
256,192,38704,1,0,0:0:0:0:
256,192,38847,5,4,0:0:0:0:
256,192,39132,1,8,0:0:0:0:
256,192,39275,5,4,0:0:0:0:
256,192,39418,1,8,0:0:0:0:
256,192,39704,5,4,0:0:0:0:
256,192,39990,5,12,0:0:0:0:
256,192,40275,1,0,0:0:0:0:
256,192,40418,1,0,0:0:0:0:
256,192,40561,5,12,0:0:0:0:
256,192,40847,1,0,0:0:0:0:
256,192,40990,1,8,0:0:0:0:
256,192,41132,5,4,0:0:0:0:
256,192,41418,1,8,0:0:0:0:
256,192,41561,5,4,0:0:0:0:
256,192,41704,1,8,0:0:0:0:
256,192,41990,5,4,0:0:0:0:
256,192,42275,1,8,0:0:0:0:
256,192,42418,5,4,0:0:0:0:
256,192,42561,1,8,0:0:0:0:
256,192,42704,1,0,0:0:0:0:
256,192,42847,1,8,0:0:0:0:
256,192,42918,1,8,0:0:0:0:
256,192,42990,1,0,0:0:0:0:
256,192,43132,1,8,0:0:0:0:
256,192,43275,1,0,0:0:0:0:
256,192,43418,5,4,0:0:0:0:
256,192,43704,1,8,0:0:0:0:
256,192,43847,1,0,0:0:0:0:
256,192,43990,5,12,0:0:0:0:
256,192,44275,1,0,0:0:0:0:
256,192,44418,1,0,0:0:0:0:
256,192,44561,5,12,0:0:0:0:
256,192,44847,5,4,0:0:0:0:
256,192,45132,5,12,0:0:0:0:
256,192,45418,1,0,0:0:0:0:
256,192,45561,1,0,0:0:0:0:
256,192,45704,5,4,0:0:0:0:
256,192,45990,1,8,0:0:0:0:
256,192,46132,5,4,0:0:0:0:
256,192,46275,1,8,0:0:0:0:
256,192,46561,5,4,0:0:0:0:
256,192,46847,1,8,0:0:0:0:
256,192,46990,5,4,0:0:0:0:
256,192,47132,1,8,0:0:0:0:
256,192,47275,1,0,0:0:0:0:
256,192,47418,1,8,0:0:0:0:
256,192,47490,1,8,0:0:0:0:
256,192,47561,1,0,0:0:0:0:
256,192,47704,1,8,0:0:0:0:
256,192,47847,1,0,0:0:0:0:
256,192,47990,5,4,0:0:0:0:
256,192,48275,1,8,0:0:0:0:
256,192,48418,5,4,0:0:0:0:
256,192,48561,1,8,0:0:0:0:
256,192,48847,5,4,0:0:0:0:
256,192,49132,5,12,0:0:0:0:
256,192,49418,1,0,0:0:0:0:
256,192,49561,1,0,0:0:0:0:
256,192,49704,5,12,0:0:0:0:
256,192,49990,1,0,0:0:0:0:
256,192,50132,1,8,0:0:0:0:
256,192,50275,5,4,0:0:0:0:
256,192,50561,1,8,0:0:0:0:
256,192,50704,5,4,0:0:0:0:
256,192,50847,1,8,0:0:0:0:
256,192,51132,5,4,0:0:0:0:
256,192,51418,1,8,0:0:0:0:
256,192,51561,5,4,0:0:0:0:
256,192,51704,1,8,0:0:0:0:
256,192,51847,1,0,0:0:0:0:
256,192,51990,1,8,0:0:0:0:
256,192,52061,1,8,0:0:0:0:
256,192,52132,1,0,0:0:0:0:
256,192,52275,1,8,0:0:0:0:
256,192,52418,1,0,0:0:0:0:
256,192,52561,5,4,0:0:0:0:
256,192,52847,1,8,0:0:0:0:
256,192,52990,1,0,0:0:0:0:
256,192,53132,5,12,0:0:0:0:
256,192,53418,1,0,0:0:0:0:
256,192,53561,1,0,0:0:0:0:
256,192,53704,5,12,0:0:0:0:
256,192,53990,5,4,0:0:0:0:
256,192,54275,5,12,0:0:0:0:
256,192,54418,1,0,0:0:0:0:
256,192,54561,1,0,0:0:0:0:
256,192,54704,1,0,0:0:0:0:
256,192,54847,5,12,0:0:0:0:
256,192,55132,1,8,0:0:0:0:
256,192,55275,1,8,0:0:0:0:
256,192,55347,1,0,0:0:0:0:
256,192,55418,1,8,0:0:0:0:
256,192,55561,1,0,0:0:0:0:
256,192,55704,1,8,0:0:0:0:
256,192,55847,1,8,0:0:0:0:
256,192,55918,1,0,0:0:0:0:
256,192,55990,1,8,0:0:0:0:
256,192,56061,1,0,0:0:0:0:
256,192,56132,1,8,0:0:0:0:
256,192,56275,1,0,0:0:0:0:
256,192,56418,1,8,0:0:0:0:
256,192,56561,1,8,0:0:0:0:
256,192,56632,1,8,0:0:0:0:
256,192,56704,1,0,0:0:0:0:
256,192,56775,1,0,0:0:0:0:
256,192,56847,1,8,0:0:0:0:
256,192,56918,1,8,0:0:0:0:
256,192,56990,1,0,0:0:0:0:
256,192,57132,5,4,0:0:0:0:
256,192,57418,1,8,0:0:0:0:
256,192,57561,1,0,0:0:0:0:
256,192,57632,1,0,0:0:0:0:
256,192,57704,1,8,0:0:0:0:
256,192,57847,1,0,0:0:0:0:
256,192,57990,1,8,0:0:0:0:
256,192,58132,1,0,0:0:0:0:
256,192,58275,1,0,0:0:0:0:
256,192,58347,1,0,0:0:0:0:
256,192,58418,1,8,0:0:0:0:
256,192,58490,1,0,0:0:0:0:
256,192,58561,1,8,0:0:0:0:
256,192,58704,1,0,0:0:0:0:
256,192,58775,1,0,0:0:0:0:
256,192,58847,1,8,0:0:0:0:
256,192,58990,1,8,0:0:0:0:
256,192,59132,1,0,0:0:0:0:
256,192,59275,1,0,0:0:0:0:
256,192,59418,5,12,0:0:0:0:
256,192,59704,1,8,0:0:0:0:
256,192,59847,1,8,0:0:0:0:
256,192,59918,1,0,0:0:0:0:
256,192,59990,1,8,0:0:0:0:
256,192,60132,1,0,0:0:0:0:
256,192,60275,1,8,0:0:0:0:
256,192,60418,1,8,0:0:0:0:
256,192,60490,1,8,0:0:0:0:
256,192,60561,1,0,0:0:0:0:
256,192,60632,1,0,0:0:0:0:
256,192,60704,1,8,0:0:0:0:
256,192,60847,1,0,0:0:0:0:
256,192,60990,1,8,0:0:0:0:
256,192,61132,1,8,0:0:0:0:
256,192,61204,1,8,0:0:0:0:
256,192,61275,1,0,0:0:0:0:
256,192,61347,1,0,0:0:0:0:
256,192,61418,1,8,0:0:0:0:
256,192,61490,1,0,0:0:0:0:
256,192,61561,1,0,0:0:0:0:
256,192,61704,5,4,0:0:0:0:
256,192,61990,1,8,0:0:0:0:
256,192,62132,1,0,0:0:0:0:
256,192,62204,1,0,0:0:0:0:
256,192,62275,1,8,0:0:0:0:
256,192,62418,1,0,0:0:0:0:
256,192,62561,1,8,0:0:0:0:
256,192,62704,1,0,0:0:0:0:
256,192,62847,5,12,0:0:0:0:
256,192,63132,5,4,0:0:0:0:
256,192,63418,5,12,0:0:0:0:
256,192,63561,1,8,0:0:0:0:
256,192,63704,1,0,0:0:0:0:
256,192,63847,1,0,0:0:0:0:
256,192,63990,5,12,0:0:0:0:
256,192,64275,1,8,0:0:0:0:
256,192,64418,1,8,0:0:0:0:
256,192,64490,1,0,0:0:0:0:
256,192,64561,1,8,0:0:0:0:
256,192,64704,1,0,0:0:0:0:
256,192,64847,1,8,0:0:0:0:
256,192,64990,1,8,0:0:0:0:
256,192,65061,1,0,0:0:0:0:
256,192,65132,1,8,0:0:0:0:
256,192,65204,1,0,0:0:0:0:
256,192,65275,1,8,0:0:0:0:
256,192,65418,1,0,0:0:0:0:
256,192,65561,1,8,0:0:0:0:
256,192,65704,1,8,0:0:0:0:
256,192,65775,1,8,0:0:0:0:
256,192,65847,1,0,0:0:0:0:
256,192,65918,1,0,0:0:0:0:
256,192,65990,1,8,0:0:0:0:
256,192,66061,1,0,0:0:0:0:
256,192,66132,1,0,0:0:0:0:
256,192,66275,5,4,0:0:0:0:
256,192,66561,1,8,0:0:0:0:
256,192,66704,1,0,0:0:0:0:
256,192,66775,1,0,0:0:0:0:
256,192,66847,1,8,0:0:0:0:
256,192,66990,1,0,0:0:0:0:
256,192,67132,1,8,0:0:0:0:
256,192,67275,1,0,0:0:0:0:
256,192,67418,1,0,0:0:0:0:
256,192,67490,1,8,0:0:0:0:
256,192,67561,1,8,0:0:0:0:
256,192,67632,1,0,0:0:0:0:
256,192,67704,1,8,0:0:0:0:
256,192,67847,1,0,0:0:0:0:
256,192,67918,1,0,0:0:0:0:
256,192,67990,1,8,0:0:0:0:
256,192,68132,1,8,0:0:0:0:
256,192,68275,1,0,0:0:0:0:
256,192,68418,1,0,0:0:0:0:
256,192,68561,5,12,0:0:0:0:
256,192,68847,1,8,0:0:0:0:
256,192,68990,1,8,0:0:0:0:
256,192,69061,5,0,0:0:0:0:
256,192,69132,1,8,0:0:0:0:
256,192,69275,1,0,0:0:0:0:
256,192,69418,1,8,0:0:0:0:
256,192,69561,1,8,0:0:0:0:
256,192,69632,1,0,0:0:0:0:
256,192,69704,1,0,0:0:0:0:
256,192,69775,1,0,0:0:0:0:
256,192,69847,1,8,0:0:0:0:
256,192,69990,1,0,0:0:0:0:
256,192,70132,1,8,0:0:0:0:
256,192,70275,1,8,0:0:0:0:
256,192,70347,1,8,0:0:0:0:
256,192,70418,1,0,0:0:0:0:
256,192,70490,1,0,0:0:0:0:
256,192,70561,1,8,0:0:0:0:
256,192,70632,1,8,0:0:0:0:
256,192,70704,1,0,0:0:0:0:
256,192,70847,1,0,0:0:0:0:
256,192,70990,1,0,0:0:0:0:
256,192,71132,1,8,0:0:0:0:
256,192,71275,1,0,0:0:0:0:
256,192,71347,1,0,0:0:0:0:
256,192,71418,1,8,0:0:0:0:
256,192,71561,1,0,0:0:0:0:
256,192,71704,1,8,0:0:0:0:
256,192,71847,1,0,0:0:0:0:
256,192,71990,1,8,0:0:0:0:
256,192,72061,1,8,0:0:0:0:
256,192,72132,1,0,0:0:0:0:
256,192,72204,1,0,0:0:0:0:
256,192,72275,1,8,0:0:0:0:
256,192,72418,1,8,0:0:0:0:
256,192,72490,1,8,0:0:0:0:
256,192,72561,1,0,0:0:0:0:
256,192,72704,1,8,0:0:0:0:
256,192,72847,1,0,0:0:0:0:
256,192,72990,1,0,0:0:0:0:
256,192,73132,5,4,0:0:0:0:
256,192,73418,1,8,0:0:0:0:
256,192,73561,1,8,0:0:0:0:
256,192,73632,1,8,0:0:0:0:
256,192,73704,1,0,0:0:0:0:
256,192,73847,1,8,0:0:0:0:
256,192,73990,5,4,0:0:0:0:
256,192,74275,5,4,0:0:0:0:
256,192,74418,1,0,0:0:0:0:
256,192,74561,1,8,0:0:0:0:
256,192,74632,1,0,0:0:0:0:
256,192,74704,1,8,0:0:0:0:
256,192,74847,1,0,0:0:0:0:
256,192,74990,1,0,0:0:0:0:
256,192,75132,5,12,0:0:0:0:
256,192,75418,5,4,0:0:0:0:
256,192,75561,5,4,0:0:0:0:
256,192,75704,5,4,0:0:0:0:
256,192,75847,5,4,0:0:0:0:
256,192,75990,5,4,0:0:0:0:
256,192,76132,5,12,0:0:0:0:
256,192,76275,5,12,0:0:0:0:
256,192,76418,5,12,0:0:0:0:
256,192,76561,5,4,0:0:0:0:
256,192,76704,5,4,0:0:0:0:
256,192,76847,5,4,0:0:0:0:
256,192,76990,5,4,0:0:0:0:
256,192,77132,5,12,0:0:0:0:
256,192,77275,1,8,0:0:0:0:
256,192,77347,1,8,0:0:0:0:
256,192,77418,1,0,0:0:0:0:
256,192,77561,1,8,0:0:0:0:
256,192,77704,5,4,0:0:0:0:
256,192,77990,1,8,0:0:0:0:
256,192,78132,1,8,0:0:0:0:
256,192,78204,1,8,0:0:0:0:
256,192,78275,1,0,0:0:0:0:
256,192,78418,1,8,0:0:0:0:
256,192,78561,5,4,0:0:0:0:
256,192,78847,5,4,0:0:0:0:
256,192,78990,1,0,0:0:0:0:
256,192,79061,1,0,0:0:0:0:
256,192,79132,1,8,0:0:0:0:
256,192,79204,1,0,0:0:0:0:
256,192,79275,1,8,0:0:0:0:
256,192,79418,1,0,0:0:0:0:
256,192,79561,1,0,0:0:0:0:
256,192,79704,5,12,0:0:0:0:
256,192,79990,1,0,0:0:0:0:
256,192,80085,1,0,0:0:0:0:
256,192,80180,1,0,0:0:0:0:
256,192,80275,1,0,0:0:0:0:
256,192,80418,1,0,0:0:0:0:
256,192,80561,5,4,0:0:0:0:
256,192,80704,5,12,0:0:0:0:
256,192,80847,5,12,0:0:0:0:
256,192,80990,5,12,0:0:0:0:
256,192,81132,5,12,0:0:0:0:
256,192,81418,5,4,0:0:0:0:
256,192,81704,5,12,0:0:0:0:
256,192,81990,1,0,0:0:0:0:
256,192,82132,1,0,0:0:0:0:
256,192,82275,5,4,0:0:0:0:
256,192,82561,1,8,0:0:0:0:
256,192,82704,1,8,0:0:0:0:
256,192,82775,1,8,0:0:0:0:
256,192,82847,1,0,0:0:0:0:
256,192,82990,1,8,0:0:0:0:
256,192,83132,5,4,0:0:0:0:
256,192,83418,5,4,0:0:0:0:
256,192,83561,1,0,0:0:0:0:
256,192,83704,1,8,0:0:0:0:
256,192,83775,1,0,0:0:0:0:
256,192,83847,1,8,0:0:0:0:
256,192,83990,1,0,0:0:0:0:
256,192,84132,1,0,0:0:0:0:
256,192,84275,5,12,0:0:0:0:
256,192,84561,5,4,0:0:0:0:
256,192,84704,5,4,0:0:0:0:
256,192,84847,5,4,0:0:0:0:
256,192,84990,5,4,0:0:0:0:
256,192,85132,5,4,0:0:0:0:
256,192,85275,5,12,0:0:0:0:
256,192,85418,5,12,0:0:0:0:
256,192,85561,5,12,0:0:0:0:
256,192,85704,5,4,0:0:0:0:
256,192,85847,5,4,0:0:0:0:
256,192,85990,5,4,0:0:0:0:
256,192,86132,5,4,0:0:0:0:
256,192,86275,5,12,0:0:0:0:
256,192,86418,1,8,0:0:0:0:
256,192,86490,1,8,0:0:0:0:
256,192,86561,1,0,0:0:0:0:
256,192,86704,1,8,0:0:0:0:
256,192,86847,5,4,0:0:0:0:
256,192,87132,1,8,0:0:0:0:
256,192,87275,1,8,0:0:0:0:
256,192,87347,1,8,0:0:0:0:
256,192,87418,1,0,0:0:0:0:
256,192,87561,1,8,0:0:0:0:
256,192,87704,5,4,0:0:0:0:
256,192,87990,5,4,0:0:0:0:
256,192,88132,1,0,0:0:0:0:
256,192,88204,1,0,0:0:0:0:
256,192,88275,1,8,0:0:0:0:
256,192,88347,1,0,0:0:0:0:
256,192,88418,1,8,0:0:0:0:
256,192,88561,1,0,0:0:0:0:
256,192,88704,1,0,0:0:0:0:
256,192,88847,5,12,0:0:0:0:
256,192,89132,1,0,0:0:0:0:
256,192,89228,1,0,0:0:0:0:
256,192,89323,1,0,0:0:0:0:
256,192,89418,1,0,0:0:0:0:
256,192,89561,1,0,0:0:0:0:
256,192,89704,5,4,0:0:0:0:
256,192,89847,5,12,0:0:0:0:
256,192,89990,5,12,0:0:0:0:
256,192,90132,5,12,0:0:0:0:
256,192,90275,5,12,0:0:0:0:
256,192,90561,5,4,0:0:0:0:
256,192,90847,5,12,0:0:0:0:
256,192,90990,1,0,0:0:0:0:
256,192,91132,1,8,0:0:0:0:
256,192,91275,1,0,0:0:0:0:
256,192,91418,5,12,0:0:0:0:
256,192,91704,1,0,0:0:0:0:
256,192,91847,1,8,0:0:0:0:
256,192,91990,1,0,0:0:0:0:
256,192,92132,1,0,0:0:0:0:
256,192,92275,1,8,0:0:0:0:
256,192,92561,1,0,0:0:0:0:
256,192,92704,1,8,0:0:0:0:
256,192,92847,1,8,0:0:0:0:
256,192,92990,1,0,0:0:0:0:
256,192,93132,1,0,0:0:0:0:
256,192,93704,1,0,0:0:0:0:
256,192,93990,1,8,0:0:0:0:
256,192,94132,1,8,0:0:0:0:
256,192,94275,1,8,0:0:0:0:
256,192,94418,1,0,0:0:0:0:
256,192,94561,1,8,0:0:0:0:
256,192,94847,1,8,0:0:0:0:
256,192,94990,1,8,0:0:0:0:
256,192,95132,1,0,0:0:0:0:
256,192,95275,1,8,0:0:0:0:
256,192,95418,1,0,0:0:0:0:
256,192,95990,1,8,0:0:0:0:
256,192,96275,1,8,0:0:0:0:
256,192,96418,1,8,0:0:0:0:
256,192,96561,1,0,0:0:0:0:
256,192,97132,1,0,0:0:0:0:
256,192,97275,1,8,0:0:0:0:
256,192,97418,1,8,0:0:0:0:
256,192,97561,1,0,0:0:0:0:
256,192,97704,1,8,0:0:0:0:
256,192,97990,1,8,0:0:0:0:
256,192,98132,1,8,0:0:0:0:
256,192,98275,1,0,0:0:0:0:
256,192,98561,1,0,0:0:0:0:
256,192,98704,1,8,0:0:0:0:
256,192,98847,1,0,0:0:0:0:
256,192,98990,1,0,0:0:0:0:
256,192,99132,1,8,0:0:0:0:
256,192,99418,1,0,0:0:0:0:
256,192,99561,1,0,0:0:0:0:
256,192,99704,1,8,0:0:0:0:
256,192,99847,1,0,0:0:0:0:
256,192,99990,1,0,0:0:0:0:
256,192,100132,1,0,0:0:0:0:
256,192,100275,1,8,0:0:0:0:
256,192,100418,1,0,0:0:0:0:
256,192,100561,1,8,0:0:0:0:
256,192,100847,1,0,0:0:0:0:
256,192,100990,1,8,0:0:0:0:
256,192,101132,1,0,0:0:0:0:
256,192,101275,1,0,0:0:0:0:
256,192,101418,1,8,0:0:0:0:
256,192,101704,1,0,0:0:0:0:
256,192,101847,1,8,0:0:0:0:
256,192,101990,1,8,0:0:0:0:
256,192,102132,1,0,0:0:0:0:
256,192,102275,1,0,0:0:0:0:
256,192,102561,1,8,0:0:0:0:
256,192,102847,1,0,0:0:0:0:
256,192,102918,1,8,0:0:0:0:
256,192,102990,1,0,0:0:0:0:
256,192,103132,1,8,0:0:0:0:
256,192,103275,1,8,0:0:0:0:
256,192,103418,1,8,0:0:0:0:
256,192,103561,1,0,0:0:0:0:
256,192,103704,1,8,0:0:0:0:
256,192,103990,1,8,0:0:0:0:
256,192,104061,1,8,0:0:0:0:
256,192,104132,1,8,0:0:0:0:
256,192,104275,1,0,0:0:0:0:
256,192,104418,1,8,0:0:0:0:
256,192,104561,1,0,0:0:0:0:
256,192,104704,1,8,0:0:0:0:
256,192,104775,1,0,0:0:0:0:
256,192,104847,1,8,0:0:0:0:
256,192,105132,1,8,0:0:0:0:
256,192,105418,1,8,0:0:0:0:
256,192,105561,1,8,0:0:0:0:
256,192,105704,1,0,0:0:0:0:
256,192,105990,1,0,0:0:0:0:
256,192,106275,1,0,0:0:0:0:
256,192,106418,1,8,0:0:0:0:
256,192,106561,1,8,0:0:0:0:
256,192,106704,1,0,0:0:0:0:
256,192,106847,1,8,0:0:0:0:
256,192,107132,1,8,0:0:0:0:
256,192,107275,1,8,0:0:0:0:
256,192,107418,1,0,0:0:0:0:
256,192,107704,1,0,0:0:0:0:
256,192,107847,1,8,0:0:0:0:
256,192,107990,1,0,0:0:0:0:
256,192,108132,1,0,0:0:0:0:
256,192,108275,1,8,0:0:0:0:
256,192,108561,5,12,0:0:0:0:
256,192,108847,5,4,0:0:0:0:
256,192,109132,5,12,0:0:0:0:
256,192,109418,1,0,0:0:0:0:
256,192,109561,1,0,0:0:0:0:
256,192,109704,5,12,0:0:0:0:
256,192,109847,1,8,0:0:0:0:
256,192,109990,1,0,0:0:0:0:
256,192,110061,1,0,0:0:0:0:
256,192,110132,1,8,0:0:0:0:
256,192,110204,1,8,0:0:0:0:
256,192,110275,1,0,0:0:0:0:
256,192,110418,1,0,0:0:0:0:
256,192,110561,1,8,0:0:0:0:
256,192,110632,1,0,0:0:0:0:
256,192,110704,1,8,0:0:0:0:
256,192,110847,5,4,0:0:0:0:
256,192,110990,1,8,0:0:0:0:
256,192,111061,1,8,0:0:0:0:
256,192,111132,1,0,0:0:0:0:
256,192,111204,1,8,0:0:0:0:
256,192,111275,1,0,0:0:0:0:
256,192,111418,1,0,0:0:0:0:
256,192,111561,1,8,0:0:0:0:
256,192,111704,5,4,0:0:0:0:
256,192,111990,5,12,0:0:0:0:
256,192,112132,1,0,0:0:0:0:
256,192,112204,1,0,0:0:0:0:
256,192,112275,1,8,0:0:0:0:
256,192,112418,1,8,0:0:0:0:
256,192,112561,1,8,0:0:0:0:
256,192,112632,1,0,0:0:0:0:
256,192,112704,1,0,0:0:0:0:
256,192,112775,1,8,0:0:0:0:
256,192,112847,1,0,0:0:0:0:
256,192,112918,1,0,0:0:0:0:
256,192,112990,1,8,0:0:0:0:
256,192,113132,5,4,0:0:0:0:
256,192,113275,1,8,0:0:0:0:
256,192,113347,1,8,0:0:0:0:
256,192,113418,1,0,0:0:0:0:
256,192,113561,1,8,0:0:0:0:
256,192,113704,5,4,0:0:0:0:
256,192,113847,1,8,0:0:0:0:
256,192,113918,1,0,0:0:0:0:
256,192,113990,1,8,0:0:0:0:
256,192,114275,5,12,0:0:0:0:
256,192,114418,1,0,0:0:0:0:
256,192,114490,1,0,0:0:0:0:
256,192,114561,1,8,0:0:0:0:
256,192,114704,1,8,0:0:0:0:
256,192,114775,1,8,0:0:0:0:
256,192,114847,1,0,0:0:0:0:
256,192,114990,1,0,0:0:0:0:
256,192,115132,1,8,0:0:0:0:
256,192,115204,1,0,0:0:0:0:
256,192,115275,1,8,0:0:0:0:
256,192,115418,5,12,0:0:0:0:
256,192,115561,1,0,0:0:0:0:
256,192,115632,1,8,0:0:0:0:
256,192,115704,1,8,0:0:0:0:
256,192,115847,1,0,0:0:0:0:
256,192,115918,1,0,0:0:0:0:
256,192,115990,1,8,0:0:0:0:
256,192,116132,1,0,0:0:0:0:
256,192,116275,5,12,0:0:0:0:
256,192,116561,5,4,0:0:0:0:
256,192,116704,1,8,0:0:0:0:
256,192,116775,5,8,0:0:0:0:
256,192,116847,1,0,0:0:0:0:
256,192,116918,1,0,0:0:0:0:
256,192,116990,1,8,0:0:0:0:
256,192,117132,1,8,0:0:0:0:
256,192,117204,1,8,0:0:0:0:
256,192,117275,1,0,0:0:0:0:
256,192,117347,1,8,0:0:0:0:
256,192,117418,1,0,0:0:0:0:
256,192,117490,1,0,0:0:0:0:
256,192,117561,1,8,0:0:0:0:
256,192,117704,5,12,0:0:0:0:
256,192,117990,5,4,0:0:0:0:
256,192,118275,5,12,0:0:0:0:
256,192,118561,1,0,0:0:0:0:
256,192,118704,1,0,0:0:0:0:
256,192,118847,1,8,0:0:0:0:
256,192,118990,1,8,0:0:0:0:
256,192,119132,1,0,0:0:0:0:
256,192,119275,1,0,0:0:0:0:
256,192,119418,5,12,0:0:0:0:
256,192,119561,1,0,0:0:0:0:
256,192,119704,1,8,0:0:0:0:
256,192,119775,1,0,0:0:0:0:
256,192,119847,1,8,0:0:0:0:
256,192,119990,5,4,0:0:0:0:
256,192,120132,1,8,0:0:0:0:
256,192,120204,1,0,0:0:0:0:
256,192,120275,1,8,0:0:0:0:
256,192,120347,1,0,0:0:0:0:
256,192,120418,1,0,0:0:0:0:
256,192,120561,1,0,0:0:0:0:
256,192,120704,1,8,0:0:0:0:
256,192,120847,5,4,0:0:0:0:
256,192,121132,5,12,0:0:0:0:
256,192,121275,1,0,0:0:0:0:
256,192,121347,1,0,0:0:0:0:
256,192,121418,1,8,0:0:0:0:
256,192,121561,1,8,0:0:0:0:
256,192,121704,1,8,0:0:0:0:
256,192,121775,1,8,0:0:0:0:
256,192,121847,1,0,0:0:0:0:
256,192,121918,1,0,0:0:0:0:
256,192,121990,1,8,0:0:0:0:
256,192,122061,1,0,0:0:0:0:
256,192,122132,1,8,0:0:0:0:
256,192,122275,5,4,0:0:0:0:
256,192,122418,1,8,0:0:0:0:
256,192,122490,1,8,0:0:0:0:
256,192,122561,1,0,0:0:0:0:
256,192,122704,1,8,0:0:0:0:
256,192,122847,5,4,0:0:0:0:
256,192,122990,1,8,0:0:0:0:
256,192,123061,1,0,0:0:0:0:
256,192,123132,1,8,0:0:0:0:
256,192,123418,5,12,0:0:0:0:
256,192,123561,1,0,0:0:0:0:
256,192,123632,1,0,0:0:0:0:
256,192,123704,1,8,0:0:0:0:
256,192,123847,1,8,0:0:0:0:
256,192,123918,1,8,0:0:0:0:
256,192,123990,1,0,0:0:0:0:
256,192,124132,1,0,0:0:0:0:
256,192,124275,1,8,0:0:0:0:
256,192,124347,1,0,0:0:0:0:
256,192,124418,1,8,0:0:0:0:
256,192,124561,5,12,0:0:0:0:
256,192,124704,1,8,0:0:0:0:
256,192,124775,1,0,0:0:0:0:
256,192,124847,1,8,0:0:0:0:
256,192,124990,1,0,0:0:0:0:
256,192,125061,1,0,0:0:0:0:
256,192,125132,1,8,0:0:0:0:
256,192,125275,1,0,0:0:0:0:
256,192,125418,5,12,0:0:0:0:
256,192,125704,5,4,0:0:0:0:
256,192,125847,1,8,0:0:0:0:
256,192,125918,1,8,0:0:0:0:
256,192,125990,1,0,0:0:0:0:
256,192,126061,1,0,0:0:0:0:
256,192,126132,1,8,0:0:0:0:
256,192,126275,1,8,0:0:0:0:
256,192,126347,1,0,0:0:0:0:
256,192,126418,1,8,0:0:0:0:
256,192,126490,1,8,0:0:0:0:
256,192,126561,1,0,0:0:0:0:
256,192,126632,1,0,0:0:0:0:
256,192,126704,1,8,0:0:0:0:
256,192,126847,5,12,0:0:0:0:
256,192,127132,5,4,0:0:0:0:
256,192,127418,5,12,0:0:0:0:
