osu file format v14

[General]
AudioFilename: audio.mp3
AudioLeadIn: 0
PreviewTime: 53779
Countdown: 1
SampleSet: Normal
StackLeniency: 0.7
Mode: 1
LetterboxInBreaks: 0
WidescreenStoryboard: 1

[Editor]
Bookmarks: 24632,27418,36561,45704,54847,63990,73132,82275,91418,100561,109704,118847,127418
DistanceSpacing: 0.8
BeatDivisor: 4
GridSize: 8
TimelineZoom: 1.7

[Metadata]
Title:Leprechaun
TitleUnicode:Leprechaun
Artist:Thaehan
ArtistUnicode:Thaehan
Creator:Okoratu
Version:Oni
Source:
Tags:Loki Bwa Featured Artist Electronic Medieval Okorin Yales
BeatmapID:1834681
BeatmapSetID:877496

[Difficulty]
HPDrainRate:5
CircleSize:5
OverallDifficulty:5
ApproachRate:5
SliderMultiplier:1.4
SliderTickRate:1

[Events]
//Background and Video events
0,0,"GREEEN.jpg",0,-30
//Break Periods
//Storyboard Layer 0 (Background)
//Storyboard Layer 1 (Fail)
//Storyboard Layer 2 (Pass)
//Storyboard Layer 3 (Foreground)
//Storyboard Sound Samples

[TimingPoints]
160,285.714285714286,4,1,0,40,1,0
160,-200,4,1,0,20,0,0
8231,-185.185185185185,4,1,0,20,0,0
8374,-172.413793103448,4,1,0,20,0,0
8517,-161.290322580645,4,1,0,20,0,0
8660,-151.515151515152,4,1,0,20,0,0
8874,-142.857142857143,4,1,0,20,0,0
9088,-136.986301369863,4,1,0,20,0,0
9231,-133.333333333333,4,1,0,20,0,0
11445,-133.333333333333,4,1,0,30,0,0
13731,-133.333333333333,4,1,0,40,0,0
16302,-125,4,1,0,40,0,0
16517,-120.481927710843,4,1,0,40,0,0
16660,-116.279069767442,4,1,0,40,0,0
16802,-112.359550561798,4,1,0,40,0,0
16945,-108.695652173913,4,1,0,40,0,0
17088,-105.263157894737,4,1,0,40,0,0
17231,-102.040816326531,4,1,0,70,0,0
17445,-100,4,1,0,70,0,0
17731,-83.3333333333333,4,1,0,80,0,0
18017,-100,4,1,0,80,0,0
18374,-100,4,1,0,100,0,0
26374,-83.3333333333333,4,1,0,100,0,0
27160,-100,4,1,0,100,0,0
35517,-83.3333333333333,4,1,0,100,0,0
36302,-100,4,1,0,100,0,0
36517,-95.2380952380952,4,1,0,100,0,0
36660,-90.9090909090909,4,1,0,100,0,0
37017,-86.9565217391304,4,1,0,100,0,0
37445,-76.9230769230769,4,1,0,100,0,0
37802,-74.0740740740741,4,1,0,100,0,0
37945,-71.4285714285714,4,1,0,100,0,0
38302,-76.9230769230769,4,1,0,100,0,0
38517,-81.3008130081301,4,1,0,100,0,0
38660,-86.9565217391304,4,1,0,100,0,0
38874,-90.9090909090909,4,1,0,100,0,0
39302,-86.9565217391304,4,1,0,100,0,0
39731,-80,4,1,0,100,0,0
40017,-75.187969924812,4,1,0,100,0,0
40231,-76.9230769230769,4,1,0,100,0,0
40517,-81.3008130081301,4,1,0,100,0,0
40660,-86.9565217391304,4,1,0,100,0,0
40874,-81.3008130081301,4,1,0,100,0,0
41160,-90.9090909090909,4,1,0,100,0,0
41588,-86.9565217391304,4,1,0,100,0,0
42017,-76.9230769230769,4,1,0,100,0,0
42374,-74.0740740740741,4,1,0,100,0,0
42517,-71.4285714285714,4,1,0,100,0,0
42874,-76.9230769230769,4,1,0,100,0,0
43089,-81.3008130081301,4,1,0,100,0,0
43232,-86.9565217391304,4,1,0,100,0,0
43445,-90.9090909090909,4,1,0,100,0,0
43731,-95.2380952380952,4,1,0,100,0,0
44588,-90.9090909090909,4,1,0,100,0,0
44874,-86.9565217391304,4,1,0,100,0,0
45160,-80,4,1,0,100,0,0
45445,-90.9090909090909,4,1,0,100,0,0
45660,-86.9565217391304,4,1,0,100,0,0
45802,-83.3333333333333,4,1,0,100,0,0
46159,-80,4,1,0,100,0,0
46587,-74.0740740740741,4,1,0,100,0,0
46945,-68.9655172413793,4,1,0,100,0,0
47087,-66.6666666666667,4,1,0,100,0,0
47444,-74.0740740740741,4,1,0,100,0,0
47659,-76.9230769230769,4,1,0,100,0,0
47802,-80,4,1,0,100,0,0
48016,-83.3333333333333,4,1,0,100,0,0
48444,-80,4,1,0,100,0,0
48873,-74.0740740740741,4,1,0,100,0,0
49159,-68.9655172413793,4,1,0,100,0,0
49373,-66.6666666666667,4,1,0,100,0,0
49659,-70.4225352112676,4,1,0,100,0,0
49802,-74.0740740740741,4,1,0,100,0,0
50016,-75.187969924812,4,1,0,100,0,0
50302,-83.3333333333333,4,1,0,100,0,0
50730,-80,4,1,0,100,0,0
51159,-74.0740740740741,4,1,0,100,0,0
51517,-68.9655172413793,4,1,0,100,0,0
51659,-66.6666666666667,4,1,0,100,0,0
52017,-74.0740740740741,4,1,0,100,0,0
52232,-76.9230769230769,4,1,0,100,0,0
52375,-80,4,1,0,100,0,0
52589,-83.3333333333333,4,1,0,100,0,0
52874,-100,4,1,0,100,0,0
53731,-100,4,1,0,100,0,0
54017,-100,4,1,0,100,0,0
55017,-100,4,1,0,100,0,1
55088,-100,4,1,0,100,0,1
62945,-95.2380952380952,4,1,0,100,0,1
63160,-90.9090909090909,4,1,0,100,0,1
63445,-90.9090909090909,4,1,0,100,0,1
63660,-89.2857142857143,4,1,0,100,0,1
63802,-87.719298245614,4,1,0,100,0,1
63945,-86.2068965517241,4,1,0,100,0,1
64088,-84.7457627118644,4,1,0,100,0,1
64231,-90.9090909090909,4,1,0,100,0,1
68731,-86.9565217391304,4,1,0,100,0,1
70874,-100,4,1,0,100,0,1
73302,-100,4,1,0,100,0,1
73445,-133.333333333333,4,1,0,100,0,1
81231,-128.205128205128,4,1,0,100,0,1
81445,-117.647058823529,4,1,0,100,0,1
81731,-100,4,1,0,100,0,1
82017,-106.382978723404,4,1,0,100,0,1
82231,-103.092783505155,4,1,0,100,0,1
82374,-100,4,1,0,100,0,1
90374,-95.2380952380952,4,1,0,100,0,1
90660,-90.9090909090909,4,1,0,100,0,1
90945,-83.3333333333333,4,1,0,100,0,1
91517,-100,4,1,0,100,0,1
91588,-100,4,1,0,100,0,0
92445,-200,4,1,0,20,0,0
99731,-181.818181818182,4,1,0,20,0,0
100017,-158.730158730159,4,1,0,20,0,0
100231,-151.515151515152,4,1,0,20,0,0
100374,-144.927536231884,4,1,0,20,0,0
100517,-138.888888888889,4,1,0,20,0,0
100660,-133.333333333333,4,1,0,20,0,0
102874,-133.333333333333,4,1,0,30,0,0
105160,-133.333333333333,4,1,0,40,0,0
107160,-133.333333333333,4,1,0,50,0,0
107731,-125,4,1,0,40,0,0
107946,-120.481927710843,4,1,0,40,0,0
108089,-116.279069767442,4,1,0,40,0,0
108231,-112.359550561798,4,1,0,40,0,0
108374,-108.695652173913,4,1,0,40,0,0
108517,-105.263157894737,4,1,0,40,0,0
108660,-102.040816326531,4,1,0,70,0,0
108874,-100,4,1,0,70,0,0
109160,-83.3333333333333,4,1,0,80,0,0
109446,-100,4,1,0,80,0,0
109803,-100,4,1,0,100,0,0
117802,-83.3333333333333,4,1,0,100,0,0
118588,-100,4,1,0,100,0,0
126945,-83.3333333333333,4,1,0,100,0,0
127445,-66.6666666666667,4,1,0,100,0,0

[HitObjects]
255,193,160,5,8,0:0:0:0:
255,193,1302,5,8,0:0:0:0:
255,193,1588,1,0,0:0:0:0:
255,193,1874,1,8,0:0:0:0:
255,193,2445,1,8,0:0:0:0:
255,193,2731,1,0,0:0:0:0:
255,193,2874,1,0,0:0:0:0:
255,193,3017,1,8,0:0:0:0:
256,198,3588,1,8,0:0:0:0:
256,198,3874,1,8,0:0:0:0:
256,198,4017,1,0,0:0:0:0:
256,198,4160,1,8,0:0:0:0:
255,190,4731,1,8,0:0:0:0:
255,190,5017,1,0,0:0:0:0:
255,190,5160,1,0,0:0:0:0:
255,190,5302,1,8,0:0:0:0:
264,191,5874,1,8,0:0:0:0:
264,191,6017,1,0,0:0:0:0:
264,191,6160,1,8,0:0:0:0:
264,191,6302,1,8,0:0:0:0:
264,191,6445,1,8,0:0:0:0:
257,183,6731,1,0,0:0:0:0:
257,183,6874,1,0,0:0:0:0:
257,183,7017,1,8,0:0:0:0:
251,190,7302,1,8,0:0:0:0:
251,190,7445,1,8,0:0:0:0:
251,190,7588,1,0,0:0:0:0:
251,190,7731,1,0,0:0:0:0:
251,190,7874,1,8,0:0:0:0:
261,183,8160,1,8,0:0:0:0:
261,183,8302,1,8,0:0:0:0:
261,183,8445,1,0,0:0:0:0:
261,183,8588,1,8,0:0:0:0:
261,183,8731,1,8,0:0:0:0:
261,183,9017,1,0,0:0:0:0:
261,183,9160,1,0,0:0:0:0:
261,183,9302,1,8,0:0:0:0:
256,176,9588,1,8,0:0:0:0:
256,176,9731,1,0,0:0:0:0:
248,184,9874,1,8,0:0:0:0:
248,184,10160,1,8,0:0:0:0:
256,200,10445,1,0,0:0:0:0:
256,200,10588,1,8,0:0:0:0:
256,200,10731,1,0,0:0:0:0:
256,200,10874,1,0,0:0:0:0:
256,200,11017,1,8,0:0:0:0:
248,192,11588,1,8,0:0:0:0:
240,184,11874,1,8,0:0:0:0:
240,184,12017,1,0,0:0:0:0:
240,184,12160,1,0,0:0:0:0:
240,184,12302,1,8,0:0:0:0:
240,184,12445,1,0,0:0:0:0:
248,184,12731,1,8,0:0:0:0:
248,184,12874,1,8,0:0:0:0:
248,184,13017,1,8,0:0:0:0:
248,184,13160,1,0,0:0:0:0:
248,184,13302,1,8,0:0:0:0:
256,200,13874,1,8,0:0:0:0:
248,208,14160,1,8,0:0:0:0:
248,208,14302,1,0,0:0:0:0:
248,208,14445,1,8,0:0:0:0:
248,208,14731,1,0,0:0:0:0:
256,176,15017,1,8,0:0:0:0:
256,176,15160,1,8,0:0:0:0:
256,176,15302,1,0,0:0:0:0:
256,176,15445,1,0,0:0:0:0:
256,176,15588,1,8,0:0:0:0:
264,200,15874,1,0,0:0:0:0:
264,200,16017,1,0,0:0:0:0:
264,200,16160,1,8,0:0:0:0:
264,200,16445,1,0,0:0:0:0:
264,200,16588,1,0,0:0:0:0:
264,200,16731,1,8,0:0:0:0:
264,200,16874,1,8,0:0:0:0:
264,200,17017,1,0,0:0:0:0:
264,200,17160,1,8,0:0:0:0:
264,200,17302,1,4,0:0:0:0:
264,200,17588,1,4,0:0:0:0:
264,200,17874,1,12,0:0:0:0:
248,200,18160,1,0,0:0:0:0:
248,200,18302,1,0,0:0:0:0:
248,200,18445,1,4,0:0:0:0:
248,176,18731,1,0,0:0:0:0:
248,176,18874,1,0,0:0:0:0:
248,176,19017,1,8,0:0:0:0:
248,208,19302,1,8,0:0:0:0:
248,208,19374,1,0,0:0:0:0:
248,208,19445,1,8,0:0:0:0:
240,192,19588,1,4,0:0:0:0:
264,192,19874,1,8,0:0:0:0:
264,192,20017,1,8,0:0:0:0:
264,192,20160,1,8,0:0:0:0:
248,192,20302,1,0,0:0:0:0:
248,192,20445,1,4,0:0:0:0:
248,208,20731,1,4,0:0:0:0:
240,192,21017,1,0,0:0:0:0:
240,200,21160,1,0,0:0:0:0:
240,200,21302,1,8,0:0:0:0:
240,200,21445,1,8,0:0:0:0:
240,200,21517,1,8,0:0:0:0:
240,200,21588,1,0,0:0:0:0:
240,200,21660,1,0,0:0:0:0:
240,200,21731,1,8,0:0:0:0:
248,200,21874,1,4,0:0:0:0:
248,200,22160,1,8,0:0:0:0:
248,200,22445,1,4,0:0:0:0:
248,200,22731,1,8,0:0:0:0:
248,200,23017,1,4,0:0:0:0:
256,184,23302,1,0,0:0:0:0:
256,184,23445,1,0,0:0:0:0:
256,184,23588,1,8,0:0:0:0:
256,184,23731,1,0,0:0:0:0:
280,192,23874,1,8,0:0:0:0:
280,192,23945,1,8,0:0:0:0:
280,192,24017,1,8,0:0:0:0:
256,208,24160,1,4,0:0:0:0:
232,224,24445,1,0,0:0:0:0:
232,224,24588,1,0,0:0:0:0:
232,224,24660,1,0,0:0:0:0:
232,224,24731,1,8,0:0:0:0:
256,216,25017,1,4,0:0:0:0:
256,216,25302,1,4,0:0:0:0:
272,216,25588,1,0,0:0:0:0:
272,216,25731,1,0,0:0:0:0:
272,216,25874,1,8,0:0:0:0:
272,216,26017,1,0,0:0:0:0:
272,216,26088,1,0,0:0:0:0:
272,216,26160,1,8,0:0:0:0:
272,216,26231,1,8,0:0:0:0:
272,216,26302,1,0,0:0:0:0:
272,216,26445,1,4,0:0:0:0:
272,216,26731,1,4,0:0:0:0:
272,216,27017,1,12,0:0:0:0:
256,192,27302,1,0,0:0:0:0:
256,192,27445,1,0,0:0:0:0:
256,192,27588,1,12,0:0:0:0:
248,176,27874,1,0,0:0:0:0:
248,176,28017,1,0,0:0:0:0:
248,176,28160,1,8,0:0:0:0:
248,208,28445,1,8,0:0:0:0:
248,208,28517,1,0,0:0:0:0:
248,208,28588,1,8,0:0:0:0:
240,192,28731,1,4,0:0:0:0:
264,192,29017,1,8,0:0:0:0:
264,192,29160,1,0,0:0:0:0:
264,192,29231,1,0,0:0:0:0:
264,192,29303,1,8,0:0:0:0:
248,192,29445,1,0,0:0:0:0:
248,192,29588,1,4,0:0:0:0:
248,208,29874,1,4,0:0:0:0:
240,192,30160,1,0,0:0:0:0:
240,200,30303,1,0,0:0:0:0:
240,200,30445,1,8,0:0:0:0:
240,200,30588,1,8,0:0:0:0:
240,200,30660,1,8,0:0:0:0:
240,200,30731,1,0,0:0:0:0:
240,200,30803,1,0,0:0:0:0:
240,200,30874,1,8,0:0:0:0:
248,200,31017,1,4,0:0:0:0:
248,200,31303,1,8,0:0:0:0:
248,200,31588,1,4,0:0:0:0:
248,200,31874,1,8,0:0:0:0:
248,200,32160,1,4,0:0:0:0:
256,184,32445,1,0,0:0:0:0:
256,184,32588,1,0,0:0:0:0:
256,184,32731,1,8,0:0:0:0:
256,184,32874,1,0,0:0:0:0:
280,192,33017,1,8,0:0:0:0:
280,192,33088,1,8,0:0:0:0:
280,192,33160,1,8,0:0:0:0:
256,208,33303,1,4,0:0:0:0:
232,224,33588,1,0,0:0:0:0:
232,224,33731,1,0,0:0:0:0:
232,224,33874,1,8,0:0:0:0:
232,224,34017,1,0,0:0:0:0:
256,216,34160,1,4,0:0:0:0:
256,216,34445,1,4,0:0:0:0:
272,216,34731,1,0,0:0:0:0:
272,216,34874,1,0,0:0:0:0:
272,216,35017,1,8,0:0:0:0:
272,216,35160,1,0,0:0:0:0:
272,216,35231,1,0,0:0:0:0:
272,216,35303,1,8,0:0:0:0:
272,216,35374,1,8,0:0:0:0:
272,216,35445,1,0,0:0:0:0:
272,216,35588,1,4,0:0:0:0:
272,216,35874,1,4,0:0:0:0:
272,216,36160,1,12,0:0:0:0:
256,192,36445,1,0,0:0:0:0:
256,192,36588,1,0,0:0:0:0:
256,192,36731,1,4,0:0:0:0:
256,192,37160,1,4,0:0:0:0:
256,192,37588,1,4,0:0:0:0:
256,192,38017,1,4,0:0:0:0:
264,192,38445,1,8,0:0:0:0:
264,192,38588,1,0,0:0:0:0:
264,192,38731,1,8,0:0:0:0:
256,192,39017,1,4,0:0:0:0:
256,192,39445,1,4,0:0:0:0:
256,192,39874,1,4,0:0:0:0:
248,184,40160,1,4,0:0:0:0:
248,192,40445,1,0,0:0:0:0:
248,192,40588,1,0,0:0:0:0:
248,192,40731,1,12,0:0:0:0:
256,200,41017,1,0,0:0:0:0:
256,208,41302,1,4,0:0:0:0:
256,208,41731,1,4,0:0:0:0:
256,208,42160,1,4,0:0:0:0:
256,208,42588,1,4,0:0:0:0:
256,184,43017,1,8,0:0:0:0:
256,184,43160,1,0,0:0:0:0:
256,184,43302,1,8,0:0:0:0:
256,192,43588,1,4,0:0:0:0:
256,192,43874,1,0,0:0:0:0:
256,192,44017,1,0,0:0:0:0:
256,192,44160,1,8,0:0:0:0:
256,200,44445,1,8,0:0:0:0:
256,192,44731,1,4,0:0:0:0:
256,192,45017,1,4,0:0:0:0:
256,192,45302,1,12,0:0:0:0:
288,216,45588,1,4,0:0:0:0:
288,216,45731,1,4,0:0:0:0:
288,216,45874,1,12,0:0:0:0:
288,272,46302,1,12,0:0:0:0:
384,328,46731,1,12,0:0:0:0:
384,328,47160,1,12,0:0:0:0:
256,184,47588,1,8,0:0:0:0:
256,184,47731,1,8,0:0:0:0:
256,184,47874,1,0,0:0:0:0:
256,192,48160,1,12,0:0:0:0:
272,200,48588,1,12,0:0:0:0:
272,200,49017,1,12,0:0:0:0:
256,192,49302,1,12,0:0:0:0:
256,192,49588,1,0,0:0:0:0:
256,192,49731,1,0,0:0:0:0:
256,192,49874,1,12,0:0:0:0:
256,192,50160,1,0,0:0:0:0:
256,192,50445,1,12,0:0:0:0:
256,192,50874,1,12,0:0:0:0:
256,192,51302,1,12,0:0:0:0:
256,192,51731,1,12,0:0:0:0:
256,192,52160,1,8,0:0:0:0:
256,192,52302,1,8,0:0:0:0:
256,192,52445,1,0,0:0:0:0:
256,192,52731,1,12,0:0:0:0:
256,200,53017,1,8,0:0:0:0:
256,200,53160,1,0,0:0:0:0:
256,200,53302,1,8,0:0:0:0:
256,200,53588,1,8,0:0:0:0:
240,192,53874,1,4,0:0:0:0:
240,192,54160,1,4,0:0:0:0:
240,192,54445,1,8,0:0:0:0:
240,192,54588,1,0,0:0:0:0:
240,192,54731,1,0,0:0:0:0:
240,192,54874,1,0,0:0:0:0:
240,192,55017,1,12,0:0:0:0:
272,224,55160,1,0,0:0:0:0:
256,184,55302,1,8,0:0:0:0:
272,224,55445,1,0,0:0:0:0:
272,224,55517,1,0,0:0:0:0:
272,224,55588,1,8,0:0:0:0:
336,272,55731,1,0,0:0:0:0:
280,216,55874,1,8,0:0:0:0:
248,192,55945,1,8,0:0:0:0:
248,192,56017,1,8,0:0:0:0:
248,192,56160,1,8,0:0:0:0:
248,192,56302,1,0,0:0:0:0:
248,192,56374,1,0,0:0:0:0:
264,176,56445,1,8,0:0:0:0:
272,240,56588,1,0,0:0:0:0:
272,240,56731,1,8,0:0:0:0:
272,240,56802,1,8,0:0:0:0:
272,224,56874,1,0,0:0:0:0:
272,240,56945,1,0,0:0:0:0:
272,256,57017,1,8,0:0:0:0:
240,208,57302,1,8,0:0:0:0:
264,232,57445,1,0,0:0:0:0:
208,184,57588,1,8,0:0:0:0:
208,184,57731,1,8,0:0:0:0:
224,176,57802,1,8,0:0:0:0:
208,184,57874,1,8,0:0:0:0:
208,184,58017,1,0,0:0:0:0:
208,184,58160,1,8,0:0:0:0:
224,176,58231,1,8,0:0:0:0:
224,176,58302,1,8,0:0:0:0:
256,192,58445,1,4,0:0:0:0:
256,192,58731,1,12,0:0:0:0:
240,184,59017,1,4,0:0:0:0:
256,192,59302,1,8,0:0:0:0:
240,184,59445,1,8,0:0:0:0:
240,184,59588,1,4,0:0:0:0:
256,184,59874,1,8,0:0:0:0:
272,224,60017,1,0,0:0:0:0:
272,224,60089,1,0,0:0:0:0:
272,224,60160,1,8,0:0:0:0:
336,272,60303,1,0,0:0:0:0:
280,216,60446,1,8,0:0:0:0:
248,192,60589,1,0,0:0:0:0:
248,192,60660,1,0,0:0:0:0:
248,192,60732,1,8,0:0:0:0:
248,192,60802,1,8,0:0:0:0:
248,192,60874,1,0,0:0:0:0:
264,176,61017,1,8,0:0:0:0:
272,240,61160,1,0,0:0:0:0:
272,240,61303,1,8,0:0:0:0:
272,240,61374,1,0,0:0:0:0:
272,224,61446,1,0,0:0:0:0:
272,240,61517,1,0,0:0:0:0:
272,256,61589,1,8,0:0:0:0:
240,208,61731,1,0,0:0:0:0:
240,208,61874,1,4,0:0:0:0:
256,200,62160,1,8,0:0:0:0:
256,200,62302,1,0,0:0:0:0:
256,200,62374,1,0,0:0:0:0:
256,200,62445,1,8,0:0:0:0:
232,152,62588,1,0,0:0:0:0:
232,152,62731,1,8,0:0:0:0:
232,152,62802,1,8,0:0:0:0:
232,152,62874,1,0,0:0:0:0:
232,152,63017,1,4,0:0:0:0:
272,168,63302,1,4,0:0:0:0:
272,168,63588,1,12,0:0:0:0:
272,184,63731,1,0,0:0:0:0:
272,184,63874,1,0,0:0:0:0:
272,184,64017,1,0,0:0:0:0:
272,184,64160,1,12,0:0:0:0:
272,224,64302,1,0,0:0:0:0:
256,184,64444,1,8,0:0:0:0:
272,224,64587,1,0,0:0:0:0:
272,224,64659,1,0,0:0:0:0:
272,224,64730,1,8,0:0:0:0:
336,272,64873,1,0,0:0:0:0:
280,216,65016,1,8,0:0:0:0:
248,192,65159,1,8,0:0:0:0:
248,192,65230,1,8,0:0:0:0:
248,192,65302,1,8,0:0:0:0:
248,192,65444,1,0,0:0:0:0:
248,192,65516,1,0,0:0:0:0:
264,176,65587,1,8,0:0:0:0:
272,240,65730,1,0,0:0:0:0:
272,240,65873,1,8,0:0:0:0:
272,240,65944,1,0,0:0:0:0:
272,224,66016,1,0,0:0:0:0:
272,240,66087,1,0,0:0:0:0:
272,256,66159,1,8,0:0:0:0:
240,208,66444,1,0,0:0:0:0:
264,232,66587,1,0,0:0:0:0:
264,232,66660,1,0,0:0:0:0:
208,184,66730,1,8,0:0:0:0:
208,184,66873,1,8,0:0:0:0:
224,176,66944,1,8,0:0:0:0:
208,184,67016,1,0,0:0:0:0:
208,184,67159,1,0,0:0:0:0:
208,184,67302,1,8,0:0:0:0:
224,176,67373,1,0,0:0:0:0:
224,176,67444,1,8,0:0:0:0:
256,192,67587,1,4,0:0:0:0:
256,192,67873,1,12,0:0:0:0:
240,184,68159,1,4,0:0:0:0:
256,192,68444,1,8,0:0:0:0:
240,184,68587,1,8,0:0:0:0:
240,184,68731,1,4,0:0:0:0:
272,224,68874,1,0,0:0:0:0:
272,224,68945,1,0,0:0:0:0:
256,184,69017,1,8,0:0:0:0:
272,224,69159,1,0,0:0:0:0:
272,224,69231,1,0,0:0:0:0:
272,224,69302,1,8,0:0:0:0:
336,272,69445,1,0,0:0:0:0:
280,216,69588,1,8,0:0:0:0:
248,192,69731,1,0,0:0:0:0:
248,192,69802,1,0,0:0:0:0:
248,192,69874,1,8,0:0:0:0:
248,192,69944,1,8,0:0:0:0:
248,192,70016,1,0,0:0:0:0:
264,176,70159,1,8,0:0:0:0:
272,240,70302,1,0,0:0:0:0:
272,240,70445,1,8,0:0:0:0:
272,240,70516,1,8,0:0:0:0:
272,224,70588,1,8,0:0:0:0:
272,240,70659,1,8,0:0:0:0:
272,256,70731,1,8,0:0:0:0:
240,208,71016,1,0,0:0:0:0:
248,224,71302,1,8,0:0:0:0:
248,224,71445,1,8,0:0:0:0:
248,224,71588,1,0,0:0:0:0:
240,192,71874,1,8,0:0:0:0:
256,232,72160,1,8,0:0:0:0:
256,232,72302,1,8,0:0:0:0:
256,232,72445,1,0,0:0:0:0:
256,232,72588,1,0,0:0:0:0:
248,184,72731,1,12,0:0:0:0:
248,184,72874,1,4,0:0:0:0:
248,184,73017,1,4,0:0:0:0:
248,184,73160,1,4,0:0:0:0:
248,184,73302,1,12,0:0:0:0:
256,192,73874,1,0,0:0:0:0:
256,192,74160,1,8,0:0:0:0:
256,192,74445,1,8,0:0:0:0:
264,200,75017,1,0,0:0:0:0:
264,200,75302,1,8,0:0:0:0:
264,200,75588,1,0,0:0:0:0:
264,200,75731,1,8,0:0:0:0:
264,200,75874,1,8,0:0:0:0:
264,208,76017,1,8,0:0:0:0:
264,208,76160,1,0,0:0:0:0:
264,208,76302,1,8,0:0:0:0:
264,208,76445,1,8,0:0:0:0:
264,208,76588,1,8,0:0:0:0:
264,208,76731,1,0,0:0:0:0:
264,208,76874,1,8,0:0:0:0:
264,208,77017,1,8,0:0:0:0:
264,208,77160,1,8,0:0:0:0:
264,208,77302,1,0,0:0:0:0:
264,208,77588,1,0,0:0:0:0:
256,176,77874,1,12,0:0:0:0:
272,184,78445,1,0,0:0:0:0:
272,184,78731,1,8,0:0:0:0:
272,184,79017,1,8,0:0:0:0:
272,184,79588,1,0,0:0:0:0:
272,184,79874,1,8,0:0:0:0:
272,184,80160,1,8,0:0:0:0:
264,192,80255,1,8,0:0:0:0:
264,192,80350,1,8,0:0:0:0:
264,192,80445,1,8,0:0:0:0:
256,184,80731,1,0,0:0:0:0:
256,184,80874,1,0,0:0:0:0:
256,184,81017,1,8,0:0:0:0:
256,184,81160,1,8,0:0:0:0:
256,184,81302,1,4,0:0:0:0:
264,176,81588,1,4,0:0:0:0:
264,176,81874,1,12,0:0:0:0:
264,176,82160,1,0,0:0:0:0:
264,176,82302,1,0,0:0:0:0:
264,176,82445,1,12,0:0:0:0:
256,192,83017,1,0,0:0:0:0:
256,192,83303,1,8,0:0:0:0:
256,192,83588,1,8,0:0:0:0:
264,200,84160,1,0,0:0:0:0:
264,200,84445,1,8,0:0:0:0:
264,200,84731,1,0,0:0:0:0:
264,200,84874,1,8,0:0:0:0:
264,200,85017,1,8,0:0:0:0:
264,208,85160,1,8,0:0:0:0:
264,208,85303,1,0,0:0:0:0:
264,208,85445,1,8,0:0:0:0:
264,208,85588,1,8,0:0:0:0:
264,208,85731,1,8,0:0:0:0:
264,208,85874,1,0,0:0:0:0:
264,208,86017,1,8,0:0:0:0:
264,208,86160,1,8,0:0:0:0:
264,208,86303,1,8,0:0:0:0:
264,208,86445,1,0,0:0:0:0:
264,208,86731,1,0,0:0:0:0:
256,176,87017,1,12,0:0:0:0:
272,184,87588,1,0,0:0:0:0:
272,184,87874,1,8,0:0:0:0:
272,184,88160,1,8,0:0:0:0:
272,184,88731,1,0,0:0:0:0:
272,184,89017,1,8,0:0:0:0:
272,184,89303,1,8,0:0:0:0:
264,192,89398,1,8,0:0:0:0:
264,192,89493,1,8,0:0:0:0:
264,192,89588,1,8,0:0:0:0:
256,184,89874,1,0,0:0:0:0:
256,184,90017,1,0,0:0:0:0:
256,184,90160,1,8,0:0:0:0:
256,184,90303,1,8,0:0:0:0:
256,184,90445,1,4,0:0:0:0:
264,176,90731,1,4,0:0:0:0:
264,176,91017,1,12,0:0:0:0:
248,200,91588,1,4,0:0:0:0:
248,192,92731,1,8,0:0:0:0:
256,192,93874,1,8,0:0:0:0:
264,200,94445,1,8,0:0:0:0:
264,200,95017,1,8,0:0:0:0:
256,192,95588,1,8,0:0:0:0:
240,192,96160,1,8,0:0:0:0:
240,192,96445,1,8,0:0:0:0:
240,192,96731,1,8,0:0:0:0:
232,176,97302,1,8,0:0:0:0:
232,176,97588,1,8,0:0:0:0:
232,176,97874,1,8,0:0:0:0:
256,176,98160,1,8,0:0:0:0:
256,176,98302,1,8,0:0:0:0:
256,176,98445,1,8,0:0:0:0:
288,200,98731,1,8,0:0:0:0:
288,200,98874,1,8,0:0:0:0:
288,200,99017,1,8,0:0:0:0:
288,200,99160,1,8,0:0:0:0:
288,200,99302,1,8,0:0:0:0:
288,200,99588,1,8,0:0:0:0:
288,200,99874,1,8,0:0:0:0:
288,200,100160,1,0,0:0:0:0:
288,200,100302,1,0,0:0:0:0:
288,200,100445,1,8,0:0:0:0:
288,200,100588,1,8,0:0:0:0:
288,200,100731,1,0,0:0:0:0:
288,200,101017,1,8,0:0:0:0:
288,200,101160,1,0,0:0:0:0:
288,200,101302,1,0,0:0:0:0:
288,200,101445,1,8,0:0:0:0:
288,200,101588,1,0,0:0:0:0:
264,197,101874,1,8,0:0:0:0:
264,197,102017,1,0,0:0:0:0:
264,197,102160,1,8,0:0:0:0:
264,197,102302,1,0,0:0:0:0:
264,197,102445,1,0,0:0:0:0:
244,201,103017,1,8,0:0:0:0:
223,175,103302,1,0,0:0:0:0:
223,175,103445,1,8,0:0:0:0:
223,175,103588,1,0,0:0:0:0:
223,175,103731,1,0,0:0:0:0:
223,175,103874,1,8,0:0:0:0:
223,175,104160,1,8,0:0:0:0:
223,175,104302,1,8,0:0:0:0:
223,175,104445,1,8,0:0:0:0:
223,175,104588,1,0,0:0:0:0:
223,175,104731,1,8,0:0:0:0:
250,195,105302,1,8,0:0:0:0:
246,190,105588,1,8,0:0:0:0:
246,190,105731,1,0,0:0:0:0:
246,190,105874,1,0,0:0:0:0:
246,190,106017,1,8,0:0:0:0:
246,190,106160,1,0,0:0:0:0:
261,190,106445,1,8,0:0:0:0:
261,190,106588,1,8,0:0:0:0:
261,190,106731,1,0,0:0:0:0:
261,190,106874,1,0,0:0:0:0:
261,190,107017,1,8,0:0:0:0:
245,193,107302,1,0,0:0:0:0:
245,193,107445,1,0,0:0:0:0:
245,193,107588,1,8,0:0:0:0:
248,178,107874,1,8,0:0:0:0:
248,178,108017,1,0,0:0:0:0:
248,178,108160,1,8,0:0:0:0:
248,178,108302,1,8,0:0:0:0:
248,178,108445,1,0,0:0:0:0:
248,178,108588,1,8,0:0:0:0:
264,200,108731,1,4,0:0:0:0:
264,200,109017,1,4,0:0:0:0:
264,200,109303,1,12,0:0:0:0:
248,200,109589,1,0,0:0:0:0:
248,200,109731,1,0,0:0:0:0:
248,200,109874,1,4,0:0:0:0:
248,176,110160,1,0,0:0:0:0:
248,176,110303,1,0,0:0:0:0:
248,176,110446,1,8,0:0:0:0:
248,208,110731,1,8,0:0:0:0:
248,208,110803,1,0,0:0:0:0:
248,208,110874,1,8,0:0:0:0:
240,192,111017,1,4,0:0:0:0:
264,192,111303,1,8,0:0:0:0:
264,192,111446,1,8,0:0:0:0:
264,192,111589,1,0,0:0:0:0:
248,192,111731,1,0,0:0:0:0:
248,192,111874,1,4,0:0:0:0:
248,208,112160,1,4,0:0:0:0:
240,192,112446,1,0,0:0:0:0:
240,200,112589,1,0,0:0:0:0:
240,200,112731,1,8,0:0:0:0:
240,200,112874,1,8,0:0:0:0:
240,200,112946,1,8,0:0:0:0:
240,200,113017,1,0,0:0:0:0:
240,200,113089,1,0,0:0:0:0:
240,200,113160,1,8,0:0:0:0:
248,200,113303,1,4,0:0:0:0:
248,200,113589,1,8,0:0:0:0:
248,200,113874,1,4,0:0:0:0:
248,200,114160,1,8,0:0:0:0:
248,200,114446,1,4,0:0:0:0:
256,184,114731,1,0,0:0:0:0:
256,184,114874,1,0,0:0:0:0:
256,184,115017,1,8,0:0:0:0:
256,184,115160,1,0,0:0:0:0:
280,192,115303,1,8,0:0:0:0:
280,192,115374,1,8,0:0:0:0:
280,192,115446,1,8,0:0:0:0:
256,208,115589,1,4,0:0:0:0:
232,224,115874,1,0,0:0:0:0:
232,224,116017,1,0,0:0:0:0:
232,224,116089,1,0,0:0:0:0:
232,224,116160,1,8,0:0:0:0:
256,216,116446,1,4,0:0:0:0:
256,216,116731,1,4,0:0:0:0:
272,216,117017,1,0,0:0:0:0:
272,216,117160,1,0,0:0:0:0:
272,216,117303,1,8,0:0:0:0:
272,216,117446,1,0,0:0:0:0:
272,216,117517,1,0,0:0:0:0:
272,216,117589,1,8,0:0:0:0:
272,216,117660,1,8,0:0:0:0:
272,216,117731,1,0,0:0:0:0:
272,216,117874,1,4,0:0:0:0:
272,216,118160,1,4,0:0:0:0:
272,216,118446,1,12,0:0:0:0:
256,192,118731,1,0,0:0:0:0:
256,192,118874,1,0,0:0:0:0:
256,192,119017,1,8,0:0:0:0:
248,176,119589,1,12,0:0:0:0:
248,208,119874,1,8,0:0:0:0:
248,208,119946,1,8,0:0:0:0:
248,208,120017,1,8,0:0:0:0:
240,192,120160,1,4,0:0:0:0:
264,192,120446,1,8,0:0:0:0:
264,192,120589,1,0,0:0:0:0:
264,192,120660,1,0,0:0:0:0:
264,192,120732,1,8,0:0:0:0:
248,192,120874,1,0,0:0:0:0:
248,192,121017,1,4,0:0:0:0:
248,208,121303,1,4,0:0:0:0:
240,192,121589,1,0,0:0:0:0:
240,200,121732,1,0,0:0:0:0:
240,200,121874,1,8,0:0:0:0:
240,200,122017,1,8,0:0:0:0:
240,200,122089,1,8,0:0:0:0:
240,200,122160,1,0,0:0:0:0:
240,200,122232,1,0,0:0:0:0:
240,200,122303,1,8,0:0:0:0:
248,200,122446,1,4,0:0:0:0:
248,200,122732,1,8,0:0:0:0:
248,200,123017,1,4,0:0:0:0:
248,200,123303,1,8,0:0:0:0:
248,200,123589,1,4,0:0:0:0:
256,184,123874,1,0,0:0:0:0:
256,184,124017,1,0,0:0:0:0:
256,184,124160,1,8,0:0:0:0:
256,184,124303,1,0,0:0:0:0:
280,192,124446,1,8,0:0:0:0:
280,192,124517,1,8,0:0:0:0:
280,192,124589,1,8,0:0:0:0:
256,208,124732,1,4,0:0:0:0:
232,224,125017,1,0,0:0:0:0:
232,224,125160,1,0,0:0:0:0:
232,224,125303,1,8,0:0:0:0:
232,224,125446,1,0,0:0:0:0:
256,216,125589,1,4,0:0:0:0:
256,216,125874,1,4,0:0:0:0:
272,216,126160,1,0,0:0:0:0:
272,216,126303,1,0,0:0:0:0:
272,216,126446,1,8,0:0:0:0:
272,216,126589,1,0,0:0:0:0:
272,216,126660,1,0,0:0:0:0:
272,216,126732,1,8,0:0:0:0:
272,216,126803,1,8,0:0:0:0:
272,216,126874,1,0,0:0:0:0:
272,216,127017,1,4,0:0:0:0:
272,216,127303,1,4,0:0:0:0:
272,216,127589,1,12,0:0:0:0:
