osu file format v14

[General]
AudioFilename: audio.mp3
AudioLeadIn: 0
PreviewTime: 53779
Countdown: 1
SampleSet: Normal
StackLeniency: 0.7
Mode: 1
LetterboxInBreaks: 0
WidescreenStoryboard: 1

[Editor]
Bookmarks: 24632,27418,36561,45704,54847,63990,73132,82275,91418,100561,109704,118847,127418
DistanceSpacing: 0.8
BeatDivisor: 4
GridSize: 8
TimelineZoom: 1.7

[Metadata]
Title:Leprechaun
TitleUnicode:Leprechaun
Artist:Thaehan
ArtistUnicode:Thaehan
Creator:Okoratu
Version:Muzukashii
Source:
Tags:Loki Bwa Featured Artist Electronic Medieval Okorin Yales
BeatmapID:1834680
BeatmapSetID:877496

[Difficulty]
HPDrainRate:6
CircleSize:5
OverallDifficulty:5
ApproachRate:5
SliderMultiplier:1.4
SliderTickRate:1

[Events]
//Background and Video events
0,0,"GREEEN.jpg",0,-30
//Break Periods
//Storyboard Layer 0 (Background)
//Storyboard Layer 1 (Fail)
//Storyboard Layer 2 (Pass)
//Storyboard Layer 3 (Foreground)
//Storyboard Sound Samples

[TimingPoints]
160,285.714285714286,4,1,0,40,1,0
160,-133.333333333333,4,1,0,20,0,0
9231,-133.333333333333,4,1,0,20,0,0
11445,-133.333333333333,4,1,0,30,0,0
13731,-133.333333333333,4,1,0,40,0,0
16302,-125,4,1,0,40,0,0
16517,-120.481927710843,4,1,0,40,0,0
16660,-116.279069767442,4,1,0,40,0,0
16802,-112.359550561798,4,1,0,40,0,0
16945,-108.695652173913,4,1,0,40,0,0
17088,-105.263157894737,4,1,0,40,0,0
17231,-102.040816326531,4,1,0,70,0,0
17445,-100,4,1,0,70,0,0
17731,-100,4,1,0,80,0,0
18017,-100,4,1,0,80,0,0
18374,-100,4,1,0,100,0,0
27160,-100,4,1,0,100,0,0
36302,-100,4,1,0,100,0,0
36517,-95.2380952380952,4,1,0,100,0,0
36660,-90.9090909090909,4,1,0,100,0,0
53731,-100,4,1,0,100,0,0
55017,-100,4,1,0,100,0,1
55088,-100,4,1,0,100,0,1
62945,-95.2380952380952,4,1,0,100,0,1
63160,-90.9090909090909,4,1,0,100,0,1
63445,-90.9090909090909,4,1,0,100,0,1
63660,-89.2857142857143,4,1,0,100,0,1
63802,-87.719298245614,4,1,0,100,0,1
63945,-86.2068965517241,4,1,0,100,0,1
64088,-84.7457627118644,4,1,0,100,0,1
64231,-95.2380952380952,4,1,0,100,0,1
68731,-90.9090909090909,4,1,0,100,0,1
70874,-100,4,1,0,100,0,1
73302,-100,4,1,0,100,0,1
73445,-133.333333333333,4,1,0,100,0,1
81231,-128.205128205128,4,1,0,100,0,1
81445,-117.647058823529,4,1,0,100,0,1
81731,-100,4,1,0,100,0,1
82017,-106.382978723404,4,1,0,100,0,1
82231,-103.092783505155,4,1,0,100,0,1
82374,-100,4,1,0,100,0,1
90374,-95.2380952380952,4,1,0,100,0,1
90660,-90.9090909090909,4,1,0,100,0,1
90945,-83.3333333333333,4,1,0,100,0,1
91517,-100,4,1,0,100,0,1
91588,-100,4,1,0,100,0,0
92445,-200,4,1,0,20,0,0
99731,-181.818181818182,4,1,0,20,0,0
100017,-158.730158730159,4,1,0,20,0,0
100231,-151.515151515152,4,1,0,20,0,0
100374,-144.927536231884,4,1,0,20,0,0
100517,-138.888888888889,4,1,0,20,0,0
100660,-133.333333333333,4,1,0,20,0,0
102874,-133.333333333333,4,1,0,30,0,0
105160,-133.333333333333,4,1,0,40,0,0
107160,-133.333333333333,4,1,0,50,0,0
107731,-125,4,1,0,40,0,0
107946,-120.481927710843,4,1,0,40,0,0
108089,-116.279069767442,4,1,0,40,0,0
108231,-112.359550561798,4,1,0,40,0,0
108374,-108.695652173913,4,1,0,40,0,0
108517,-105.263157894737,4,1,0,40,0,0
108660,-102.040816326531,4,1,0,70,0,0
108874,-100,4,1,0,70,0,0
109160,-100,4,1,0,80,0,0
109446,-100,4,1,0,80,0,0
109803,-100,4,1,0,100,0,0
118588,-100,4,1,0,100,0,0
127445,-83.3333333333333,4,1,0,100,0,0

[HitObjects]
256,191,160,5,8,0:0:0:0:
256,191,1302,5,8,0:0:0:0:
256,191,1874,1,8,0:0:0:0:
251,192,2445,1,8,0:0:0:0:
251,192,3017,1,8,0:0:0:0:
251,192,3588,1,8,0:0:0:0:
251,192,3874,1,8,0:0:0:0:
251,192,4160,1,8,0:0:0:0:
261,196,4731,1,8,0:0:0:0:
261,196,5017,1,8,0:0:0:0:
261,196,5302,1,8,0:0:0:0:
256,200,5874,1,8,0:0:0:0:
256,200,6160,1,8,0:0:0:0:
256,200,6445,1,8,0:0:0:0:
256,200,6731,1,8,0:0:0:0:
256,200,6874,1,0,0:0:0:0:
256,200,7017,1,8,0:0:0:0:
262,205,7302,1,8,0:0:0:0:
262,205,7445,1,0,0:0:0:0:
262,205,7588,1,0,0:0:0:0:
262,205,7731,1,0,0:0:0:0:
262,205,7874,1,8,0:0:0:0:
262,205,8160,1,8,0:0:0:0:
262,205,8445,1,0,0:0:0:0:
259,193,8731,1,8,0:0:0:0:
260,193,9017,1,0,0:0:0:0:
260,193,9160,1,0,0:0:0:0:
260,193,9302,1,8,0:0:0:0:
253,187,9588,1,8,0:0:0:0:
253,187,9731,1,0,0:0:0:0:
260,193,10160,1,8,0:0:0:0:
256,190,10445,1,8,0:0:0:0:
256,190,10731,1,0,0:0:0:0:
260,193,10874,1,0,0:0:0:0:
260,193,11017,1,8,0:0:0:0:
256,195,11588,1,8,0:0:0:0:
260,193,11874,1,8,0:0:0:0:
260,193,12017,1,0,0:0:0:0:
268,190,12445,1,8,0:0:0:0:
255,198,12731,1,8,0:0:0:0:
258,207,13017,1,0,0:0:0:0:
258,207,13160,1,0,0:0:0:0:
258,207,13302,1,8,0:0:0:0:
257,206,13874,1,8,0:0:0:0:
258,207,14160,1,8,0:0:0:0:
258,207,14302,1,0,0:0:0:0:
257,206,14445,1,8,0:0:0:0:
275,219,14731,1,0,0:0:0:0:
275,219,15017,1,8,0:0:0:0:
275,219,15160,1,0,0:0:0:0:
275,219,15302,1,8,0:0:0:0:
275,219,15445,1,8,0:0:0:0:
275,219,15588,1,8,0:0:0:0:
250,194,15874,1,0,0:0:0:0:
250,194,16017,1,0,0:0:0:0:
250,194,16160,1,8,0:0:0:0:
255,187,16445,1,0,0:0:0:0:
256,190,16588,1,8,0:0:0:0:
232,180,16874,1,0,0:0:0:0:
232,182,17017,1,8,0:0:0:0:
232,182,17160,1,8,0:0:0:0:
232,183,17302,1,4,0:0:0:0:
232,183,17588,1,4,0:0:0:0:
232,183,17874,1,12,0:0:0:0:
246,200,18160,1,0,0:0:0:0:
246,200,18302,1,0,0:0:0:0:
246,200,18445,1,4,0:0:0:0:
251,197,18731,1,0,0:0:0:0:
251,197,18874,1,0,0:0:0:0:
251,197,19017,1,8,0:0:0:0:
256,197,19302,1,8,0:0:0:0:
256,197,19445,1,8,0:0:0:0:
256,197,19588,1,4,0:0:0:0:
256,197,20160,1,8,0:0:0:0:
256,197,20445,1,4,0:0:0:0:
256,197,20731,1,4,0:0:0:0:
261,205,21017,1,0,0:0:0:0:
261,205,21302,1,8,0:0:0:0:
261,205,21445,1,0,0:0:0:0:
261,205,21588,1,8,0:0:0:0:
261,205,21731,1,8,0:0:0:0:
261,205,21874,1,4,0:0:0:0:
261,205,22160,1,8,0:0:0:0:
261,205,22445,1,4,0:0:0:0:
261,205,22731,1,8,0:0:0:0:
261,205,23017,1,4,0:0:0:0:
252,179,23302,1,0,0:0:0:0:
253,199,23445,1,0,0:0:0:0:
253,199,23588,1,8,0:0:0:0:
253,199,23731,1,8,0:0:0:0:
253,199,23874,1,0,0:0:0:0:
252,194,24160,1,4,0:0:0:0:
253,199,24731,1,8,0:0:0:0:
253,201,25017,1,4,0:0:0:0:
253,199,25302,1,4,0:0:0:0:
260,196,25588,1,0,0:0:0:0:
260,196,25731,1,0,0:0:0:0:
260,196,25874,1,8,0:0:0:0:
260,196,26017,1,8,0:0:0:0:
260,196,26160,1,8,0:0:0:0:
260,196,26302,1,8,0:0:0:0:
260,196,26445,1,4,0:0:0:0:
260,196,26731,1,4,0:0:0:0:
260,196,27017,1,12,0:0:0:0:
260,196,27302,1,0,0:0:0:0:
260,196,27445,1,0,0:0:0:0:
260,196,27588,1,12,0:0:0:0:
251,197,27874,1,0,0:0:0:0:
251,197,28160,1,8,0:0:0:0:
251,197,28302,1,0,0:0:0:0:
256,197,28445,1,8,0:0:0:0:
256,197,28588,1,8,0:0:0:0:
256,197,28731,1,4,0:0:0:0:
256,197,29303,1,8,0:0:0:0:
256,197,29588,1,4,0:0:0:0:
256,197,29874,1,4,0:0:0:0:
261,205,30160,1,0,0:0:0:0:
261,205,30302,1,0,0:0:0:0:
261,205,30445,1,8,0:0:0:0:
261,205,30588,1,0,0:0:0:0:
261,205,30731,1,8,0:0:0:0:
261,205,30874,1,8,0:0:0:0:
261,205,31017,1,4,0:0:0:0:
261,205,31303,1,8,0:0:0:0:
261,205,31588,1,4,0:0:0:0:
261,205,31874,1,8,0:0:0:0:
261,205,32160,1,4,0:0:0:0:
252,179,32445,1,0,0:0:0:0:
253,199,32588,1,0,0:0:0:0:
253,199,32731,1,8,0:0:0:0:
253,199,32874,1,8,0:0:0:0:
253,199,33017,1,0,0:0:0:0:
252,194,33303,1,4,0:0:0:0:
253,199,33874,1,8,0:0:0:0:
253,201,34160,1,4,0:0:0:0:
253,199,34445,1,4,0:0:0:0:
260,196,34731,1,0,0:0:0:0:
260,196,34874,1,0,0:0:0:0:
260,196,35017,1,8,0:0:0:0:
260,196,35160,1,8,0:0:0:0:
260,196,35303,1,8,0:0:0:0:
260,196,35445,1,8,0:0:0:0:
260,196,35588,1,4,0:0:0:0:
260,196,35874,1,4,0:0:0:0:
260,196,36160,1,12,0:0:0:0:
257,189,36445,1,0,0:0:0:0:
257,189,36588,1,0,0:0:0:0:
257,189,36731,1,4,0:0:0:0:
257,189,37160,1,4,0:0:0:0:
257,189,37588,1,4,0:0:0:0:
257,189,38017,1,4,0:0:0:0:
257,189,38445,1,8,0:0:0:0:
257,189,38588,1,8,0:0:0:0:
257,189,38731,1,0,0:0:0:0:
257,189,39017,1,4,0:0:0:0:
257,189,39446,1,4,0:0:0:0:
257,189,39874,1,4,0:0:0:0:
257,189,40160,1,4,0:0:0:0:
257,189,40731,1,4,0:0:0:0:
257,189,41017,1,4,0:0:0:0:
257,189,41302,1,4,0:0:0:0:
257,189,41731,1,4,0:0:0:0:
257,189,42160,1,4,0:0:0:0:
257,189,42588,1,4,0:0:0:0:
257,189,43017,1,8,0:0:0:0:
257,189,43160,1,8,0:0:0:0:
257,189,43302,1,0,0:0:0:0:
257,189,43588,1,4,0:0:0:0:
257,189,43874,1,8,0:0:0:0:
257,189,44017,1,0,0:0:0:0:
257,189,44160,1,8,0:0:0:0:
257,189,44731,1,4,0:0:0:0:
257,189,45017,1,4,0:0:0:0:
257,189,45302,1,12,0:0:0:0:
257,189,45588,1,0,0:0:0:0:
257,189,45731,1,0,0:0:0:0:
257,189,45874,1,12,0:0:0:0:
257,189,46303,1,12,0:0:0:0:
257,189,46731,1,12,0:0:0:0:
257,189,47160,1,12,0:0:0:0:
257,189,47588,1,8,0:0:0:0:
257,189,47731,1,0,0:0:0:0:
257,189,47874,1,0,0:0:0:0:
257,189,48160,1,12,0:0:0:0:
257,189,48589,1,12,0:0:0:0:
257,189,49017,1,12,0:0:0:0:
257,189,49303,1,12,0:0:0:0:
257,189,49874,1,12,0:0:0:0:
257,189,50160,1,12,0:0:0:0:
257,189,50445,1,12,0:0:0:0:
257,189,50874,1,12,0:0:0:0:
257,189,51303,1,12,0:0:0:0:
257,189,51731,1,12,0:0:0:0:
257,189,52160,1,8,0:0:0:0:
257,189,52302,1,0,0:0:0:0:
257,189,52445,1,0,0:0:0:0:
257,189,52731,1,12,0:0:0:0:
257,189,53017,1,0,0:0:0:0:
257,189,53160,1,0,0:0:0:0:
257,189,53302,1,8,0:0:0:0:
257,189,53874,1,4,0:0:0:0:
257,189,54160,1,4,0:0:0:0:
257,189,54445,1,0,0:0:0:0:
257,189,54588,1,0,0:0:0:0:
257,189,54731,1,8,0:0:0:0:
257,189,54874,1,8,0:0:0:0:
257,189,55017,1,4,0:0:0:0:
257,189,55302,1,8,0:0:0:0:
257,189,55445,1,0,0:0:0:0:
257,189,55588,1,0,0:0:0:0:
257,189,55731,1,0,0:0:0:0:
257,189,55874,1,8,0:0:0:0:
257,189,56160,1,8,0:0:0:0:
257,189,56302,1,8,0:0:0:0:
257,189,56374,1,8,0:0:0:0:
257,189,56445,1,8,0:0:0:0:
257,189,56588,1,0,0:0:0:0:
257,189,56731,1,8,0:0:0:0:
257,189,57017,1,8,0:0:0:0:
257,189,57160,1,0,0:0:0:0:
257,189,57302,1,0,0:0:0:0:
257,189,57445,1,0,0:0:0:0:
257,189,57588,1,8,0:0:0:0:
257,189,57731,1,0,0:0:0:0:
257,189,58017,1,0,0:0:0:0:
257,189,58160,1,8,0:0:0:0:
257,189,58445,1,4,0:0:0:0:
257,189,59017,1,4,0:0:0:0:
257,189,59302,1,0,0:0:0:0:
257,189,59445,1,0,0:0:0:0:
257,189,59588,1,12,0:0:0:0:
257,189,59874,1,8,0:0:0:0:
257,189,60017,1,0,0:0:0:0:
257,189,60088,1,0,0:0:0:0:
257,189,60160,1,0,0:0:0:0:
257,189,60303,1,0,0:0:0:0:
257,189,60446,1,8,0:0:0:0:
257,189,60732,1,8,0:0:0:0:
257,189,60874,1,8,0:0:0:0:
257,189,60945,1,8,0:0:0:0:
257,189,61017,1,8,0:0:0:0:
257,189,61160,1,0,0:0:0:0:
257,189,61303,1,8,0:0:0:0:
257,189,61589,1,8,0:0:0:0:
257,189,61731,1,0,0:0:0:0:
257,189,61874,1,8,0:0:0:0:
257,189,62160,1,8,0:0:0:0:
257,189,62303,1,0,0:0:0:0:
257,189,62589,1,0,0:0:0:0:
257,189,62732,1,8,0:0:0:0:
257,189,63017,1,4,0:0:0:0:
257,189,63302,1,4,0:0:0:0:
257,189,63588,1,8,0:0:0:0:
257,189,63731,1,0,0:0:0:0:
257,189,63874,1,0,0:0:0:0:
257,189,64017,1,0,0:0:0:0:
257,189,64160,1,12,0:0:0:0:
257,189,64445,1,8,0:0:0:0:
257,189,64588,1,0,0:0:0:0:
257,189,64731,1,0,0:0:0:0:
257,189,64874,1,0,0:0:0:0:
257,189,65017,1,8,0:0:0:0:
257,189,65302,1,8,0:0:0:0:
257,189,65445,1,8,0:0:0:0:
257,189,65517,1,8,0:0:0:0:
257,189,65588,1,8,0:0:0:0:
257,189,65731,1,0,0:0:0:0:
257,189,65874,1,8,0:0:0:0:
257,189,66160,1,8,0:0:0:0:
257,189,66302,1,0,0:0:0:0:
257,189,66445,1,8,0:0:0:0:
257,189,66731,1,8,0:0:0:0:
257,189,66873,1,0,0:0:0:0:
257,189,67160,1,0,0:0:0:0:
257,189,67302,1,8,0:0:0:0:
257,189,67445,1,8,0:0:0:0:
257,189,67588,1,4,0:0:0:0:
257,189,68160,1,4,0:0:0:0:
257,189,68445,1,0,0:0:0:0:
257,189,68588,1,0,0:0:0:0:
257,189,68731,1,12,0:0:0:0:
257,189,69017,1,8,0:0:0:0:
257,189,69160,1,0,0:0:0:0:
257,189,69231,1,0,0:0:0:0:
257,189,69302,1,0,0:0:0:0:
257,189,69445,1,0,0:0:0:0:
257,189,69588,1,8,0:0:0:0:
257,189,69874,1,0,0:0:0:0:
257,189,70017,1,0,0:0:0:0:
257,189,70160,1,8,0:0:0:0:
257,189,70302,1,0,0:0:0:0:
257,189,70445,1,8,0:0:0:0:
257,189,70517,1,8,0:0:0:0:
257,189,70588,1,8,0:0:0:0:
257,189,70731,1,8,0:0:0:0:
257,189,71017,1,0,0:0:0:0:
253,184,71302,1,8,0:0:0:0:
250,188,71445,1,8,0:0:0:0:
246,188,71588,1,0,0:0:0:0:
251,191,71874,1,8,0:0:0:0:
251,191,72160,1,0,0:0:0:0:
250,188,72445,1,0,0:0:0:0:
251,191,72731,1,4,0:0:0:0:
251,191,72874,1,4,0:0:0:0:
251,191,73017,1,4,0:0:0:0:
251,191,73160,1,4,0:0:0:0:
250,188,73302,1,12,0:0:0:0:
255,197,73874,1,0,0:0:0:0:
256,195,74160,1,8,0:0:0:0:
255,197,74445,1,8,0:0:0:0:
256,195,75017,1,0,0:0:0:0:
258,202,75588,1,0,0:0:0:0:
258,202,75731,1,8,0:0:0:0:
258,202,75874,1,8,0:0:0:0:
258,202,76017,1,8,0:0:0:0:
258,202,76160,1,0,0:0:0:0:
258,202,76302,1,8,0:0:0:0:
258,202,76445,1,8,0:0:0:0:
258,202,76588,1,8,0:0:0:0:
258,202,76731,1,0,0:0:0:0:
258,202,77302,1,0,0:0:0:0:
258,202,77445,1,8,0:0:0:0:
258,202,77588,1,0,0:0:0:0:
258,202,77874,1,12,0:0:0:0:
255,197,78445,1,0,0:0:0:0:
256,195,78731,1,8,0:0:0:0:
255,197,79016,1,8,0:0:0:0:
255,197,79588,1,0,0:0:0:0:
255,197,80159,1,8,0:0:0:0:
247,196,80445,1,8,0:0:0:0:
255,197,80731,1,0,0:0:0:0:
255,197,80874,1,8,0:0:0:0:
255,197,81017,1,8,0:0:0:0:
255,197,81160,1,8,0:0:0:0:
256,193,81302,1,4,0:0:0:0:
255,197,81588,1,4,0:0:0:0:
255,197,81874,1,12,0:0:0:0:
255,197,82160,1,0,0:0:0:0:
251,196,82302,1,0,0:0:0:0:
255,197,82445,1,12,0:0:0:0:
255,197,83017,1,0,0:0:0:0:
256,195,83303,1,8,0:0:0:0:
255,197,83588,1,8,0:0:0:0:
256,195,84160,1,0,0:0:0:0:
258,202,84731,1,0,0:0:0:0:
258,202,84874,1,8,0:0:0:0:
258,202,85017,1,8,0:0:0:0:
258,202,85160,1,8,0:0:0:0:
258,202,85303,1,0,0:0:0:0:
258,202,85445,1,8,0:0:0:0:
258,202,85588,1,8,0:0:0:0:
258,202,85731,1,8,0:0:0:0:
258,202,85874,1,0,0:0:0:0:
258,202,86445,1,0,0:0:0:0:
258,202,86588,1,8,0:0:0:0:
258,202,86731,1,0,0:0:0:0:
258,202,87017,1,12,0:0:0:0:
255,197,87588,1,0,0:0:0:0:
256,195,87874,1,8,0:0:0:0:
255,197,88159,1,8,0:0:0:0:
255,197,88731,1,0,0:0:0:0:
255,197,89302,1,8,0:0:0:0:
247,196,89588,1,8,0:0:0:0:
255,197,89874,1,0,0:0:0:0:
255,197,90017,1,8,0:0:0:0:
255,197,90160,1,8,0:0:0:0:
255,197,90303,1,8,0:0:0:0:
256,193,90445,1,4,0:0:0:0:
255,197,90731,1,4,0:0:0:0:
255,197,91017,1,12,0:0:0:0:
255,197,91588,1,4,0:0:0:0:
256,191,92731,5,8,0:0:0:0:
256,191,93303,1,8,0:0:0:0:
251,192,93874,1,8,0:0:0:0:
251,192,94446,1,8,0:0:0:0:
251,192,95017,1,8,0:0:0:0:
251,192,95303,1,8,0:0:0:0:
251,192,95589,1,8,0:0:0:0:
261,196,96160,1,8,0:0:0:0:
261,196,96446,1,8,0:0:0:0:
261,196,96731,1,8,0:0:0:0:
256,200,97303,1,8,0:0:0:0:
256,200,97589,1,8,0:0:0:0:
256,200,97874,1,8,0:0:0:0:
256,200,98160,1,8,0:0:0:0:
256,200,98303,1,0,0:0:0:0:
256,200,98446,1,8,0:0:0:0:
262,205,98731,1,8,0:0:0:0:
262,205,98874,1,0,0:0:0:0:
262,205,99017,1,0,0:0:0:0:
262,205,99160,1,0,0:0:0:0:
262,205,99303,1,8,0:0:0:0:
262,205,99589,1,8,0:0:0:0:
262,205,99874,1,8,0:0:0:0:
259,193,100160,1,8,0:0:0:0:
260,193,100446,1,0,0:0:0:0:
260,193,100589,1,0,0:0:0:0:
260,193,100731,1,8,0:0:0:0:
267,192,101017,1,8,0:0:0:0:
267,192,101160,1,0,0:0:0:0:
267,192,101445,1,0,0:0:0:0:
267,192,101588,1,8,0:0:0:0:
267,192,101874,1,0,0:0:0:0:
267,192,102160,1,8,0:0:0:0:
267,192,102302,1,0,0:0:0:0:
267,192,102445,1,8,0:0:0:0:
267,192,103017,1,8,0:0:0:0:
267,192,103302,1,8,0:0:0:0:
267,192,103588,1,0,0:0:0:0:
267,192,103731,1,8,0:0:0:0:
267,192,103874,1,0,0:0:0:0:
252,195,104160,1,8,0:0:0:0:
252,195,104302,1,8,0:0:0:0:
252,195,104445,1,0,0:0:0:0:
252,195,104588,1,0,0:0:0:0:
252,195,104731,1,8,0:0:0:0:
267,194,105302,1,8,0:0:0:0:
267,194,105588,1,8,0:0:0:0:
267,194,105731,1,0,0:0:0:0:
267,194,105874,1,8,0:0:0:0:
259,196,106445,1,8,0:0:0:0:
267,194,106588,1,0,0:0:0:0:
259,196,106731,1,8,0:0:0:0:
259,196,106874,1,8,0:0:0:0:
266,194,107017,1,0,0:0:0:0:
256,184,107302,1,0,0:0:0:0:
256,184,107445,1,0,0:0:0:0:
256,184,107588,1,8,0:0:0:0:
255,187,107874,1,0,0:0:0:0:
256,190,108017,1,8,0:0:0:0:
232,180,108303,1,0,0:0:0:0:
232,182,108446,1,8,0:0:0:0:
232,182,108589,1,8,0:0:0:0:
232,183,108731,1,4,0:0:0:0:
232,183,109017,1,4,0:0:0:0:
232,183,109303,1,12,0:0:0:0:
246,200,109589,1,0,0:0:0:0:
246,200,109731,1,0,0:0:0:0:
246,200,109874,1,4,0:0:0:0:
251,197,110160,1,0,0:0:0:0:
251,197,110303,1,0,0:0:0:0:
251,197,110446,1,8,0:0:0:0:
256,197,110731,1,8,0:0:0:0:
256,197,110874,1,8,0:0:0:0:
256,197,111017,1,4,0:0:0:0:
256,197,111589,1,8,0:0:0:0:
256,197,111874,1,4,0:0:0:0:
256,197,112160,1,4,0:0:0:0:
261,205,112446,1,0,0:0:0:0:
261,205,112731,1,8,0:0:0:0:
261,205,112874,1,0,0:0:0:0:
261,205,113017,1,8,0:0:0:0:
261,205,113160,1,8,0:0:0:0:
261,205,113303,1,4,0:0:0:0:
261,205,113589,1,8,0:0:0:0:
261,205,113874,1,4,0:0:0:0:
261,205,114160,1,8,0:0:0:0:
261,205,114446,1,4,0:0:0:0:
252,179,114731,1,0,0:0:0:0:
253,199,114874,1,0,0:0:0:0:
253,199,115017,1,8,0:0:0:0:
253,199,115160,1,8,0:0:0:0:
253,199,115303,1,0,0:0:0:0:
252,194,115589,1,4,0:0:0:0:
253,199,116160,1,8,0:0:0:0:
253,201,116446,1,4,0:0:0:0:
253,199,116731,1,4,0:0:0:0:
260,196,117017,1,0,0:0:0:0:
260,196,117160,1,0,0:0:0:0:
260,196,117303,1,8,0:0:0:0:
260,196,117446,1,8,0:0:0:0:
260,196,117589,1,8,0:0:0:0:
260,196,117731,1,8,0:0:0:0:
260,196,117874,1,4,0:0:0:0:
260,196,118160,1,4,0:0:0:0:
260,196,118446,1,12,0:0:0:0:
260,196,118731,1,0,0:0:0:0:
260,196,118874,1,0,0:0:0:0:
260,196,119017,1,8,0:0:0:0:
251,197,119589,1,12,0:0:0:0:
256,197,119874,1,8,0:0:0:0:
256,197,120017,1,8,0:0:0:0:
256,197,120160,1,4,0:0:0:0:
256,197,120732,1,8,0:0:0:0:
256,197,121017,1,4,0:0:0:0:
256,197,121303,1,4,0:0:0:0:
261,205,121589,1,0,0:0:0:0:
261,205,121731,1,0,0:0:0:0:
261,205,121874,1,8,0:0:0:0:
261,205,122017,1,8,0:0:0:0:
261,205,122160,1,8,0:0:0:0:
261,205,122303,1,8,0:0:0:0:
261,205,122446,1,4,0:0:0:0:
261,205,122732,1,8,0:0:0:0:
261,205,123017,1,4,0:0:0:0:
261,205,123303,1,8,0:0:0:0:
261,205,123589,1,4,0:0:0:0:
252,179,123874,1,0,0:0:0:0:
253,199,124017,1,0,0:0:0:0:
253,199,124160,1,8,0:0:0:0:
253,199,124303,1,8,0:0:0:0:
253,199,124446,1,0,0:0:0:0:
252,194,124732,1,4,0:0:0:0:
253,199,125303,1,8,0:0:0:0:
253,201,125589,1,4,0:0:0:0:
253,199,125874,1,4,0:0:0:0:
260,196,126160,1,0,0:0:0:0:
260,196,126303,1,0,0:0:0:0:
260,196,126446,1,8,0:0:0:0:
260,196,126589,1,8,0:0:0:0:
260,196,126732,1,0,0:0:0:0:
260,196,126874,1,8,0:0:0:0:
260,196,127017,1,4,0:0:0:0:
260,196,127303,1,4,0:0:0:0:
260,196,127589,1,12,0:0:0:0:
