osu file format v14

[General]
AudioFilename: audio.mp3
AudioLeadIn: 0
PreviewTime: 53779
Countdown: 1
SampleSet: Normal
StackLeniency: 0.7
Mode: 1
LetterboxInBreaks: 0
WidescreenStoryboard: 0

[Editor]
Bookmarks: 24632,27418,36561,45704,54847,63990,73132,82275,91418,100561,109704,118847,127418
DistanceSpacing: 0.8
BeatDivisor: 4
GridSize: 8
TimelineZoom: 1.7

[Metadata]
Title:Leprechaun
TitleUnicode:Leprechaun
Artist:Thaehan
ArtistUnicode:Thaehan
Creator:Okoratu
Version:Inner Oni
Source:
Tags:Loki Bwa Featured Artist Electronic Medieval Okorin Yales
BeatmapID:1834679
BeatmapSetID:877496

[Difficulty]
HPDrainRate:6
CircleSize:5
OverallDifficulty:6
ApproachRate:5
SliderMultiplier:1.4
SliderTickRate:1

[Events]
//Background and Video events
0,0,"GREEEN.jpg",0,-30
//Break Periods
//Storyboard Layer 0 (Background)
//Storyboard Layer 1 (Fail)
//Storyboard Layer 2 (Pass)
//Storyboard Layer 3 (Foreground)
//Storyboard Sound Samples

[TimingPoints]
160,285.714285714286,4,1,0,40,1,0
160,-200,4,1,0,20,0,0
8231,-185.185185185185,4,1,0,20,0,0
8374,-172.413793103448,4,1,0,20,0,0
8517,-161.290322580645,4,1,0,20,0,0
8660,-151.515151515152,4,1,0,20,0,0
8874,-142.857142857143,4,1,0,20,0,0
9088,-136.986301369863,4,1,0,20,0,0
9231,-133.333333333333,4,1,0,20,0,0
11445,-133.333333333333,4,1,0,30,0,0
13731,-133.333333333333,4,1,0,40,0,0
16302,-125,4,1,0,40,0,0
16517,-120.481927710843,4,1,0,40,0,0
16660,-116.279069767442,4,1,0,40,0,0
16802,-112.359550561798,4,1,0,40,0,0
16945,-108.695652173913,4,1,0,40,0,0
17088,-105.263157894737,4,1,0,40,0,0
17231,-102.040816326531,4,1,0,70,0,0
17445,-100,4,1,0,70,0,0
17731,-83.3333333333333,4,1,0,80,0,0
18017,-100,4,1,0,80,0,0
18374,-100,4,1,0,100,0,0
26374,-83.3333333333333,4,1,0,100,0,0
27160,-100,4,1,0,100,0,0
35517,-83.3333333333333,4,1,0,100,0,0
36302,-100,4,1,0,100,0,0
36517,-90.9090909090909,4,1,0,100,0,0
36660,-83.3333333333333,4,1,0,100,0,0
37017,-80,4,1,0,100,0,0
37445,-74.0740740740741,4,1,0,100,0,0
37802,-68.9655172413793,4,1,0,100,0,0
37945,-66.6666666666667,4,1,0,100,0,0
38302,-74.0740740740741,4,1,0,100,0,0
38517,-76.9230769230769,4,1,0,100,0,0
38660,-80,4,1,0,100,0,0
38874,-83.3333333333333,4,1,0,100,0,0
39302,-80,4,1,0,100,0,0
39731,-74.0740740740741,4,1,0,100,0,0
40017,-68.9655172413793,4,1,0,100,0,0
40231,-66.6666666666667,4,1,0,100,0,0
40588,-74.0740740740741,4,1,0,100,0,0
40874,-75.187969924812,4,1,0,100,0,0
41160,-83.3333333333333,4,1,0,100,0,0
41588,-80,4,1,0,100,0,0
42017,-74.0740740740741,4,1,0,100,0,0
42374,-68.9655172413793,4,1,0,100,0,0
42517,-66.6666666666667,4,1,0,100,0,0
42874,-74.0740740740741,4,1,0,100,0,0
43160,-80,4,1,0,100,0,0
43445,-83.3333333333333,4,1,0,100,0,0
43731,-90.9090909090909,4,1,0,100,0,0
44588,-83.3333333333333,4,1,0,100,0,0
44874,-80,4,1,0,100,0,0
45160,-76.9230769230769,4,1,0,100,0,0
45445,-83.3333333333333,4,1,0,100,0,0
45660,-80,4,1,0,100,0,0
45802,-76.9230769230769,4,1,0,100,0,0
46160,-70.4225352112676,4,1,0,100,0,0
46588,-64.5161290322581,4,1,0,100,0,0
46945,-60.6060606060606,4,1,0,100,0,0
47088,-58.8235294117647,4,1,0,100,0,0
47445,-64.5161290322581,4,1,0,100,0,0
47660,-66.6666666666667,4,1,0,100,0,0
47802,-70.4225352112676,4,1,0,100,0,0
48017,-76.9230769230769,4,1,0,100,0,0
48445,-70.4225352112676,4,1,0,100,0,0
48874,-64.5161290322581,4,1,0,100,0,0
49160,-60.6060606060606,4,1,0,100,0,0
50017,-70.4225352112676,4,1,0,100,0,0
50302,-76.9230769230769,4,1,0,100,0,0
50731,-70.4225352112676,4,1,0,100,0,0
51160,-64.5161290322581,4,1,0,100,0,0
51517,-60.6060606060606,4,1,0,100,0,0
51660,-58.8235294117647,4,1,0,100,0,0
52017,-64.5161290322581,4,1,0,100,0,0
52302,-70.4225352112676,4,1,0,100,0,0
52588,-76.9230769230769,4,1,0,100,0,0
52874,-90.9090909090909,4,1,0,100,0,0
53731,-100,4,1,0,100,0,0
54017,-95.2380952380952,4,1,0,100,0,0
54302,-90.9090909090909,4,1,0,100,0,0
55017,-90.9090909090909,4,1,0,100,0,1
55088,-100,4,1,0,100,0,1
62945,-95.2380952380952,4,1,0,100,0,1
63160,-90.9090909090909,4,1,0,100,0,1
63445,-90.9090909090909,4,1,0,100,0,1
63660,-89.2857142857143,4,1,0,100,0,1
63802,-87.719298245614,4,1,0,100,0,1
63945,-86.2068965517241,4,1,0,100,0,1
64088,-84.7457627118644,4,1,0,100,0,1
64231,-90.9090909090909,4,1,0,100,0,1
68731,-86.9565217391304,4,1,0,100,0,1
70874,-100,4,1,0,100,0,1
73302,-100,4,1,0,100,0,1
73445,-133.333333333333,4,1,0,100,0,1
74017,-158.730158730159,4,1,0,100,0,1
74302,-181.818181818182,4,1,0,100,0,1
74731,-200,4,1,0,100,0,1
75160,-200,4,1,0,100,0,1
75445,-200,4,1,0,100,0,1
81231,-153.846153846154,4,1,0,100,0,1
81517,-142.857142857143,4,1,0,100,0,1
81802,-133.333333333333,4,1,0,100,0,1
82088,-140.845070422535,4,1,0,100,0,1
82302,-136.986301369863,4,1,0,100,0,1
82374,-133.333333333333,4,1,0,100,0,1
90374,-125,4,1,0,100,0,1
90660,-113.636363636364,4,1,0,100,0,1
90945,-100,4,1,0,100,0,1
91517,-100,4,1,0,100,0,1
91588,-100,4,1,0,100,0,0
92445,-200,4,1,0,20,0,0
99731,-181.818181818182,4,1,0,20,0,0
100017,-158.730158730159,4,1,0,20,0,0
100231,-151.515151515152,4,1,0,20,0,0
100374,-144.927536231884,4,1,0,20,0,0
100517,-138.888888888889,4,1,0,20,0,0
100660,-133.333333333333,4,1,0,20,0,0
102874,-133.333333333333,4,1,0,30,0,0
105160,-133.333333333333,4,1,0,40,0,0
107160,-133.333333333333,4,1,0,50,0,0
107731,-125,4,1,0,40,0,0
107946,-120.481927710843,4,1,0,40,0,0
108089,-116.279069767442,4,1,0,40,0,0
108231,-112.359550561798,4,1,0,40,0,0
108374,-108.695652173913,4,1,0,40,0,0
108517,-105.263157894737,4,1,0,40,0,0
108660,-102.040816326531,4,1,0,70,0,0
108874,-100,4,1,0,70,0,0
109160,-83.3333333333333,4,1,0,80,0,0
109446,-100,4,1,0,80,0,0
109803,-100,4,1,0,100,0,0
117802,-83.3333333333333,4,1,0,100,0,0
118588,-100,4,1,0,100,0,0
119731,-100,4,1,0,100,0,0
126945,-83.3333333333333,4,1,0,100,0,0
127445,-66.6666666666667,4,1,0,100,0,0

[HitObjects]
256,192,160,5,8,0:0:0:0:
256,192,1302,5,8,0:0:0:0:
256,192,1588,1,0,0:0:0:0:
256,192,1874,1,8,0:0:0:0:
256,192,2445,1,8,0:0:0:0:
256,184,2731,1,0,0:0:0:0:
256,184,3017,1,8,0:0:0:0:
256,184,3302,1,0,0:0:0:0:
256,184,3588,1,8,0:0:0:0:
256,184,3731,1,0,0:0:0:0:
256,184,3874,1,0,0:0:0:0:
256,184,4017,1,0,0:0:0:0:
256,184,4160,1,8,0:0:0:0:
256,184,4731,1,8,0:0:0:0:
256,192,5017,1,0,0:0:0:0:
256,192,5160,1,0,0:0:0:0:
256,192,5302,1,8,0:0:0:0:
256,192,5874,1,8,0:0:0:0:
256,192,6017,1,0,0:0:0:0:
256,192,6160,1,8,0:0:0:0:
256,192,6302,1,0,0:0:0:0:
256,192,6445,1,8,0:0:0:0:
248,200,6731,1,8,0:0:0:0:
248,200,6874,1,0,0:0:0:0:
248,200,7017,1,8,0:0:0:0:
256,192,7302,1,0,0:0:0:0:
256,192,7445,1,0,0:0:0:0:
256,192,7588,1,8,0:0:0:0:
256,192,7731,1,8,0:0:0:0:
256,192,7874,1,8,0:0:0:0:
256,192,8160,1,8,0:0:0:0:
264,192,8302,1,8,0:0:0:0:
256,192,8445,1,0,0:0:0:0:
264,192,8588,1,0,0:0:0:0:
256,192,8731,1,8,0:0:0:0:
264,192,9017,1,0,0:0:0:0:
264,192,9160,1,0,0:0:0:0:
264,192,9302,1,8,0:0:0:0:
264,192,9588,1,8,0:0:0:0:
264,192,9731,1,0,0:0:0:0:
264,192,9874,1,8,0:0:0:0:
256,184,10160,1,0,0:0:0:0:
256,184,10445,1,8,0:0:0:0:
256,184,10588,1,8,0:0:0:0:
256,184,10731,1,0,0:0:0:0:
256,184,10874,1,0,0:0:0:0:
256,184,11017,1,8,0:0:0:0:
256,192,11302,1,0,0:0:0:0:
256,192,11588,1,8,0:0:0:0:
248,192,11874,1,8,0:0:0:0:
248,192,12017,1,8,0:0:0:0:
248,192,12160,1,0,0:0:0:0:
248,192,12302,1,8,0:0:0:0:
248,192,12445,1,8,0:0:0:0:
256,200,12731,1,8,0:0:0:0:
256,200,12802,1,8,0:0:0:0:
256,200,12874,1,8,0:0:0:0:
256,200,13017,1,0,0:0:0:0:
256,200,13160,1,0,0:0:0:0:
256,200,13302,1,8,0:0:0:0:
264,208,13874,1,8,0:0:0:0:
264,208,13945,1,8,0:0:0:0:
264,208,14017,1,8,0:0:0:0:
264,208,14160,1,8,0:0:0:0:
264,208,14302,1,0,0:0:0:0:
264,208,14445,1,8,0:0:0:0:
264,208,14731,1,0,0:0:0:0:
264,208,15017,1,8,0:0:0:0:
264,208,15160,1,8,0:0:0:0:
264,208,15302,1,8,0:0:0:0:
264,208,15445,1,0,0:0:0:0:
264,208,15588,1,8,0:0:0:0:
264,208,15874,1,8,0:0:0:0:
264,208,16017,1,0,0:0:0:0:
272,208,16160,1,8,0:0:0:0:
264,208,16445,1,0,0:0:0:0:
264,208,16588,1,0,0:0:0:0:
264,208,16731,1,8,0:0:0:0:
264,208,16874,1,8,0:0:0:0:
264,208,17017,1,0,0:0:0:0:
272,208,17160,1,8,0:0:0:0:
256,192,17302,1,4,0:0:0:0:
256,192,17588,1,4,0:0:0:0:
256,192,17874,1,12,0:0:0:0:
264,200,18160,1,0,0:0:0:0:
264,200,18302,1,0,0:0:0:0:
264,200,18445,1,4,0:0:0:0:
256,192,18731,1,0,0:0:0:0:
256,192,18874,1,0,0:0:0:0:
256,192,18945,1,0,0:0:0:0:
256,192,19017,1,8,0:0:0:0:
264,200,19160,1,0,0:0:0:0:
264,200,19231,1,0,0:0:0:0:
264,200,19302,1,8,0:0:0:0:
272,200,19374,1,8,0:0:0:0:
264,200,19445,1,8,0:0:0:0:
256,192,19588,1,4,0:0:0:0:
264,208,19731,1,8,0:0:0:0:
264,208,19874,1,8,0:0:0:0:
264,208,20017,1,0,0:0:0:0:
264,208,20088,1,0,0:0:0:0:
264,208,20160,1,8,0:0:0:0:
272,208,20302,1,8,0:0:0:0:
272,208,20445,1,4,0:0:0:0:
272,208,20731,1,4,0:0:0:0:
256,192,21017,1,8,0:0:0:0:
256,192,21160,1,8,0:0:0:0:
256,184,21231,1,0,0:0:0:0:
256,176,21302,1,8,0:0:0:0:
256,176,21445,1,0,0:0:0:0:
256,176,21517,1,0,0:0:0:0:
256,176,21588,1,8,0:0:0:0:
256,176,21660,1,8,0:0:0:0:
256,192,21731,1,0,0:0:0:0:
256,192,21874,1,4,0:0:0:0:
264,192,22017,1,0,0:0:0:0:
264,192,22088,1,0,0:0:0:0:
264,192,22160,1,8,0:0:0:0:
256,184,22302,1,0,0:0:0:0:
256,184,22445,1,4,0:0:0:0:
256,200,22731,1,8,0:0:0:0:
256,200,23017,1,4,0:0:0:0:
256,224,23302,1,0,0:0:0:0:
256,224,23445,1,0,0:0:0:0:
256,224,23517,1,0,0:0:0:0:
256,224,23588,1,8,0:0:0:0:
256,224,23731,1,0,0:0:0:0:
256,224,23874,1,8,0:0:0:0:
256,224,23945,1,8,0:0:0:0:
256,224,24017,1,8,0:0:0:0:
256,224,24160,1,4,0:0:0:0:
256,224,24302,1,8,0:0:0:0:
256,224,24445,1,8,0:0:0:0:
256,224,24588,1,0,0:0:0:0:
256,224,24660,1,0,0:0:0:0:
256,224,24731,1,8,0:0:0:0:
256,224,24802,1,8,0:0:0:0:
256,224,24874,1,0,0:0:0:0:
256,200,25017,1,4,0:0:0:0:
256,200,25302,1,4,0:0:0:0:
256,200,25588,1,8,0:0:0:0:
256,200,25731,1,0,0:0:0:0:
256,200,25802,1,0,0:0:0:0:
248,192,25874,1,8,0:0:0:0:
256,200,26017,1,0,0:0:0:0:
256,200,26088,1,0,0:0:0:0:
248,192,26160,1,8,0:0:0:0:
248,192,26231,1,0,0:0:0:0:
248,192,26302,1,8,0:0:0:0:
256,184,26445,1,4,0:0:0:0:
256,184,26731,1,4,0:0:0:0:
256,184,27017,1,12,0:0:0:0:
264,192,27302,1,0,0:0:0:0:
264,192,27445,1,0,0:0:0:0:
264,192,27588,1,12,0:0:0:0:
256,192,27874,1,0,0:0:0:0:
256,192,28017,1,0,0:0:0:0:
256,192,28088,1,0,0:0:0:0:
256,192,28160,1,8,0:0:0:0:
264,200,28303,1,0,0:0:0:0:
264,200,28445,1,8,0:0:0:0:
272,200,28517,1,8,0:0:0:0:
264,200,28588,1,8,0:0:0:0:
256,192,28731,1,4,0:0:0:0:
264,208,28874,1,8,0:0:0:0:
264,208,29017,1,8,0:0:0:0:
264,208,29160,1,0,0:0:0:0:
264,208,29231,1,0,0:0:0:0:
264,208,29303,1,8,0:0:0:0:
272,208,29445,1,8,0:0:0:0:
272,208,29588,1,4,0:0:0:0:
272,208,29874,1,4,0:0:0:0:
256,192,30160,1,8,0:0:0:0:
256,192,30302,1,0,0:0:0:0:
256,184,30374,1,0,0:0:0:0:
256,176,30445,1,8,0:0:0:0:
256,176,30588,1,0,0:0:0:0:
256,176,30660,1,0,0:0:0:0:
256,176,30731,1,8,0:0:0:0:
256,176,30803,1,0,0:0:0:0:
256,192,30874,1,8,0:0:0:0:
256,192,31017,1,4,0:0:0:0:
264,192,31160,1,0,0:0:0:0:
264,192,31231,1,0,0:0:0:0:
264,192,31303,1,8,0:0:0:0:
256,184,31445,1,8,0:0:0:0:
256,184,31588,1,4,0:0:0:0:
256,200,31874,1,8,0:0:0:0:
256,200,32160,1,4,0:0:0:0:
256,224,32445,1,0,0:0:0:0:
256,224,32588,1,0,0:0:0:0:
256,224,32660,1,0,0:0:0:0:
256,224,32731,1,8,0:0:0:0:
256,224,32874,1,0,0:0:0:0:
256,224,33017,1,8,0:0:0:0:
256,224,33088,1,8,0:0:0:0:
256,224,33160,1,8,0:0:0:0:
256,224,33303,1,4,0:0:0:0:
256,224,33445,1,0,0:0:0:0:
256,224,33588,1,8,0:0:0:0:
256,224,33731,1,8,0:0:0:0:
256,224,33803,1,0,0:0:0:0:
256,224,33874,1,8,0:0:0:0:
256,224,34017,1,0,0:0:0:0:
256,200,34160,1,4,0:0:0:0:
256,200,34445,1,4,0:0:0:0:
256,200,34731,1,8,0:0:0:0:
256,200,34874,1,0,0:0:0:0:
256,200,34945,1,0,0:0:0:0:
256,200,35017,1,8,0:0:0:0:
256,200,35160,1,0,0:0:0:0:
256,200,35231,1,0,0:0:0:0:
248,192,35303,1,8,0:0:0:0:
248,192,35374,1,8,0:0:0:0:
248,192,35445,1,0,0:0:0:0:
256,192,35588,1,4,0:0:0:0:
256,192,35874,1,4,0:0:0:0:
256,192,36160,1,12,0:0:0:0:
256,192,36445,1,0,0:0:0:0:
256,192,36588,1,0,0:0:0:0:
256,192,36731,1,12,0:0:0:0:
264,192,37160,1,12,0:0:0:0:
264,192,37588,1,12,0:0:0:0:
256,184,38017,1,12,0:0:0:0:
256,184,38445,1,8,0:0:0:0:
256,184,38588,1,8,0:0:0:0:
256,184,38731,1,4,0:0:0:0:
256,192,39017,1,12,0:0:0:0:
264,192,39446,1,12,0:0:0:0:
264,192,39874,1,12,0:0:0:0:
256,184,40160,1,12,0:0:0:0:
256,184,40303,1,4,0:0:0:0:
264,192,40731,1,12,0:0:0:0:
264,192,41017,1,4,0:0:0:0:
264,192,41302,1,12,0:0:0:0:
264,208,41731,1,12,0:0:0:0:
264,208,42160,1,12,0:0:0:0:
264,208,42588,1,12,0:0:0:0:
272,208,43017,1,12,0:0:0:0:
272,208,43302,1,4,0:0:0:0:
248,192,43588,1,12,0:0:0:0:
248,208,43874,1,8,0:0:0:0:
248,208,44017,1,0,0:0:0:0:
248,208,44088,1,0,0:0:0:0:
248,208,44160,1,8,0:0:0:0:
256,192,44445,1,0,0:0:0:0:
248,192,44731,1,4,0:0:0:0:
248,192,45017,1,4,0:0:0:0:
248,192,45302,1,12,0:0:0:0:
248,192,45588,1,4,0:0:0:0:
248,192,45731,1,4,0:0:0:0:
256,192,45874,1,12,0:0:0:0:
264,192,46303,1,12,0:0:0:0:
264,192,46731,1,12,0:0:0:0:
256,184,47160,1,12,0:0:0:0:
256,184,47588,1,8,0:0:0:0:
256,184,47731,1,8,0:0:0:0:
256,184,47874,1,4,0:0:0:0:
256,192,48160,1,12,0:0:0:0:
264,192,48589,1,12,0:0:0:0:
264,192,49017,1,12,0:0:0:0:
256,184,49303,1,12,0:0:0:0:
256,184,49446,1,0,0:0:0:0:
248,184,49588,1,0,0:0:0:0:
248,184,49731,1,0,0:0:0:0:
264,192,49874,1,12,0:0:0:0:
264,192,50160,1,4,0:0:0:0:
264,192,50445,1,12,0:0:0:0:
264,208,50874,1,12,0:0:0:0:
264,208,51303,1,12,0:0:0:0:
264,208,51731,1,12,0:0:0:0:
272,208,52160,1,12,0:0:0:0:
272,208,52445,1,4,0:0:0:0:
248,192,52731,1,12,0:0:0:0:
248,208,53017,1,8,0:0:0:0:
248,208,53160,1,0,0:0:0:0:
248,208,53231,1,0,0:0:0:0:
248,208,53303,1,8,0:0:0:0:
256,192,53588,1,0,0:0:0:0:
256,208,53874,1,4,0:0:0:0:
248,192,54160,1,4,0:0:0:0:
248,192,54445,1,12,0:0:0:0:
248,192,54588,1,0,0:0:0:0:
248,192,54731,1,0,0:0:0:0:
248,192,54874,1,0,0:0:0:0:
248,192,55017,1,12,0:0:0:0:
256,192,55160,1,0,0:0:0:0:
256,192,55302,1,8,0:0:0:0:
264,200,55445,1,0,0:0:0:0:
264,200,55517,1,0,0:0:0:0:
264,200,55588,1,8,0:0:0:0:
264,200,55731,1,0,0:0:0:0:
248,176,55874,1,8,0:0:0:0:
248,176,55945,1,0,0:0:0:0:
248,176,56017,1,8,0:0:0:0:
248,176,56088,1,8,0:0:0:0:
248,176,56160,1,0,0:0:0:0:
248,176,56302,1,0,0:0:0:0:
248,176,56445,1,8,0:0:0:0:
248,184,56517,1,0,0:0:0:0:
248,184,56588,1,8,0:0:0:0:
248,184,56731,1,0,0:0:0:0:
248,184,56802,1,0,0:0:0:0:
248,184,56874,1,0,0:0:0:0:
256,176,56945,1,0,0:0:0:0:
256,176,57017,1,8,0:0:0:0:
248,192,57160,1,0,0:0:0:0:
248,192,57302,1,4,0:0:0:0:
260,187,57588,1,8,0:0:0:0:
260,187,57731,1,0,0:0:0:0:
263,192,57802,1,0,0:0:0:0:
263,192,57874,1,8,0:0:0:0:
260,187,58017,1,0,0:0:0:0:
263,192,58160,1,8,0:0:0:0:
266,194,58231,1,8,0:0:0:0:
266,194,58302,1,0,0:0:0:0:
266,194,58374,1,8,0:0:0:0:
266,194,58445,1,8,0:0:0:0:
258,194,58588,1,0,0:0:0:0:
258,194,58660,1,0,0:0:0:0:
258,194,58731,1,8,0:0:0:0:
272,200,58874,1,8,0:0:0:0:
272,200,58945,1,8,0:0:0:0:
272,200,59017,1,0,0:0:0:0:
296,248,59160,1,0,0:0:0:0:
296,248,59231,1,0,0:0:0:0:
296,248,59302,1,8,0:0:0:0:
280,200,59445,1,0,0:0:0:0:
272,208,59588,1,12,0:0:0:0:
272,208,59731,1,0,0:0:0:0:
272,208,59874,1,8,0:0:0:0:
272,208,60017,1,0,0:0:0:0:
272,208,60088,1,0,0:0:0:0:
272,208,60160,1,8,0:0:0:0:
272,208,60231,1,8,0:0:0:0:
272,208,60302,1,0,0:0:0:0:
272,216,60445,1,8,0:0:0:0:
256,216,60588,1,8,0:0:0:0:
256,216,60660,1,8,0:0:0:0:
256,216,60731,1,0,0:0:0:0:
256,192,60802,1,0,0:0:0:0:
256,192,60874,1,8,0:0:0:0:
256,192,60945,1,0,0:0:0:0:
256,192,61017,1,8,0:0:0:0:
256,208,61160,1,0,0:0:0:0:
255,206,61302,1,8,0:0:0:0:
255,206,61374,1,0,0:0:0:0:
255,206,61445,1,0,0:0:0:0:
255,206,61517,1,0,0:0:0:0:
255,206,61588,1,8,0:0:0:0:
255,206,61731,1,0,0:0:0:0:
255,206,61874,1,4,0:0:0:0:
261,207,62160,1,8,0:0:0:0:
255,206,62302,1,4,0:0:0:0:
260,205,62588,1,0,0:0:0:0:
260,205,62660,1,0,0:0:0:0:
260,205,62731,1,8,0:0:0:0:
246,188,62874,1,0,0:0:0:0:
247,188,63017,1,4,0:0:0:0:
247,188,63302,1,4,0:0:0:0:
247,188,63588,1,12,0:0:0:0:
248,185,63731,1,0,0:0:0:0:
246,188,63874,1,0,0:0:0:0:
247,188,64017,1,0,0:0:0:0:
247,188,64160,1,12,0:0:0:0:
245,193,64302,1,0,0:0:0:0:
245,193,64445,1,8,0:0:0:0:
245,193,64588,1,0,0:0:0:0:
245,193,64660,1,0,0:0:0:0:
245,193,64731,1,8,0:0:0:0:
248,192,64874,1,0,0:0:0:0:
248,192,65017,1,8,0:0:0:0:
248,192,65088,1,8,0:0:0:0:
266,210,65160,1,0,0:0:0:0:
264,207,65231,1,8,0:0:0:0:
264,207,65302,1,8,0:0:0:0:
264,207,65445,1,0,0:0:0:0:
264,207,65517,1,0,0:0:0:0:
264,207,65588,1,8,0:0:0:0:
242,197,65731,1,0,0:0:0:0:
243,197,65874,1,8,0:0:0:0:
243,197,65945,1,8,0:0:0:0:
243,197,66017,1,0,0:0:0:0:
243,197,66088,1,0,0:0:0:0:
243,197,66160,1,8,0:0:0:0:
243,197,66231,1,0,0:0:0:0:
264,207,66302,1,0,0:0:0:0:
264,207,66445,1,4,0:0:0:0:
264,207,66731,1,8,0:0:0:0:
272,210,66874,1,0,0:0:0:0:
272,210,66945,1,0,0:0:0:0:
246,228,67017,1,8,0:0:0:0:
246,228,67160,1,0,0:0:0:0:
246,228,67302,1,8,0:0:0:0:
246,228,67445,1,8,0:0:0:0:
246,228,67517,1,8,0:0:0:0:
246,228,67588,1,0,0:0:0:0:
246,228,67660,1,0,0:0:0:0:
246,228,67731,1,0,0:0:0:0:
246,228,67802,1,0,0:0:0:0:
246,228,67874,1,8,0:0:0:0:
246,228,68017,1,0,0:0:0:0:
246,228,68160,1,8,0:0:0:0:
246,228,68232,1,0,0:0:0:0:
246,228,68303,1,0,0:0:0:0:
246,228,68374,1,0,0:0:0:0:
246,228,68446,1,8,0:0:0:0:
246,228,68588,1,0,0:0:0:0:
246,228,68731,1,12,0:0:0:0:
251,228,68874,1,0,0:0:0:0:
256,186,68945,1,0,0:0:0:0:
251,228,69017,1,8,0:0:0:0:
256,186,69160,1,0,0:0:0:0:
256,186,69231,1,0,0:0:0:0:
256,186,69302,1,8,0:0:0:0:
237,187,69445,1,0,0:0:0:0:
237,187,69588,1,8,0:0:0:0:
237,187,69660,1,0,0:0:0:0:
237,187,69731,1,8,0:0:0:0:
237,187,69802,1,8,0:0:0:0:
237,187,69874,1,0,0:0:0:0:
246,235,70017,1,0,0:0:0:0:
246,235,70160,1,8,0:0:0:0:
243,185,70231,1,8,0:0:0:0:
243,185,70302,1,0,0:0:0:0:
243,185,70374,1,0,0:0:0:0:
243,185,70445,1,8,0:0:0:0:
283,180,70517,1,8,0:0:0:0:
283,180,70588,1,8,0:0:0:0:
283,180,70660,1,8,0:0:0:0:
283,180,70731,1,8,0:0:0:0:
264,172,71017,1,0,0:0:0:0:
249,194,71160,1,0,0:0:0:0:
249,194,71302,1,8,0:0:0:0:
264,194,71517,1,0,0:0:0:0:
264,194,71588,1,0,0:0:0:0:
269,268,71731,1,0,0:0:0:0:
269,268,71874,1,8,0:0:0:0:
303,248,72160,1,8,0:0:0:0:
303,248,72231,1,8,0:0:0:0:
303,248,72302,1,0,0:0:0:0:
303,248,72374,1,0,0:0:0:0:
303,248,72445,1,8,0:0:0:0:
304,241,72588,1,0,0:0:0:0:
216,167,72731,1,12,0:0:0:0:
293,184,72874,1,4,0:0:0:0:
293,184,73017,1,4,0:0:0:0:
293,184,73160,1,4,0:0:0:0:
293,184,73302,1,12,0:0:0:0:
258,204,73874,1,0,0:0:0:0:
225,137,74160,1,8,0:0:0:0:
270,237,74445,1,8,0:0:0:0:
258,204,75017,1,0,0:0:0:0:
225,137,75303,1,8,0:0:0:0:
270,237,75588,1,0,0:0:0:0:
275,233,75731,1,8,0:0:0:0:
258,204,75874,1,8,0:0:0:0:
258,204,76017,1,8,0:0:0:0:
258,204,76160,1,0,0:0:0:0:
204,207,76302,1,8,0:0:0:0:
204,207,76445,1,8,0:0:0:0:
258,204,76588,1,8,0:0:0:0:
258,204,76731,1,0,0:0:0:0:
204,207,76874,1,8,0:0:0:0:
204,207,77017,1,8,0:0:0:0:
204,207,77160,1,8,0:0:0:0:
241,194,77302,1,0,0:0:0:0:
241,194,77445,1,8,0:0:0:0:
241,194,77517,1,8,0:0:0:0:
241,194,77588,1,0,0:0:0:0:
257,176,77874,1,12,0:0:0:0:
241,194,78445,1,0,0:0:0:0:
241,194,78731,1,8,0:0:0:0:
241,194,79017,1,8,0:0:0:0:
241,194,79588,1,0,0:0:0:0:
241,194,79874,1,8,0:0:0:0:
241,194,80160,1,8,0:0:0:0:
240,184,80255,1,0,0:0:0:0:
240,184,80350,1,0,0:0:0:0:
240,184,80445,1,8,0:0:0:0:
245,190,80588,1,8,0:0:0:0:
245,190,80731,1,0,0:0:0:0:
245,190,80874,1,8,0:0:0:0:
245,190,81017,1,8,0:0:0:0:
245,190,81160,1,8,0:0:0:0:
245,190,81302,1,4,0:0:0:0:
245,190,81588,1,4,0:0:0:0:
245,190,81874,1,12,0:0:0:0:
248,196,82160,1,0,0:0:0:0:
248,196,82302,1,0,0:0:0:0:
248,196,82445,1,12,0:0:0:0:
270,189,83017,1,0,0:0:0:0:
270,189,83302,1,8,0:0:0:0:
270,189,83588,1,8,0:0:0:0:
258,212,84160,1,0,0:0:0:0:
258,212,84445,1,8,0:0:0:0:
258,197,84731,1,0,0:0:0:0:
258,197,84874,1,8,0:0:0:0:
258,197,85017,1,8,0:0:0:0:
258,197,85160,1,8,0:0:0:0:
258,197,85302,1,0,0:0:0:0:
258,197,85445,1,8,0:0:0:0:
258,197,85588,1,8,0:0:0:0:
258,197,85731,1,8,0:0:0:0:
258,197,85874,1,0,0:0:0:0:
241,199,86017,1,8,0:0:0:0:
241,199,86160,1,8,0:0:0:0:
241,199,86302,1,8,0:0:0:0:
241,199,86445,1,0,0:0:0:0:
241,199,86588,1,8,0:0:0:0:
241,199,86660,1,8,0:0:0:0:
241,199,86731,1,0,0:0:0:0:
252,183,87017,1,12,0:0:0:0:
241,199,87588,1,0,0:0:0:0:
241,199,87874,1,8,0:0:0:0:
241,199,88160,1,8,0:0:0:0:
241,199,88731,1,0,0:0:0:0:
241,199,89017,1,8,0:0:0:0:
241,199,89302,1,8,0:0:0:0:
241,199,89398,1,0,0:0:0:0:
241,199,89493,1,0,0:0:0:0:
241,199,89588,1,8,0:0:0:0:
241,199,89731,1,8,0:0:0:0:
241,199,89874,1,0,0:0:0:0:
241,199,90017,1,8,0:0:0:0:
241,199,90160,1,8,0:0:0:0:
241,199,90302,1,8,0:0:0:0:
241,199,90445,1,4,0:0:0:0:
241,199,90731,1,4,0:0:0:0:
241,199,91017,1,12,0:0:0:0:
254,194,91588,1,4,0:0:0:0:
256,191,92731,1,8,0:0:0:0:
249,154,93302,1,8,0:0:0:0:
257,232,93874,1,8,0:0:0:0:
252,236,94445,1,8,0:0:0:0:
258,159,95017,1,8,0:0:0:0:
258,159,95588,1,8,0:0:0:0:
256,236,96160,1,8,0:0:0:0:
256,236,96445,1,8,0:0:0:0:
256,236,96588,1,8,0:0:0:0:
256,236,96731,1,8,0:0:0:0:
252,175,97302,1,8,0:0:0:0:
252,175,97588,1,8,0:0:0:0:
252,175,97874,1,8,0:0:0:0:
276,277,98160,1,8,0:0:0:0:
276,277,98302,1,8,0:0:0:0:
276,277,98445,1,8,0:0:0:0:
276,277,98731,1,8,0:0:0:0:
276,277,98873,1,8,0:0:0:0:
276,277,99017,1,8,0:0:0:0:
276,277,99159,1,8,0:0:0:0:
276,277,99302,1,8,0:0:0:0:
276,277,99588,1,8,0:0:0:0:
276,277,99874,1,8,0:0:0:0:
260,183,100160,1,0,0:0:0:0:
260,183,100302,1,0,0:0:0:0:
260,183,100445,1,8,0:0:0:0:
260,183,100588,1,8,0:0:0:0:
260,183,100731,1,0,0:0:0:0:
234,159,101017,1,8,0:0:0:0:
250,192,101160,1,0,0:0:0:0:
250,192,101302,1,0,0:0:0:0:
228,186,101445,1,8,0:0:0:0:
228,186,101588,1,0,0:0:0:0:
246,221,101874,1,8,0:0:0:0:
246,221,102017,1,0,0:0:0:0:
240,208,102160,1,8,0:0:0:0:
239,208,102302,1,0,0:0:0:0:
239,208,102445,1,0,0:0:0:0:
244,249,102731,1,0,0:0:0:0:
244,249,103017,1,0,0:0:0:0:
261,238,103088,1,0,0:0:0:0:
261,238,103160,1,8,0:0:0:0:
283,233,103302,1,8,0:0:0:0:
283,233,103445,1,0,0:0:0:0:
283,233,103588,1,0,0:0:0:0:
269,221,103731,1,8,0:0:0:0:
269,221,103874,1,0,0:0:0:0:
261,238,104160,1,8,0:0:0:0:
261,238,104231,1,8,0:0:0:0:
261,238,104302,1,8,0:0:0:0:
263,206,104445,1,0,0:0:0:0:
263,206,104588,1,8,0:0:0:0:
263,206,104731,1,0,0:0:0:0:
263,206,104874,1,0,0:0:0:0:
247,206,105017,1,0,0:0:0:0:
245,253,105302,1,8,0:0:0:0:
248,237,105588,1,8,0:0:0:0:
248,237,105731,1,0,0:0:0:0:
273,242,105874,1,8,0:0:0:0:
273,242,106017,1,0,0:0:0:0:
273,242,106160,1,0,0:0:0:0:
268,228,106445,1,8,0:0:0:0:
268,228,106588,1,8,0:0:0:0:
268,228,106731,1,0,0:0:0:0:
268,228,106874,1,0,0:0:0:0:
268,228,107017,1,8,0:0:0:0:
258,210,107302,1,8,0:0:0:0:
258,210,107445,1,0,0:0:0:0:
258,210,107588,1,8,0:0:0:0:
265,201,107874,1,8,0:0:0:0:
265,201,108017,1,0,0:0:0:0:
265,201,108160,1,8,0:0:0:0:
265,201,108302,1,8,0:0:0:0:
265,201,108445,1,8,0:0:0:0:
265,201,108588,1,0,0:0:0:0:
265,201,108731,1,4,0:0:0:0:
265,201,109017,1,4,0:0:0:0:
265,201,109302,1,12,0:0:0:0:
264,200,109588,1,0,0:0:0:0:
264,200,109730,1,0,0:0:0:0:
264,200,109873,1,4,0:0:0:0:
256,192,110160,1,0,0:0:0:0:
256,192,110303,1,0,0:0:0:0:
256,192,110374,1,0,0:0:0:0:
256,192,110446,1,8,0:0:0:0:
264,200,110589,1,0,0:0:0:0:
264,200,110660,1,0,0:0:0:0:
264,200,110731,1,8,0:0:0:0:
272,200,110803,1,0,0:0:0:0:
264,200,110874,1,8,0:0:0:0:
256,192,111017,1,4,0:0:0:0:
264,208,111160,1,8,0:0:0:0:
264,208,111303,1,8,0:0:0:0:
264,208,111446,1,0,0:0:0:0:
264,208,111517,1,0,0:0:0:0:
264,208,111588,1,8,0:0:0:0:
264,208,111660,1,8,0:0:0:0:
272,208,111731,1,0,0:0:0:0:
272,208,111874,1,4,0:0:0:0:
272,208,112160,1,4,0:0:0:0:
256,192,112446,1,8,0:0:0:0:
256,176,112517,1,0,0:0:0:0:
256,192,112589,1,8,0:0:0:0:
256,176,112731,1,8,0:0:0:0:
256,176,112874,1,0,0:0:0:0:
256,176,112946,1,0,0:0:0:0:
256,176,113017,1,8,0:0:0:0:
256,176,113088,1,8,0:0:0:0:
256,192,113160,1,0,0:0:0:0:
256,192,113303,1,4,0:0:0:0:
264,192,113446,1,0,0:0:0:0:
264,192,113517,1,0,0:0:0:0:
264,192,113589,1,8,0:0:0:0:
256,184,113731,1,8,0:0:0:0:
256,184,113874,1,4,0:0:0:0:
256,200,114160,1,8,0:0:0:0:
256,200,114446,1,4,0:0:0:0:
256,224,114731,1,0,0:0:0:0:
256,224,114874,1,0,0:0:0:0:
256,224,114946,1,0,0:0:0:0:
256,224,115017,1,8,0:0:0:0:
256,224,115160,1,0,0:0:0:0:
256,224,115303,1,8,0:0:0:0:
256,224,115374,1,8,0:0:0:0:
256,224,115446,1,8,0:0:0:0:
256,224,115589,1,4,0:0:0:0:
256,224,115731,1,8,0:0:0:0:
256,224,115874,1,8,0:0:0:0:
256,224,116017,1,0,0:0:0:0:
256,224,116089,1,0,0:0:0:0:
256,224,116160,1,8,0:0:0:0:
256,224,116231,1,8,0:0:0:0:
256,224,116303,1,0,0:0:0:0:
256,200,116446,1,4,0:0:0:0:
256,200,116731,1,4,0:0:0:0:
256,200,117017,1,8,0:0:0:0:
256,200,117160,1,0,0:0:0:0:
256,200,117231,1,0,0:0:0:0:
248,192,117303,1,8,0:0:0:0:
256,200,117446,1,0,0:0:0:0:
256,200,117517,1,0,0:0:0:0:
248,192,117589,1,8,0:0:0:0:
248,192,117660,1,0,0:0:0:0:
248,192,117731,1,8,0:0:0:0:
256,184,117874,1,4,0:0:0:0:
256,184,118160,1,4,0:0:0:0:
256,184,118446,1,12,0:0:0:0:
264,192,118731,1,0,0:0:0:0:
264,192,118874,1,0,0:0:0:0:
264,192,119017,1,8,0:0:0:0:
264,192,119588,1,12,0:0:0:0:
268,251,119874,1,8,0:0:0:0:
268,251,119945,1,8,0:0:0:0:
272,227,120017,1,8,0:0:0:0:
272,227,120160,1,4,0:0:0:0:
239,212,120445,1,0,0:0:0:0:
239,212,120588,1,0,0:0:0:0:
239,212,120660,1,0,0:0:0:0:
264,192,120731,1,8,0:0:0:0:
239,212,120874,1,8,0:0:0:0:
272,227,121017,1,4,0:0:0:0:
272,227,121302,1,4,0:0:0:0:
256,192,121588,1,8,0:0:0:0:
256,192,121731,1,8,0:0:0:0:
256,184,121802,1,0,0:0:0:0:
256,176,121873,1,8,0:0:0:0:
256,176,122016,1,0,0:0:0:0:
256,176,122088,1,0,0:0:0:0:
256,176,122159,1,8,0:0:0:0:
256,176,122231,1,8,0:0:0:0:
256,192,122302,1,0,0:0:0:0:
256,192,122445,1,4,0:0:0:0:
264,192,122588,1,0,0:0:0:0:
264,192,122659,1,0,0:0:0:0:
264,192,122731,1,8,0:0:0:0:
256,184,122873,1,8,0:0:0:0:
256,184,123016,1,4,0:0:0:0:
256,200,123302,1,8,0:0:0:0:
256,200,123588,1,4,0:0:0:0:
256,224,123873,1,0,0:0:0:0:
256,224,124016,1,0,0:0:0:0:
256,224,124088,1,0,0:0:0:0:
256,224,124159,1,8,0:0:0:0:
256,224,124302,1,0,0:0:0:0:
256,224,124445,1,8,0:0:0:0:
256,224,124516,1,8,0:0:0:0:
256,224,124588,1,8,0:0:0:0:
256,224,124731,1,4,0:0:0:0:
256,224,124873,1,8,0:0:0:0:
256,224,125016,1,8,0:0:0:0:
256,224,125159,1,0,0:0:0:0:
256,224,125231,1,0,0:0:0:0:
256,224,125302,1,8,0:0:0:0:
256,224,125373,1,8,0:0:0:0:
256,224,125445,1,0,0:0:0:0:
256,200,125588,1,4,0:0:0:0:
256,200,125873,1,4,0:0:0:0:
256,200,126159,1,8,0:0:0:0:
256,200,126302,1,0,0:0:0:0:
256,200,126373,1,0,0:0:0:0:
248,192,126445,1,8,0:0:0:0:
256,200,126588,1,0,0:0:0:0:
256,200,126659,1,0,0:0:0:0:
248,192,126731,1,8,0:0:0:0:
248,192,126802,1,8,0:0:0:0:
248,192,126873,1,8,0:0:0:0:
248,192,127017,1,4,0:0:0:0:
248,192,127302,1,4,0:0:0:0:
248,192,127588,1,12,0:0:0:0:
