osu file format v14

[General]
AudioFilename: audio.mp3
AudioLeadIn: 0
PreviewTime: 53779
Countdown: 1
SampleSet: Normal
StackLeniency: 0.7
Mode: 1
LetterboxInBreaks: 0
WidescreenStoryboard: 1

[Editor]
Bookmarks: 24632,27418,36561,45704,54847,63990,73132,82275,91418,100561,109704,118847,127418
DistanceSpacing: 0.8
BeatDivisor: 4
GridSize: 8
TimelineZoom: 1.2

[Metadata]
Title:Leprechaun
TitleUnicode:Leprechaun
Artist:Thaehan
ArtistUnicode:Thaehan
Creator:Okoratu
Version:Futsuu
Source:
Tags:Loki Bwa Featured Artist Electronic Medieval Okorin Yales
BeatmapID:1834678
BeatmapSetID:877496

[Difficulty]
HPDrainRate:7
CircleSize:5
OverallDifficulty:4
ApproachRate:5
SliderMultiplier:1.4
SliderTickRate:1

[Events]
//Background and Video events
0,0,"GREEEN.jpg",0,-30
//Break Periods
//Storyboard Layer 0 (Background)
//Storyboard Layer 1 (Fail)
//Storyboard Layer 2 (Pass)
//Storyboard Layer 3 (Foreground)
//Storyboard Sound Samples

[TimingPoints]
160,285.714285714286,4,1,0,40,1,0
17445,-100,4,1,0,70,0,0
17731,-100,4,1,0,80,0,0
18017,-100,4,1,0,80,0,0
18374,-100,4,1,0,100,0,0
27160,-100,4,1,0,100,0,0
36302,-100,4,1,0,100,0,0
53731,-100,4,1,0,100,0,0
55017,-100,4,1,0,100,0,1
55088,-100,4,1,0,100,0,1
70874,-100,4,1,0,100,0,1
73302,-100,4,1,0,100,0,1
81731,-100,4,1,0,100,0,1
82374,-100,4,1,0,100,0,1
91517,-100,4,1,0,100,0,1
91588,-100,4,1,0,100,0,0
92445,-100,4,1,0,20,0,0
102874,-100,4,1,0,30,0,0
105160,-100,4,1,0,40,0,0
107160,-100,4,1,0,40,0,0
108660,-100,4,1,0,70,0,0
108874,-100,4,1,0,70,0,0
109160,-100,4,1,0,80,0,0
109446,-100,4,1,0,80,0,0
109803,-100,4,1,0,100,0,0
118588,-100,4,1,0,100,0,0
127445,-100,4,1,0,100,0,0

[HitObjects]
256,191,160,5,8,0:0:0:0:
256,191,1302,5,8,0:0:0:0:
258,192,2445,1,8,0:0:0:0:
258,192,3017,1,0,0:0:0:0:
258,192,3588,1,8,0:0:0:0:
252,185,4731,1,8,0:0:0:0:
252,185,5302,1,0,0:0:0:0:
252,185,5874,1,8,0:0:0:0:
255,190,6731,1,8,0:0:0:0:
255,190,7017,1,8,0:0:0:0:
261,198,7588,1,8,0:0:0:0:
261,198,8160,1,8,0:0:0:0:
261,198,8445,1,8,0:0:0:0:
261,198,8588,1,8,0:0:0:0:
261,198,8731,1,8,0:0:0:0:
260,193,9302,1,8,0:0:0:0:
257,192,9731,1,0,0:0:0:0:
256,188,10160,1,8,0:0:0:0:
257,192,10445,1,8,0:0:0:0:
257,192,10731,1,0,0:0:0:0:
256,188,11017,1,8,0:0:0:0:
257,192,11588,1,8,0:0:0:0:
256,188,12017,1,0,0:0:0:0:
257,192,12445,1,8,0:0:0:0:
259,192,12731,1,8,0:0:0:0:
259,192,13017,1,8,0:0:0:0:
257,192,13302,1,0,0:0:0:0:
257,192,13445,1,0,0:0:0:0:
259,192,13874,1,8,0:0:0:0:
262,192,14302,1,0,0:0:0:0:
259,192,14731,1,0,0:0:0:0:
262,192,15017,1,8,0:0:0:0:
262,192,15302,1,8,0:0:0:0:
261,198,15588,1,8,0:0:0:0:
265,199,15874,1,8,0:0:0:0:
265,199,16017,1,8,0:0:0:0:
265,199,16160,1,8,0:0:0:0:
256,191,16588,1,8,0:0:0:0:
257,191,17017,1,8,0:0:0:0:
257,191,17160,1,8,0:0:0:0:
256,191,17302,1,4,0:0:0:0:
256,191,17588,1,4,0:0:0:0:
257,191,17874,1,12,0:0:0:0:
256,191,18445,1,4,0:0:0:0:
257,191,19017,1,8,0:0:0:0:
257,191,19302,1,8,0:0:0:0:
257,191,19445,1,8,0:0:0:0:
256,191,19588,1,4,0:0:0:0:
257,191,20160,1,8,0:0:0:0:
256,191,20445,1,4,0:0:0:0:
256,191,20731,1,4,0:0:0:0:
251,200,21302,1,8,0:0:0:0:
251,200,21445,1,8,0:0:0:0:
251,200,21588,1,8,0:0:0:0:
251,200,21874,1,4,0:0:0:0:
251,200,22160,1,8,0:0:0:0:
251,200,22445,1,4,0:0:0:0:
251,200,22731,1,8,0:0:0:0:
251,200,23017,1,4,0:0:0:0:
251,200,23588,1,8,0:0:0:0:
251,200,23874,1,8,0:0:0:0:
251,200,24017,1,8,0:0:0:0:
251,200,24160,1,4,0:0:0:0:
251,200,24731,1,8,0:0:0:0:
251,200,25017,1,4,0:0:0:0:
251,200,25302,1,4,0:0:0:0:
251,200,25874,1,8,0:0:0:0:
251,200,26017,1,8,0:0:0:0:
251,200,26160,1,8,0:0:0:0:
251,200,26445,1,4,0:0:0:0:
251,200,26731,1,4,0:0:0:0:
251,200,27017,1,12,0:0:0:0:
251,200,27302,1,0,0:0:0:0:
251,200,27445,1,0,0:0:0:0:
251,200,27588,1,12,0:0:0:0:
257,191,28160,1,8,0:0:0:0:
257,191,28445,1,8,0:0:0:0:
257,191,28588,1,8,0:0:0:0:
256,191,28731,1,4,0:0:0:0:
257,191,29303,1,8,0:0:0:0:
256,191,29588,1,4,0:0:0:0:
256,191,29874,1,4,0:0:0:0:
251,200,30445,1,8,0:0:0:0:
251,200,30588,1,8,0:0:0:0:
251,200,30731,1,8,0:0:0:0:
251,200,31017,1,4,0:0:0:0:
251,200,31303,1,8,0:0:0:0:
251,200,31588,1,4,0:0:0:0:
251,200,31874,1,8,0:0:0:0:
251,200,32160,1,4,0:0:0:0:
251,200,32731,1,8,0:0:0:0:
251,200,33017,1,8,0:0:0:0:
251,200,33160,1,8,0:0:0:0:
251,200,33303,1,4,0:0:0:0:
251,200,33874,1,8,0:0:0:0:
251,200,34160,1,4,0:0:0:0:
251,200,34445,1,4,0:0:0:0:
251,200,35017,1,8,0:0:0:0:
251,200,35160,1,8,0:0:0:0:
251,200,35303,1,8,0:0:0:0:
251,200,35588,1,4,0:0:0:0:
251,200,35874,1,4,0:0:0:0:
251,200,36160,1,12,0:0:0:0:
256,185,36445,1,8,0:0:0:0:
256,185,36588,1,8,0:0:0:0:
256,185,36731,1,4,0:0:0:0:
256,185,37160,1,4,0:0:0:0:
256,185,37588,1,4,0:0:0:0:
256,185,38017,1,4,0:0:0:0:
256,185,38445,1,12,0:0:0:0:
256,185,39017,1,4,0:0:0:0:
256,185,39446,1,4,0:0:0:0:
256,185,39874,1,4,0:0:0:0:
256,185,40160,1,12,0:0:0:0:
256,185,40731,1,12,0:0:0:0:
256,185,41302,1,4,0:0:0:0:
256,185,41731,1,4,0:0:0:0:
256,185,42159,1,4,0:0:0:0:
256,185,42588,1,4,0:0:0:0:
256,185,43016,1,12,0:0:0:0:
256,185,43588,1,4,0:0:0:0:
256,185,44731,1,4,0:0:0:0:
256,185,45017,1,4,0:0:0:0:
256,185,45302,1,12,0:0:0:0:
264,195,45588,1,0,0:0:0:0:
264,195,45731,1,0,0:0:0:0:
256,185,45874,1,12,0:0:0:0:
256,185,46303,1,12,0:0:0:0:
256,185,46731,1,12,0:0:0:0:
256,185,47160,1,12,0:0:0:0:
256,185,47588,1,4,0:0:0:0:
256,185,48160,1,12,0:0:0:0:
256,185,48589,1,12,0:0:0:0:
256,185,49017,1,12,0:0:0:0:
256,185,49302,1,4,0:0:0:0:
256,185,49874,1,4,0:0:0:0:
256,185,50445,1,12,0:0:0:0:
256,185,50874,1,12,0:0:0:0:
256,185,51302,1,12,0:0:0:0:
256,185,51731,1,12,0:0:0:0:
256,185,52159,1,4,0:0:0:0:
256,185,52731,1,12,0:0:0:0:
256,185,53874,1,4,0:0:0:0:
256,185,54160,1,4,0:0:0:0:
264,191,54445,1,0,0:0:0:0:
264,191,54588,1,0,0:0:0:0:
264,191,54731,1,0,0:0:0:0:
264,191,55017,1,12,0:0:0:0:
259,185,55302,1,0,0:0:0:0:
259,185,55445,1,0,0:0:0:0:
265,200,55874,1,8,0:0:0:0:
265,200,56160,1,0,0:0:0:0:
272,201,56302,1,0,0:0:0:0:
272,201,56445,1,8,0:0:0:0:
256,192,56731,1,8,0:0:0:0:
256,192,57302,1,12,0:0:0:0:
259,185,57588,1,8,0:0:0:0:
259,185,57731,1,8,0:0:0:0:
259,185,58017,1,0,0:0:0:0:
259,185,58160,1,8,0:0:0:0:
259,185,58445,1,4,0:0:0:0:
259,185,59017,1,4,0:0:0:0:
264,191,59588,1,12,0:0:0:0:
251,193,59874,1,0,0:0:0:0:
254,192,60017,1,0,0:0:0:0:
246,206,60445,1,8,0:0:0:0:
243,210,60731,1,0,0:0:0:0:
243,210,60874,1,0,0:0:0:0:
243,210,61017,1,8,0:0:0:0:
230,201,61302,1,0,0:0:0:0:
243,210,61874,1,8,0:0:0:0:
251,206,62160,1,0,0:0:0:0:
251,206,62302,1,0,0:0:0:0:
251,206,62588,1,0,0:0:0:0:
251,206,62731,1,0,0:0:0:0:
251,206,63017,1,4,0:0:0:0:
251,206,63302,1,4,0:0:0:0:
251,206,63588,1,12,0:0:0:0:
264,191,64160,1,12,0:0:0:0:
259,185,64445,1,0,0:0:0:0:
259,185,64588,1,0,0:0:0:0:
265,200,65017,1,8,0:0:0:0:
265,200,65303,1,0,0:0:0:0:
272,201,65445,1,0,0:0:0:0:
272,201,65588,1,8,0:0:0:0:
256,192,65874,1,8,0:0:0:0:
256,192,66445,1,12,0:0:0:0:
259,185,66731,1,8,0:0:0:0:
259,185,66874,1,8,0:0:0:0:
259,185,67160,1,8,0:0:0:0:
259,185,67303,1,8,0:0:0:0:
259,185,67588,1,4,0:0:0:0:
259,185,68160,1,4,0:0:0:0:
264,191,68731,1,12,0:0:0:0:
251,193,69017,1,0,0:0:0:0:
254,192,69160,1,0,0:0:0:0:
246,206,69588,1,8,0:0:0:0:
243,210,69874,1,0,0:0:0:0:
243,210,70160,1,8,0:0:0:0:
230,201,70445,1,8,0:0:0:0:
243,210,70588,1,8,0:0:0:0:
243,210,70731,1,0,0:0:0:0:
243,210,71017,1,8,0:0:0:0:
243,210,72160,1,8,0:0:0:0:
243,210,72445,1,8,0:0:0:0:
249,209,72731,1,0,0:0:0:0:
249,209,72874,1,0,0:0:0:0:
249,209,73017,1,0,0:0:0:0:
249,209,73302,1,12,0:0:0:0:
255,197,74160,1,8,0:0:0:0:
255,197,74445,1,8,0:0:0:0:
255,197,75017,1,0,0:0:0:0:
255,197,75588,1,0,0:0:0:0:
255,197,75874,1,8,0:0:0:0:
255,197,76160,1,8,0:0:0:0:
248,200,76302,1,8,0:0:0:0:
248,200,76445,1,8,0:0:0:0:
255,197,76731,1,0,0:0:0:0:
264,199,77302,1,0,0:0:0:0:
264,199,77588,1,0,0:0:0:0:
264,199,77874,1,12,0:0:0:0:
255,197,78731,1,8,0:0:0:0:
255,197,79016,1,8,0:0:0:0:
255,197,79588,1,0,0:0:0:0:
255,197,80159,1,8,0:0:0:0:
255,197,80445,1,8,0:0:0:0:
255,197,80731,1,0,0:0:0:0:
248,200,80873,1,8,0:0:0:0:
248,200,81016,1,8,0:0:0:0:
255,197,81302,1,4,0:0:0:0:
264,199,81588,1,4,0:0:0:0:
264,199,81874,1,12,0:0:0:0:
264,199,82445,1,12,0:0:0:0:
255,197,83302,1,8,0:0:0:0:
255,197,83587,1,8,0:0:0:0:
255,197,84159,1,0,0:0:0:0:
255,197,84730,1,0,0:0:0:0:
255,197,85016,1,8,0:0:0:0:
255,197,85302,1,8,0:0:0:0:
248,200,85444,1,8,0:0:0:0:
248,200,85587,1,8,0:0:0:0:
255,197,85873,1,0,0:0:0:0:
264,199,86444,1,0,0:0:0:0:
264,199,86730,1,0,0:0:0:0:
264,199,87016,1,12,0:0:0:0:
255,197,87873,1,8,0:0:0:0:
255,197,88160,1,8,0:0:0:0:
255,197,88730,1,0,0:0:0:0:
255,197,89301,1,8,0:0:0:0:
255,197,89587,1,8,0:0:0:0:
255,197,89873,1,0,0:0:0:0:
248,200,90017,1,8,0:0:0:0:
248,200,90160,1,8,0:0:0:0:
255,197,90444,1,4,0:0:0:0:
264,199,90730,1,4,0:0:0:0:
264,199,91016,1,12,0:0:0:0:
261,186,91588,1,4,0:0:0:0:
256,191,92731,1,8,0:0:0:0:
258,192,93874,1,8,0:0:0:0:
258,192,94446,1,0,0:0:0:0:
258,192,95017,1,8,0:0:0:0:
252,185,96160,1,8,0:0:0:0:
252,185,96731,1,0,0:0:0:0:
252,185,97303,1,8,0:0:0:0:
255,190,98160,1,8,0:0:0:0:
255,190,98446,1,8,0:0:0:0:
261,198,99017,1,8,0:0:0:0:
261,198,99589,1,8,0:0:0:0:
261,198,99874,1,8,0:0:0:0:
261,198,100017,1,8,0:0:0:0:
261,198,100160,1,8,0:0:0:0:
260,193,100731,1,8,0:0:0:0:
257,192,101160,1,0,0:0:0:0:
256,188,101589,1,8,0:0:0:0:
257,192,101874,1,8,0:0:0:0:
257,192,102160,1,0,0:0:0:0:
256,188,102446,1,8,0:0:0:0:
257,192,103017,1,8,0:0:0:0:
256,188,103446,1,0,0:0:0:0:
257,192,103874,1,8,0:0:0:0:
259,192,104160,1,8,0:0:0:0:
259,192,104446,1,8,0:0:0:0:
257,192,104731,1,0,0:0:0:0:
257,192,104874,1,0,0:0:0:0:
259,192,105303,1,8,0:0:0:0:
262,192,105731,1,0,0:0:0:0:
259,192,106160,1,0,0:0:0:0:
262,192,106446,1,8,0:0:0:0:
262,192,106731,1,8,0:0:0:0:
261,198,107017,1,8,0:0:0:0:
265,199,107303,1,8,0:0:0:0:
265,199,107446,1,8,0:0:0:0:
265,199,107589,1,8,0:0:0:0:
256,191,108017,1,8,0:0:0:0:
257,191,108446,1,8,0:0:0:0:
257,191,108589,1,8,0:0:0:0:
256,191,108731,1,4,0:0:0:0:
256,191,109017,1,4,0:0:0:0:
257,191,109303,1,12,0:0:0:0:
256,191,109874,1,4,0:0:0:0:
257,191,110446,1,8,0:0:0:0:
257,191,110731,1,8,0:0:0:0:
257,191,110874,1,8,0:0:0:0:
256,191,111017,1,4,0:0:0:0:
257,191,111589,1,8,0:0:0:0:
256,191,111874,1,4,0:0:0:0:
256,191,112160,1,4,0:0:0:0:
251,200,112731,1,8,0:0:0:0:
251,200,112874,1,8,0:0:0:0:
251,200,113017,1,8,0:0:0:0:
251,200,113303,1,4,0:0:0:0:
251,200,113589,1,8,0:0:0:0:
251,200,113874,1,4,0:0:0:0:
251,200,114160,1,8,0:0:0:0:
251,200,114446,1,4,0:0:0:0:
251,200,115017,1,8,0:0:0:0:
251,200,115303,1,8,0:0:0:0:
251,200,115446,1,8,0:0:0:0:
251,200,115589,1,4,0:0:0:0:
251,200,116160,1,8,0:0:0:0:
251,200,116446,1,4,0:0:0:0:
251,200,116731,1,4,0:0:0:0:
251,200,117303,1,8,0:0:0:0:
251,200,117446,1,8,0:0:0:0:
251,200,117589,1,8,0:0:0:0:
251,200,117874,1,4,0:0:0:0:
251,200,118160,1,4,0:0:0:0:
251,200,118446,1,12,0:0:0:0:
251,200,118731,1,0,0:0:0:0:
251,200,118874,1,0,0:0:0:0:
251,200,119017,1,8,0:0:0:0:
257,191,119589,1,12,0:0:0:0:
257,191,119874,1,8,0:0:0:0:
256,191,120160,1,4,0:0:0:0:
257,191,120732,1,8,0:0:0:0:
256,191,121017,1,4,0:0:0:0:
256,191,121303,1,4,0:0:0:0:
251,200,121874,1,8,0:0:0:0:
251,200,122017,1,8,0:0:0:0:
251,200,122160,1,8,0:0:0:0:
251,200,122446,1,4,0:0:0:0:
251,200,122732,1,8,0:0:0:0:
251,200,123017,1,4,0:0:0:0:
251,200,123303,1,8,0:0:0:0:
251,200,123589,1,4,0:0:0:0:
251,200,124160,1,8,0:0:0:0:
251,200,124446,1,8,0:0:0:0:
251,200,124589,1,8,0:0:0:0:
251,200,124732,1,4,0:0:0:0:
251,200,125303,1,8,0:0:0:0:
251,200,125589,1,4,0:0:0:0:
251,200,125874,1,4,0:0:0:0:
251,200,126446,1,8,0:0:0:0:
251,200,126589,1,8,0:0:0:0:
251,200,126732,1,8,0:0:0:0:
251,200,127017,1,4,0:0:0:0:
251,200,127303,1,4,0:0:0:0:
251,200,127589,1,12,0:0:0:0:
