osu file format v14

[General]
AudioFilename: audio.mp3
AudioLeadIn: 0
PreviewTime: 54775
Countdown: 0
SampleSet: Soft
StackLeniency: 0.2
Mode: 0
LetterboxInBreaks: 0
WidescreenStoryboard: 0

[Editor]
Bookmarks: 9132,18275,36561,54847,70847,73132,91418,100561,109704,127990
DistanceSpacing: 0.9
BeatDivisor: 4
GridSize: 4
TimelineZoom: 4.099998

[Metadata]
Title:Leprechaun
TitleUnicode:Leprechaun
Artist:Thaehan
ArtistUnicode:Thaehan
Creator:Mao
Version:Mythical
Source:osu!
Tags:loki bwa featured artist fa mappers' guild mg myxomatosis mir kuron-kun desperate-kun electronic medieval
BeatmapID:1540385
BeatmapSetID:729808

[Difficulty]
HPDrainRate:7
CircleSize:4.6
OverallDifficulty:8
ApproachRate:9.2
SliderMultiplier:2.22
SliderTickRate:2

[Events]
//Background and Video events
0,0,"bg.jpg",0,0
//Break Periods
2,91618,99991
//Storyboard Layer 0 (Background)
//Storyboard Layer 1 (Fail)
//Storyboard Layer 2 (Pass)
//Storyboard Layer 3 (Foreground)
//Storyboard Sound Samples

[TimingPoints]
-10,285.714285714286,4,2,0,20,1,0
9132,-133.333333333333,4,2,0,20,0,0
17132,-200,4,2,0,60,0,0
17418,-133.333333333333,4,2,0,60,0,0
17518,-66.6666666666667,4,2,0,60,0,0
18275,-90.9090909090909,4,2,0,60,0,0
19132,-66.6666666666667,4,2,0,60,0,0
19418,-90.9090909090909,4,2,0,60,0,0
20275,-66.6666666666667,4,2,0,60,0,0
20561,-90.9090909090909,4,2,0,60,0,0
21418,-66.6666666666667,4,2,0,60,0,0
21704,-90.9090909090909,4,2,0,60,0,0
21990,-66.6666666666667,4,2,0,60,0,0
22132,-90.9090909090909,4,2,0,60,0,0
22561,-66.6666666666667,4,2,0,60,0,0
22847,-90.9090909090909,4,2,0,60,0,0
23704,-66.6666666666667,4,2,0,60,0,0
23990,-90.9090909090909,4,2,0,60,0,0
24847,-66.6666666666667,4,2,0,60,0,0
25132,-90.9090909090909,4,2,0,60,0,0
25990,-66.6666666666667,4,2,0,60,0,0
26275,-200,4,2,0,60,0,0
26561,-133.333333333333,4,2,0,60,0,0
26847,-66.6666666666667,4,2,0,60,0,0
27418,-90.9090909090909,4,2,0,60,0,0
28275,-66.6666666666667,4,2,0,60,0,0
28561,-90.9090909090909,4,2,0,60,0,0
29418,-66.6666666666667,4,2,0,60,0,0
29704,-90.9090909090909,4,2,0,60,0,0
30561,-66.6666666666667,4,2,0,60,0,0
30847,-90.9090909090909,4,2,0,60,0,0
31132,-66.6666666666667,4,2,0,60,0,0
31418,-90.9090909090909,4,2,0,60,0,0
31704,-66.6666666666667,4,2,0,60,0,0
31990,-90.9090909090909,4,2,0,60,0,0
32847,-66.6666666666667,4,2,0,60,0,0
33132,-90.9090909090909,4,2,0,60,0,0
33990,-66.6666666666667,4,2,0,60,0,0
34204,-90.9090909090909,4,2,0,60,0,0
34847,-111.111111111111,4,2,0,60,0,0
35132,-90.9090909090909,4,2,0,60,0,0
35418,-200,4,2,0,60,0,0
35704,-133.333333333333,4,2,0,60,0,0
35990,-66.6666666666667,4,2,0,60,0,0
36561,-100,4,2,0,60,0,0
44847,-90.9090909090909,4,2,0,60,0,0
45132,-83.3333333333333,4,2,0,60,0,0
45418,-100,4,2,0,60,0,0
54847,-76.9230769230769,4,2,0,80,0,0
62847,-71.4285714285714,4,2,0,80,0,0
63132,-66.6666666666667,4,2,0,80,0,0
63918,-66.6666666666667,4,2,0,80,0,0
63990,-76.9230769230769,4,2,0,80,0,0
70847,-100,4,2,0,60,0,0
72275,-90.9090909090909,4,2,0,60,0,0
72561,-100,4,2,0,60,0,0
73132,-133.333333333333,4,2,0,60,0,0
75132,-50,4,2,0,60,0,0
75204,-50,4,2,0,60,0,0
75561,-133.333333333333,4,2,0,60,0,0
76132,-66.6666666666667,4,2,0,60,0,0
76704,-133.333333333333,4,2,0,60,0,0
79704,-50,4,2,0,60,0,0
79775,-50,4,2,0,60,0,0
79990,-133.333333333333,4,2,0,60,0,0
80704,-66.6666666666667,4,2,0,60,0,0
81418,-57.1428571428571,4,2,0,60,0,0
81704,-50,4,2,0,60,0,0
82275,-133.333333333333,4,2,0,60,0,0
84275,-50,4,2,0,60,0,0
84347,-50,4,2,0,60,0,0
84704,-133.333333333333,4,2,0,60,0,0
85275,-66.6666666666667,4,2,0,60,0,0
85847,-133.333333333333,4,2,0,60,0,0
88847,-50,4,2,0,60,0,0
88918,-50,4,2,0,60,0,0
89132,-133.333333333333,4,2,0,60,0,0
89847,-66.6666666666667,4,2,0,60,0,0
100561,-133.333333333333,4,2,0,20,0,0
108561,-200,4,2,0,60,0,0
108847,-133.333333333333,4,2,0,60,0,0
109132,-66.6666666666667,4,2,0,60,0,0
109704,-90.9090909090909,4,2,0,60,0,0
110561,-66.6666666666667,4,2,0,60,0,0
110847,-90.9090909090909,4,2,0,60,0,0
111704,-66.6666666666667,4,2,0,60,0,0
111990,-90.9090909090909,4,2,0,60,0,0
112847,-66.6666666666667,4,2,0,60,0,0
113132,-90.9090909090909,4,2,0,60,0,0
113418,-66.6666666666667,4,2,0,60,0,0
113704,-90.9090909090909,4,2,0,60,0,0
113990,-66.6666666666667,4,2,0,60,0,0
114275,-90.9090909090909,4,2,0,60,0,0
115132,-66.6666666666667,4,2,0,60,0,0
115418,-90.9090909090909,4,2,0,60,0,0
116275,-66.6666666666667,4,2,0,60,0,0
116561,-90.9090909090909,4,2,0,60,0,0
117418,-66.6666666666667,4,2,0,60,0,0
117704,-200,4,2,0,60,0,0
117990,-133.333333333333,4,2,0,60,0,0
118275,-66.6666666666667,4,2,0,60,0,0
118847,-83.3333333333333,4,2,0,60,0,0
119704,-66.6666666666667,4,2,0,60,0,0
119990,-83.3333333333333,4,2,0,60,0,0
120847,-66.6666666666667,4,2,0,60,0,0
121132,-83.3333333333333,4,2,0,60,0,0
121990,-66.6666666666667,4,2,0,60,0,0
122275,-83.3333333333333,4,2,0,60,0,0
122561,-66.6666666666667,4,2,0,60,0,0
122847,-83.3333333333333,4,2,0,60,0,0
123132,-66.6666666666667,4,2,0,60,0,0
123418,-83.3333333333333,4,2,0,60,0,0
124275,-66.6666666666667,4,2,0,60,0,0
124561,-83.3333333333333,4,2,0,60,0,0
125418,-66.6666666666667,4,2,0,60,0,0
125704,-83.3333333333333,4,2,0,60,0,0
126275,-100,4,2,0,60,0,0
126561,-76.9230769230769,4,2,0,60,0,0
126847,-133.333333333333,4,2,0,60,0,0
127132,-100,4,2,0,60,0,0
127418,-50,4,2,0,60,0,0
127561,-50,4,2,0,5,0,0

[Colours]
Combo1 : 242,234,187
Combo2 : 169,255,117
Combo3 : 245,245,245
Combo4 : 64,255,226
Combo5 : 0,255,0
Combo6 : 0,217,255
Combo7 : 255,106,111

[HitObjects]
165,59,9132,5,4,0:0:0:0:
161,75,9418,1,2,0:0:0:0:
220,132,9561,1,0,0:0:0:0:
185,206,9704,1,0,0:0:0:0:
104,196,9847,1,0,0:0:0:0:
88,115,9990,2,0,P|44:141|31:220,1,124.875004763603,2|0,0:0|0:0,0:0:0:0:
31,230,10275,5,2,0:0:0:0:
55,309,10418,1,0,0:0:0:0:
129,345,10561,1,0,0:0:0:0:
209,321,10704,1,0,0:0:0:0:
259,254,10847,2,0,P|309:249|376:337,1,166.500006351471,2|0,0:0|0:0,0:0:0:0:
451,154,11418,86,0,P|481:153|505:142,2,41.6250015878678,2|0|0,0:0|0:0|0:0,0:0:0:0:
377,194,11704,1,2,0:0:0:0:
377,110,11847,1,0,0:0:0:0:
303,149,11990,1,2,0:0:0:0:
301,66,12132,1,0,0:0:0:0:
228,106,12275,1,0,0:0:0:0:
31,36,12561,5,2,0:0:0:0:
31,36,12632,1,0,0:0:0:0:
31,36,12704,1,0,0:0:0:0:
106,70,12847,1,0,0:0:0:0:
135,148,12990,1,0,0:0:0:0:
105,225,13132,2,0,P|87:274|92:326,1,83.2500031757356,2|0,0:0|0:0,0:0:0:0:
93,324,13347,1,0,0:0:0:0:
102,342,13418,2,0,P|151:313|216:329,1,124.875004763603,2|0,0:0|0:0,0:0:0:0:
214,327,13704,86,0,P|206:300|205:267,1,41.6250015878678,4|0,0:0|0:0,0:0:0:0:
275,117,13990,1,0,0:0:0:0:
307,193,14132,1,0,0:0:0:0:
359,128,14275,2,0,P|385:162|342:268,1,166.500006351471,2|0,0:0|0:0,0:0:0:0:
256,192,14847,12,0,16847,0:0:0:0:
58,73,17132,6,0,P|53:110|81:165,1,83.25,4|0,1:2|0:0,0:0:0:0:
138,96,17418,86,0,P|154:58|187:33,1,83.25,4|2,3:0|0:0,0:0:0:0:
306,95,17704,38,2,P|269:90|214:118,1,83.25,0|0,1:0|0:0,0:3:0:0:
286,214,17990,5,4,3:0:0:0:
407,172,18132,1,4,3:0:0:0:
286,214,18275,54,2,B|233:184|233:184|229:245|229:245|213:273|213:273|210:307,1,183.150005589295,4|0,1:0|0:0,0:3:0:0:
208,326,18561,1,2,0:0:0:0:
307,373,18704,1,0,0:0:0:0:
368,282,18847,1,0,1:3:0:0:
456,347,18990,1,0,0:0:0:0:
503,162,19132,38,2,B|492:203|492:203|497:260,1,83.2500031757356,2|0,0:3|0:3,0:3:0:0:
431,148,19275,2,2,B|420:189|420:189|425:246,1,83.2500031757356,2|0,0:3|0:0,0:3:0:0:
379,358,19418,54,2,B|303:371|303:371|284:322|284:322|229:331,1,183.150005589295,6|0,1:3|0:0,0:3:0:0:
206,334,19704,1,2,0:0:0:0:
101,369,19847,1,0,0:0:0:0:
12,273,19990,1,2,1:2:0:0:
120,26,20275,38,0,B|130:95|130:95|144:92|144:92|130:95|130:95|141:164,1,166.500006351471,6|2,1:3|0:3,0:0:0:0:
145,187,20490,1,0,0:0:0:0:
148,211,20561,54,2,B|154:266|154:266|231:240|231:240|225:191,1,183.150005589295,4|0,1:0|0:0,0:3:0:0:
223,168,20847,1,2,0:0:0:0:
331,203,20990,1,0,0:0:0:0:
305,48,21132,6,0,B|297:75|297:75|300:114,1,61.0500018630982,2|0,1:3|0:0,0:0:0:0:
374,53,21275,2,0,B|366:80|366:80|369:119,1,61.0500018630982,2|0,3:2|0:0,0:0:0:0:
424,203,21418,22,2,B|435:244|435:244|430:301,1,83.2500031757356,2|0,3:0|0:0,0:3:0:0:
495,195,21561,2,2,B|506:236|506:236|501:293,1,83.2500031757356,2|0,3:2|0:0,0:3:0:0:
394,347,21704,54,0,B|363:338|363:338|318:333,2,61.0500018630982,6|0|0,1:3|0:0|0:0,0:0:0:0:
316,249,21990,38,2,B|248:280|248:280|240:295|240:295|255:368,1,166.500006351471,4|0,0:0|0:0,0:3:0:0:
159,334,22275,2,0,B|148:275|148:275|178:219,1,122.100003726196,0|0,1:0|0:0,0:0:0:0:
201,210,22490,1,0,0:0:0:0:
225,199,22561,2,2,B|292:167|292:167|300:152|300:152|285:79,1,166.500006351471,4|0,0:0|0:0,0:3:0:0:
151,24,22847,54,2,B|165:83|165:83|105:70|105:70|74:77|74:77|40:71,1,183.150005589295,4|0,1:0|0:0,0:3:0:0:
21,69,23132,1,2,0:0:0:0:
75,164,23275,1,0,0:0:0:0:
11,294,23418,2,2,B|131:279|131:279|187:314,1,183.150005589295,0|0,1:0|0:0,0:3:0:0:
206,323,23704,38,2,B|217:282|217:282|212:225,1,83.2500031757356,2|0,0:3|0:0,0:3:0:0:
277,331,23847,2,2,B|288:290|288:290|283:233,1,83.2500031757356,2|0,0:3|0:0,0:3:0:0:
255,99,23990,54,2,B|241:158|241:158|301:145|301:145|332:152|332:152|366:146,1,183.150005589295,6|0,1:3|0:0,0:3:0:0:
384,143,24275,1,2,0:0:0:0:
488,181,24418,1,0,0:0:0:0:
471,49,24561,1,2,1:0:0:0:
478,364,24847,38,0,B|412:341|412:341|417:327|417:327|412:341|412:341|346:317,1,166.500006351471,6|0,1:3|0:0,0:0:0:0:
325,307,25061,1,0,0:0:0:0:
302,297,25132,54,2,B|318:235|318:235|364:202|364:202|384:137,1,183.150005589295,4|0,1:0|0:0,0:3:0:0:
389,118,25418,1,2,0:0:0:0:
475,49,25561,1,0,0:0:0:0:
312,130,25704,6,2,B|283:125|283:125|249:107,1,61.0500018630982,2|0,1:3|0:0,0:3:0:0:
335,64,25847,2,0,B|306:59|306:59|272:41,1,61.0500018630982,2|0,3:2|0:0,0:0:0:0:
77,104,25990,22,2,B|118:114|118:114|164:146,1,83.2500031757356,2|0,3:0|0:0,0:3:0:0:
110,37,26132,2,2,B|151:47|151:47|197:79,1,83.2500031757356,2|0,3:2|0:0,0:3:0:0:
107,314,26275,54,0,B|90:276|90:276|96:231,1,83.25,4|0,1:2|0:0,0:0:0:0:
192,255,26561,6,0,B|206:216|206:216|242:188,1,83.25,4|2,3:0|0:0,0:0:0:0:
372,261,26847,22,2,B|331:256|331:256|293:273,1,83.25,2|0,1:0|0:0,0:3:0:0:
480,220,27132,69,4,3:0:0:0:
457,336,27275,1,4,3:0:0:0:
480,220,27418,86,2,B|492:160|492:160|432:175|432:175|401:168|401:168|369:175,1,183.150005589295,4|0,1:0|0:0,0:3:0:0:
348,179,27704,1,2,0:0:0:0:
328,70,27847,1,0,0:0:0:0:
235,129,27990,1,0,1:0:0:0:
209,22,28133,1,0,0:0:0:0:
150,152,28275,38,2,B|139:111|139:111|144:54,1,83.2500031757356,2|0,0:3|0:3,0:3:0:0:
78,166,28418,2,2,B|67:125|67:125|72:68,1,83.2500031757356,2|0,0:3|0:0,0:3:0:0:
34,259,28561,54,2,B|110:272|110:272|129:223|129:223|184:232,1,183.150005589295,6|0,1:3|0:0,0:3:0:0:
207,235,28847,1,2,0:0:0:0:
294,168,28990,1,0,0:0:0:0:
275,35,29133,1,0,1:0:0:0:
484,242,29418,38,0,B|417:252|417:252|415:237|415:237|417:252|417:252|348:262,1,166.500006351471,6|0,1:3|0:0,0:0:0:0:
337,284,29632,1,0,0:0:0:0:
326,306,29704,54,2,B|253:319|253:319|272:200,1,183.150005589295,6|0,1:0|0:0,0:3:0:0:
277,187,29990,1,2,0:0:0:0:
373,133,30133,1,0,0:0:0:0:
282,27,30275,6,0,B|290:54|290:54|287:93,1,61.0500018630982,2|0,1:3|0:0,0:0:0:0:
213,32,30418,2,0,B|221:59|221:59|218:98,1,61.0500018630982,2|0,3:2|0:0,0:0:0:0:
163,182,30561,22,2,B|152:223|152:223|157:280,1,83.2500031757356,2|0,3:0|0:0,0:3:0:0:
92,174,30704,2,2,B|81:215|81:215|86:272,1,83.2500031757356,2|0,3:2|0:0,0:3:0:0:
61,332,30847,54,0,B|27:333|27:333|-5:349,2,61.0500018630982,6|0|0,1:3|0:0|0:0,0:0:0:0:
199,369,31132,38,2,B|267:338|267:338|275:323|275:323|260:250,1,166.500006351471,4|0,0:0|0:0,0:3:0:0:
243,88,31418,2,2,B|295:113|295:113|368:84,1,122.100003726196,0|0,1:0|0:0,0:3:0:0:
373,104,31632,1,0,0:0:0:0:
392,118,31704,2,2,B|324:149|324:149|316:164|316:164|331:237,1,166.500006351471,4|0,0:0|0:0,0:3:0:0:
480,352,31990,54,2,B|463:293|463:293|417:334|417:334|386:342|386:342|360:364,1,183.150005589295,4|0,1:0|0:0,0:3:0:0:
346,378,32275,1,2,0:0:0:0:
257,312,32418,1,0,0:0:0:0:
114,369,32561,2,2,B|86:251|86:251|115:191,1,183.150005589295,0|0,1:0|0:0,0:3:0:0:
127,174,32847,38,2,B|85:167|85:167|28:178,1,83.2500031757356,2|0,0:3|0:0,0:3:0:0:
127,102,32990,2,2,B|85:95|85:95|28:106,1,83.2500031757356,2|0,0:3|0:0,0:3:0:0:
252,59,33132,54,2,B|192:44|192:44|205:104|205:104|198:135|198:135|204:169,1,183.150005589295,4|0,1:0|0:0,0:3:0:0:
206,188,33418,1,2,0:0:0:0:
280,268,33561,1,0,0:0:0:0:
210,378,33704,1,2,1:0:0:0:
512,247,33990,38,0,B|445:257|445:257|443:242|443:242|445:257|445:257|376:267,1,166.500006351471,6|0,1:3|0:0,0:0:0:0:
361,247,34204,1,0,0:0:0:0:
346,227,34275,54,2,B|348:168|348:168|401:125|401:125|459:135,1,183.150005589295,6|0,1:0|0:0,0:3:0:0:
480,140,34561,1,2,0:0:0:0:
449,44,34704,1,0,0:0:0:0:
315,108,34847,6,0,B|296:121|296:121|280:145,1,49.949998475647,2|0,0:3|0:0,0:0:0:0:
265,62,34990,2,0,B|247:75|247:75|231:98,1,49.949998475647,2|0,0:0|0:0,0:0:0:0:
156,196,35133,22,2,B|151:169|151:169|133:139,1,61.0500018630982,2|0,0:3|0:0,0:3:0:0:
86,224,35275,2,2,B|81:197|81:197|63:167,1,61.0500018630982,6|0,0:0|0:0,0:3:0:0:
166,362,35418,54,0,B|207:357|207:357|241:386,1,83.2500031757356,4|0,1:0|0:0,0:0:0:0:
314,336,35704,6,0,B|311:294|311:294|279:269,1,83.2500031757356,4|0,3:1|0:0,0:0:0:0:
424,283,35990,22,2,B|429:324|429:324|400:358,1,83.2500031757356,6|0,1:0|0:0,0:3:0:0:
458,100,36275,53,4,3:0:0:0:
325,124,36418,1,4,3:0:0:0:
512,1,36561,70,0,P|470:54|397:202,1,222,4|0,1:0|0:0,0:0:0:0:
293,55,36990,1,4,3:0:0:0:
293,55,37132,2,0,P|283:121|290:265,1,166.5,0|0,1:0|0:0,0:0:0:0:
290,241,37418,2,0,P|190:290|100:355,1,222,4|0,3:0|0:0,0:0:0:0:
8,165,37847,85,4,3:0:0:0:
8,165,37990,2,0,P|58:162|137:150,1,111,2|0,0:0|0:0,0:0:0:0:
228,13,38275,2,0,P|215:54|211:83,2,55.5,0|0|2,1:0|0:0|0:0,0:0:0:0:
248,197,38561,1,4,3:0:0:0:
373,132,38704,1,2,0:0:0:0:
262,304,38847,6,0,P|277:242|302:56,1,222,4|0,1:2|0:0,0:0:0:0:
446,5,39275,1,4,3:0:0:0:
446,5,39418,2,0,P|459:115|483:223,1,222,0|4,1:0|3:0,0:0:0:0:
512,320,39847,1,2,0:0:0:0:
294,365,39990,86,0,P|299:310|308:253,1,111,4|0,1:2|0:0,0:0:0:0:
208,88,40275,1,2,3:3:0:0:
208,88,40418,1,2,0:3:0:0:
208,88,40561,2,0,P|199:142|194:198,1,111,2|0,1:3|0:0,0:0:0:0:
60,364,40847,1,6,3:0:0:0:
60,364,40990,1,2,0:3:0:0:
60,364,41132,6,0,P|43:298|30:125,1,222,4|2,1:0|0:0,0:0:0:0:
164,11,41561,1,4,3:0:0:0:
164,11,41704,2,0,P|145:68|134:145,1,111,2|0,1:2|0:0,0:0:0:0:
213,323,41990,2,0,P|230:257|243:84,1,222,4|0,3:0|0:0,0:0:0:0:
402,272,42418,85,4,3:0:0:0:
402,272,42561,2,0,P|381:220|365:167,1,111,2|0,0:0|0:0,0:0:0:0:
296,378,42847,2,0,P|326:370|367:363,2,55.5,0|0|2,1:0|0:0|0:0,0:0:0:0:
464,371,43132,1,4,3:0:0:0:
321,288,43275,1,2,0:0:0:0:
464,184,43418,6,0,P|371:127|256:104,1,222,4|0,1:2|0:0,0:0:0:0:
34,90,43847,1,6,3:0:0:0:
34,90,43990,2,0,P|127:33|242:10,1,222,2|0,1:2|0:0,0:0:0:0:
324,33,44418,1,0,0:0:0:0:
284,212,44561,86,0,P|277:169|259:98,1,111,4|0,1:0|0:0,0:0:0:0:
365,257,44847,2,0,P|390:221|432:150,1,122.100003726196,6|0,3:0|0:0,0:0:0:0:
390,346,45132,2,0,P|433:339|521:313,1,133.199995935059,6|0,1:2|0:0,0:0:0:0:
236,370,45418,5,4,3:0:0:0:
365,257,45561,1,4,3:0:0:0:
211,66,45704,86,2,P|216:156|248:296,1,222,4|0,1:0|0:0,0:0:0:0:
52,207,46132,1,4,3:0:0:0:
52,207,46275,2,2,P|101:282|177:367,1,166.5,2|0,1:2|0:0,0:0:0:0:
165,351,46561,2,0,P|264:300|373:256,1,222,4|2,3:0|0:0,0:0:0:0:
493,61,46990,5,4,3:0:0:0:
493,61,47132,2,0,P|483:124|479:172,1,111,2|0,0:0|0:0,0:0:0:0:
489,374,47418,2,0,P|492:346|497:319,2,55.5,0|0|2,1:0|0:0|0:0,0:0:0:0:
422,213,47704,1,4,3:0:0:0:
338,357,47847,1,2,0:0:0:0:
285,96,47990,86,2,P|261:179|226:326,1,222,6|0,1:2|0:0,0:0:0:0:
88,371,48418,1,4,3:0:0:0:
88,371,48561,2,2,P|62:262|32:156,1,222,2|4,1:2|3:0,0:0:0:0:
0,70,48990,1,0,0:0:0:0:
186,18,49132,6,2,P|176:82|162:139,1,111,4|0,1:2|0:0,0:0:0:0:
265,329,49418,1,2,3:0:0:0:
265,329,49561,1,2,0:3:0:0:
265,329,49704,2,2,P|255:265|241:208,1,111,2|0,1:2|0:0,0:0:0:0:
364,45,49990,1,2,3:0:0:0:
364,45,50132,1,2,0:3:0:0:
364,45,50275,86,2,P|397:169|437:266,1,222,4|2,1:0|0:3,0:0:0:0:
295,371,50704,1,4,3:0:0:0:
295,371,50847,2,2,P|307:302|312:243,1,111,2|0,1:3|0:0,0:0:0:0:
230,57,51132,2,2,P|196:180|182:284,1,222,4|2,3:0|0:0,0:0:0:0:
19,95,51561,5,4,3:0:0:0:
19,95,51704,2,0,P|41:145|60:198,1,111,2|0,0:0|0:0,0:0:0:0:
34,384,51990,2,0,P|43:351|50:316,2,55.5,0|0|2,1:0|0:0|0:0,0:0:0:0:
7,261,52275,1,4,3:0:0:0:
123,375,52418,1,2,0:0:0:0:
282,288,52561,86,0,P|342:263|457:154,1,222,4|0,1:2|0:0,0:0:0:0:
247,214,52990,1,2,0:0:0:0:
247,214,53132,2,0,P|187:189|72:80,1,222,2|2,0:0|0:3,0:0:0:0:
48,0,53561,1,0,0:0:0:0:
238,118,53704,6,0,P|302:96|342:65,1,111,4|0,3:0|0:0,0:0:0:0:
340,74,53918,1,0,0:0:0:0:
343,78,53990,2,0,P|330:144|336:194,1,111,4|0,3:0|0:0,0:0:0:0:
492,291,54275,21,4,3:0:0:0:
325,360,54418,1,4,3:0:0:0:
473,367,54561,85,4,3:0:0:0:
312,280,54704,1,4,3:0:0:0:
447,45,54847,38,2,B|469:162|387:135|413:253,1,216.449990091706,6|0,1:0|0:0,0:3:0:0:
419,269,55132,1,0,1:0:0:0:
247,334,55275,1,4,3:0:0:0:
247,334,55347,1,0,0:0:0:0:
247,334,55418,2,0,B|168:337|192:287|113:294,1,144.299993394471,2|0,0:1|0:0,0:0:0:0:
134,117,55704,2,2,B|81:175|62:122|11:183,1,144.299993394471,0|0,1:0|0:0,0:3:0:0:
304,187,55990,70,2,B|286:134|321:102|294:46,1,144.299993394471,2|4,0:3|3:0,0:3:0:0:
290,38,56204,1,0,0:0:0:0:
287,31,56275,2,0,B|341:42|351:88|413:93,1,144.299993394471,2|2,1:0|0:0,0:0:0:0:
510,290,56561,1,2,0:0:0:0:
510,290,56632,1,0,0:0:0:0:
510,290,56704,1,0,0:0:0:0:
379,227,56847,1,0,1:0:0:0:
391,370,56990,1,4,3:0:0:0:
496,98,57132,22,2,B|379:120|406:38|288:64,1,216.449990091706,4|0,1:2|0:0,0:0:0:0:
270,72,57418,1,0,1:0:0:0:
41,30,57561,1,4,0:3:0:0:
41,30,57633,1,0,0:0:0:0:
41,30,57704,2,0,B|69:103|14:97|46:169,1,144.299993394471,2|4,0:1|3:0,0:0:0:0:
190,219,57990,2,2,B|145:284|200:287|160:355,1,144.299993394471,2|0,1:2|0:0,0:3:0:0:
165,65,58275,70,2,B|212:74|230:14|265:4|293:28,1,144.299993394471,4|0,1:0|0:0,0:3:0:0:
506,155,58561,2,0,B|460:140|475:79|449:54|414:60,1,144.299993394471,0|0,1:0|0:0,0:0:0:0:
406,60,58775,1,0,0:0:0:0:
399,63,58847,2,0,B|368:80|364:116|415:153|389:194,1,144.299993394471,4|0,1:2|0:0,0:0:0:0:
351,370,59132,1,4,3:0:0:0:
475,245,59275,1,4,3:0:0:0:
242,84,59418,22,2,B|246:202|320:158|321:279,1,216.449990091706,4|0,1:0|0:0,0:3:0:0:
319,295,59703,1,0,1:0:0:0:
140,372,59847,1,4,3:0:0:0:
140,372,59919,1,0,0:0:0:0:
140,372,59990,2,0,B|137:293|187:317|180:238,1,144.299993394471,2|0,0:1|0:0,0:0:0:0:
15,119,60275,2,2,B|21:198|66:165|77:244,1,144.299993394471,0|0,1:0|0:0,0:3:0:0:
249,30,60561,70,2,B|198:54|200:102|142:122,1,144.299993394471,2|4,0:3|3:0,0:3:0:0:
133,125,60775,1,0,0:0:0:0:
126,128,60847,2,0,B|171:158|211:132|258:173,1,144.299993394471,2|2,1:0|0:0,0:0:0:0:
354,379,61132,1,2,0:0:0:0:
354,379,61203,1,0,0:0:0:0:
354,379,61275,1,0,0:0:0:0:
382,234,61418,1,4,3:0:0:0:
488,330,61561,1,4,3:0:0:0:
224,285,61704,22,2,B|106:289|150:363|29:364,1,216.449990091706,4|0,1:2|0:0,0:3:0:0:
13,362,61989,1,0,1:0:0:0:
20,124,62132,1,4,3:0:0:0:
20,124,62204,1,0,0:0:0:0:
20,124,62275,2,0,B|54:195|85:148|123:218,1,144.299993394471,2|0,0:1|0:0,0:0:0:0:
267,32,62561,2,0,B|191:9|202:64|127:38,1,144.299993394471,2|0,1:2|0:0,0:0:0:0:
224,285,62847,70,0,B|245:211|218:202|239:129,1,155.399995257569,4|0,1:0|0:0,0:0:0:0:
469,243,63132,22,0,B|418:305|394:287|343:351,1,166.500006351471,4|0,1:2|0:0,0:0:0:0:
394,86,63418,53,4,1:0:0:0:
328,215,63561,1,4,3:0:0:0:
377,69,63704,5,4,1:3:0:0:
339,226,63847,1,4,3:0:0:0:
204,11,63990,22,2,B|245:122|160:110|206:221,1,216.449990091706,6|0,1:0|0:0,0:3:0:0:
215,236,64275,1,0,1:0:0:0:
343,350,64418,1,4,3:0:0:0:
343,350,64490,1,0,0:0:0:0:
343,350,64561,2,0,B|422:353|398:303|477:310,1,144.299993394471,2|4,0:1|3:0,0:0:0:0:
424,136,64847,2,2,B|357:178|352:122|287:168,1,144.299993394471,2|0,1:2|0:0,0:3:0:0:
172,367,65132,70,2,B|164:311|119:298|119:235,1,144.299993394471,2|4,0:3|3:0,0:3:0:0:
119,226,65346,1,0,0:0:0:0:
118,219,65418,2,0,B|74:252|85:298|31:329,1,144.299993394471,2|2,1:0|0:0,0:0:0:0:
96,100,65704,1,2,0:0:0:0:
96,100,65775,1,0,0:0:0:0:
96,100,65847,1,0,0:0:0:0:
226,167,65990,1,4,3:0:0:0:
216,24,66133,1,4,3:0:0:0:
463,88,66275,22,2,B|413:195|361:126|315:237,1,216.449990091706,6|0,1:0|0:0,0:3:0:0:
311,254,66561,1,0,1:0:0:0:
452,384,66704,1,4,3:0:0:0:
452,384,66776,1,0,0:0:0:0:
452,384,66847,2,2,B|455:305|405:329|412:250,1,144.299993394471,2|0,0:2|0:0,0:3:0:0:
244,158,67132,2,0,B|304:107|252:88|310:34,1,144.299993394471,2|0,1:2|0:0,0:0:0:0:
179,89,67418,69,4,1:2:0:0:
143,95,67489,1,0,0:0:0:0:
113,114,67561,1,0,0:0:0:0:
83,133,67632,1,0,0:0:0:0:
47,139,67703,1,2,1:0:0:0:
83,18,67847,1,2,0:0:0:0:
141,219,67990,2,2,B|112:282|74:265|43:324,1,144.299993394471,4|0,1:2|0:0,0:3:0:0:
242,368,68275,85,4,3:0:0:0:
212,182,68418,1,4,3:0:0:0:
457,261,68561,38,2,B|347:305|356:219|247:269,1,216.449990091706,6|0,1:0|0:0,0:3:0:0:
232,278,68847,1,0,1:0:0:0:
165,58,68990,1,4,3:0:0:0:
165,58,69062,1,0,0:0:0:0:
165,58,69133,2,0,B|168:137|118:113|125:192,1,144.299993394471,2|0,0:1|0:0,0:0:0:0:
286,144,69418,2,2,B|256:70|311:76|277:4,1,144.299993394471,2|0,1:2|0:0,0:3:0:0:
507,150,69704,70,2,B|457:123|420:151|369:115,1,144.299993394471,2|4,0:3|3:0,0:3:0:0:
361,110,69918,1,0,0:0:0:0:
355,105,69989,2,0,B|356:160|400:177|394:239,1,144.299993394471,2|2,1:0|0:0,0:0:0:0:
168,350,70275,1,2,0:1:0:0:
168,350,70346,1,0,0:0:0:0:
168,350,70418,1,0,0:0:0:0:
314,370,70561,1,0,1:0:0:0:
257,239,70704,1,0,0:0:0:0:
244,320,70847,86,2,B|141:296|131:365|27:341,1,222,2|0,3:0|1:0,0:0:0:0:
61,130,71275,1,2,0:0:0:0:
61,130,71347,1,0,0:0:0:0:
61,130,71418,2,2,B|48:182|83:187|71:238,1,111,2|0,0:0|0:0,0:0:0:0:
182,132,71704,2,2,B|194:81|159:76|172:24,1,111,0|2,1:0|0:0,0:0:0:0:
408,196,71990,6,0,B|355:181|349:200|297:185,1,111,2|0,3:0|0:0,0:0:0:0:
381,6,72275,22,2,B|427:44|413:61|461:100,1,122.100003726196
349,267,72561,53,0,1:0:0:0:
307,81,72704,1,4,0:3:0:0:
323,283,72847,5,4,1:3:0:0:
330,59,72990,1,4,3:0:0:0:
196,305,73132,5,4,1:0:0:0:
203,296,73418,2,0,L|197:211,1,83.2500031757356,2|0,0:1|0:0,0:0:0:0:
226,132,73704,1,4,3:0:0:0:
233,123,73990,2,2,L|227:38,1,83.2500031757356,2|0,0:0|0:0,0:3:0:0:
117,171,74275,85,4,1:2:0:0:
124,162,74561,2,0,L|118:77,1,83.2500031757356,2|0,0:1|0:0,0:0:0:0:
30,31,74847,1,4,3:0:0:0:
23,40,75132,38,2,L|38:261,1,222,6|0,0:2|0:0,0:3:0:0:
48,361,75418,1,4,3:0:0:0:
134,281,75561,54,0,L|143:234,1,41.6250015878678,2|0,0:3|0:0,0:0:0:0:
129,221,75704,2,0,L|138:174,1,41.6250015878678,2|0,0:3|0:0,0:0:0:0:
124,162,75847,2,0,L|133:115,1,41.6250015878678,2|0,0:3|0:0,0:0:0:0:
120,99,75990,1,4,1:3:0:0:
254,24,76132,38,2,L|271:110,1,83.2500031757356,2|0,0:3|0:0,0:3:0:0:
246,133,76275,2,2,L|263:219,1,83.2500031757356,2|0,0:3|0:0,0:3:0:0:
239,242,76418,2,2,L|256:328,1,83.2500031757356,2|0,0:3|0:0,0:3:0:0:
230,355,76561,1,2,1:3:0:0:
381,268,76704,54,0,L|390:221,1,41.6250015878678,2|0,0:3|0:0,0:0:0:0:
376,208,76847,2,0,L|385:161,1,41.6250015878678,2|0,0:3|0:0,0:0:0:0:
371,148,76990,2,0,L|380:101,1,41.6250015878678,2|0,0:3|0:0,0:0:0:0:
367,86,77133,37,4,1:2:0:0:
376,208,77275,1,2,0:0:0:0:
384,338,77418,1,2,0:0:0:0:
384,338,77704,69,4,1:0:0:0:
390,345,77990,2,0,L|292:355,1,83.2500031757356,2|0,0:1|0:0,0:0:0:0:
233,308,78275,1,4,3:0:0:0:
239,301,78561,2,2,L|141:291,1,83.2500031757356,2|0,0:0|0:0,0:1:0:0:
392,253,78847,85,4,1:2:0:0:
398,260,79133,2,0,L|300:270,1,83.2500031757356,2|0,0:1|0:0,0:0:0:0:
241,223,79418,1,4,3:0:0:0:
247,216,79704,38,2,L|24:193,1,222,6|0,0:0|0:0,0:3:0:0:
143,133,79990,54,0,L|215:140,2,55.5000021171571,2|0|0,0:3|0:0|0:0,0:0:0:0:
116,54,80275,2,0,L|188:61,1,41.6250015878678,2|0,0:3|0:0,0:0:0:0:
181,44,80418,2,0,L|253:51,1,41.6250015878678,2|0,0:3|0:0,0:0:0:0:
246,34,80561,1,0,1:0:0:0:
360,182,80704,38,2,L|234:194,1,83.2500031757356,2|0,0:3|0:0,0:3:0:0:
246,164,80847,2,2,L|120:176,1,83.2500031757356,2|0,0:3|0:0,0:3:0:0:
132,146,80990,2,2,L|6:158,1,83.2500031757356,2|0,0:3|0:0,0:3:0:0:
18,129,81132,54,0,L|36:310,1,166.500006351471,4|0,1:2|0:0,0:0:0:0:
151,339,81418,6,0,L|132:146,1,194.250001852512,4|0,1:3|0:0,0:0:0:0:
246,164,81704,22,0,L|268:386,1,222,6|0,1:0|0:0,0:0:0:0:
360,182,81990,53,4,3:0:0:0:
377,345,82132,1,4,3:0:0:0:
454,118,82275,5,4,1:0:0:0:
460,126,82561,2,0,L|466:211,1,83.2500031757356,2|0,0:1|0:0,0:0:0:0:
372,174,82847,1,4,3:0:0:0:
378,166,83133,2,2,L|384:81,1,83.2500031757356,2|0,0:0|0:0,0:3:0:0:
376,257,83418,85,4,1:2:0:0:
382,265,83704,2,0,L|388:350,1,83.2500031757356,2|0,0:1|0:0,0:0:0:0:
294,313,83990,1,4,3:0:0:0:
300,305,84276,38,2,L|316:74,1,222,6|0,0:0|0:0,0:3:0:0:
323,0,84561,1,0,1:0:0:0:
224,92,84704,54,0,L|177:101,1,41.6250015878678,2|0,0:3|0:0,0:0:0:0:
164,87,84847,2,0,L|117:96,1,41.6250015878678,2|0,0:3|0:0,0:0:0:0:
105,82,84990,2,0,L|58:91,1,41.6250015878678,2|0,0:3|0:0,0:0:0:0:
42,79,85133,1,4,1:3:0:0:
98,207,85275,38,2,L|184:224,1,83.2500031757356,2|0,0:3|0:0,0:3:0:0:
207,198,85418,2,2,L|293:215,1,83.2500031757356,2|0,0:3|0:0,0:3:0:0:
316,192,85561,2,2,L|402:209,1,83.2500031757356,2|0,0:3|0:0,0:3:0:0:
429,183,85704,1,2,1:3:0:0:
302,333,85847,54,0,L|255:342,1,41.6250015878678,2|0,0:3|0:0,0:0:0:0:
242,328,85990,2,0,L|195:337,1,41.6250015878678,2|0,0:3|0:0,0:0:0:0:
182,323,86133,2,0,L|135:332,1,41.6250015878678,2|0,0:3|0:0,0:0:0:0:
120,319,86276,37,4,1:2:0:0:
242,328,86418,1,2,0:0:0:0:
372,336,86561,1,2,0:0:0:0:
372,336,86847,69,4,1:0:0:0:
379,342,87133,2,0,L|477:332,1,83.2500031757356,2|0,0:1|0:0,0:0:0:0:
345,261,87418,1,4,3:0:0:0:
354,262,87704,2,2,L|433:204,1,83.2500031757356,2|0,0:0|0:0,0:3:0:0:
209,332,87990,85,4,1:2:0:0:
216,338,88276,2,0,L|314:328,1,83.2500031757356,2|0,0:1|0:0,0:0:0:0:
182,257,88561,1,4,3:0:0:0:
191,258,88847,38,2,L|376:121,1,222,6|0,0:0|0:0,0:3:0:0:
435,19,89133,54,0,L|417:95,2,55.5000021171571,6|0|0,3:0|0:0|0:0,0:0:0:0:
444,145,89418,2,0,L|429:207,1,41.6250015878678,2|0,0:3|0:0,0:0:0:0:
447,205,89561,2,0,L|432:267,1,41.6250015878678,2|0,0:3|0:0,0:0:0:0:
455,264,89704,1,0,1:0:0:0:
305,360,89847,38,2,L|288:274,1,83.2500031757356,2|0,0:3|0:0,0:3:0:0:
313,251,89990,2,2,L|296:165,1,83.2500031757356,2|0,0:3|0:0,0:3:0:0:
320,142,90133,2,2,L|303:56,1,83.2500031757356,2|0,0:3|0:0,0:3:0:0:
202,43,90275,69,4,1:0:0:0:
219,77,90418,1,0,0:0:0:0:
163,65,90561,1,4,1:3:0:0:
181,129,90704,1,0,0:0:0:0:
122,76,90847,1,4,1:2:0:0:
126,163,90990,1,0,0:0:0:0:
78,75,91132,1,2,0:0:0:0:
64,175,91275,1,0,0:0:0:0:
2,16,91418,85,6,0:0:0:0:
432,60,100561,85,4,0:0:0:0:
439,52,100847,1,2,0:0:0:0:
498,109,100990,1,0,0:0:0:0:
463,183,101133,1,0,0:0:0:0:
382,173,101276,1,0,0:0:0:0:
366,92,101419,2,0,P|322:118|309:197,1,124.875004763603,2|0,0:0|0:0,0:0:0:0:
309,207,101704,5,2,0:0:0:0:
323,288,101847,1,0,0:0:0:0:
289,364,101990,1,0,0:0:0:0:
208,381,102132,1,0,0:0:0:0:
141,330,102275,2,0,P|91:315|3:380,1,166.500006351471,2|0,0:0|0:0,0:0:0:0:
51,201,102847,86,0,P|57:228|57:266,2,41.6250015878678,2|0|0,0:0|0:0|0:0,0:0:0:0:
4,131,103132,1,2,0:0:0:0:
87,124,103275,1,0,0:0:0:0:
77,41,103418,1,0,0:0:0:0:
155,70,103561,1,0,0:0:0:0:
198,0,103704,1,2,0:0:0:0:
175,212,103990,5,2,0:0:0:0:
175,212,104061,1,0,0:0:0:0:
175,212,104133,1,0,0:0:0:0:
244,166,104276,1,0,0:0:0:0:
325,185,104419,1,0,0:0:0:0:
373,252,104561,2,0,P|391:301|386:353,1,83.2500031757356,2|0,0:0|0:0,0:0:0:0:
388,348,104776,1,0,0:0:0:0:
383,363,104847,2,0,P|447:364|491:316,1,124.875004763603,2|0,0:0|0:0,0:0:0:0:
488,323,105133,86,0,P|480:296|479:263,1,41.6250015878678,4|0,0:0|0:0,0:0:0:0:
487,80,105418,1,2,0:0:0:0:
465,160,105561,1,0,0:0:0:0:
407,99,105704,2,0,P|368:84|275:163,1,166.500006351471,2|0,0:0|0:0,0:0:0:0:
303,347,106275,5,0,0:0:0:0:
362,290,106418,1,0,0:0:0:0:
327,216,106561,1,0,0:0:0:0:
246,226,106704,1,0,0:0:0:0:
230,307,106847,2,0,P|186:281|173:202,1,124.875004763603
175,197,107132,1,2,0:0:0:0:
115,139,107275,1,0,0:0:0:0:
38,171,107418,1,2,0:0:0:0:
139,16,107704,85,2,0:0:0:0:
185,85,107847,1,0,0:0:0:0:
257,125,107990,1,0,0:0:0:0:
339,132,108132,1,0,0:0:0:0:
415,98,108275,1,2,0:0:0:0:
496,290,108561,6,0,P|501:253|473:198,1,83.25,4|0,1:2|0:0,0:0:0:0:
416,267,108847,86,0,P|400:305|367:330,1,83.25,4|2,3:0|0:0,0:0:0:0:
248,268,109133,38,2,P|285:273|340:245,1,83.25,0|0,1:0|0:0,0:3:0:0:
69,211,109419,5,4,3:0:0:0:
93,354,109561,1,4,3:0:0:0:
69,211,109704,54,2,B|117:178|117:178|93:120|93:120|72:116|72:116|50:77,1,183.150005589295,4|0,1:0|0:0,0:3:0:0:
39,59,109990,1,2,0:0:0:0:
141,19,110133,1,0,0:0:0:0:
201,109,110275,1,2,1:2:0:0:
303,69,110418,1,0,0:0:0:0:
364,218,110561,38,2,B|353:177|353:177|358:120,1,83.2500031757356,2|0,0:3|0:3,0:3:0:0:
292,232,110704,2,2,B|281:191|281:191|286:134,1,83.2500031757356,2|0,0:3|0:0,0:3:0:0:
457,55,110847,54,2,B|444:131|444:131|493:150|493:150|484:205,1,183.150005589295,6|0,1:3|0:0,0:3:0:0:
480,227,111133,1,2,0:0:0:0:
510,332,111276,1,0,0:0:0:0:
385,381,111419,1,2,1:2:0:0:
345,86,111704,38,0,B|349:115|349:115|357:113|357:113|358:122|358:122|350:123|350:123|358:181|358:181|350:182|350:182|351:190|351:190|359:189|359:189|363:218,1,166.500006351471,6|2,1:3|0:3,0:0:0:0:
368,242,111918,1,0,0:0:0:0:
372,266,111990,54,0,B|313:282|313:282|322:343|322:343|256:360,1,183.150005589295,6|0,1:0|0:0,0:0:0:0:
239,360,112276,1,2,0:0:0:0:
134,325,112419,1,0,0:0:0:0:
162,192,112561,6,0,B|170:219|170:219|167:258,1,61.0500018630982,2|0,1:3|0:0,0:0:0:0:
93,197,112704,2,0,B|101:224|101:224|98:263,1,61.0500018630982,2|0,3:2|0:0,0:0:0:0:
13,104,112847,22,2,B|24:63|24:63|19:6,1,83.2500031757356,2|0,3:0|0:0,0:3:0:0:
84,112,112990,2,2,B|95:71|95:71|90:14,1,83.2500031757356,2|0,3:2|0:0,0:3:0:0:
229,63,113133,54,0,B|196:64|196:64|152:73,2,61.0500018630982,6|0|0,0:3|0:0|3:0,0:0:0:0:
253,163,113418,38,2,B|326:173|326:173|326:164|326:164|335:164|335:164|327:90,1,166.500006351471,4|0,0:0|0:0,0:3:0:0:
466,65,113704,2,0,B|436:123|436:123|443:179,1,122.100003726196,0|0,1:0|0:0,0:0:0:0:
448,203,113919,1,0,0:0:0:0:
454,225,113990,2,2,B|380:214|380:214|380:223|380:223|371:223|371:223|379:297,1,166.500006351471,4|0,0:0|0:0,0:3:0:0:
242,367,114275,54,0,B|297:348|297:348|290:286|290:286|271:276|271:276|260:232,1,183.150005589295,6|0,1:0|0:0,0:0:0:0:
256,212,114561,1,2,0:0:0:0:
165,274,114704,1,0,0:0:0:0:
121,147,114847,2,2,B|236:111|236:111|297:136,1,183.150005589295,0|0,1:0|0:0,0:3:0:0:
317,146,115133,38,2,B|319:103|319:103|302:48,1,83.2500031757356,2|0,0:3|0:0,0:3:0:0:
388,139,115276,2,2,B|390:96|390:96|373:41,1,83.2500031757356,2|0,0:3|0:0,0:3:0:0:
237,16,115418,54,0,B|199:31|199:31|192:51|192:51|133:72|133:72|78:39,1,183.150005589295,6|0,1:3|0:0,0:0:0:0:
63,28,115704,1,2,0:0:0:0:
16,127,115847,1,0,0:0:0:0:
74,249,115990,1,2,1:0:0:0:
306,39,116275,38,0,B|299:67|299:67|292:65|292:65|290:74|290:74|298:75|298:75|286:132|286:132|294:134|294:134|292:142|292:142|284:140|284:140|278:169,1,166.500006351471,6|2,1:3|0:3,0:0:0:0:
275,193,116490,1,0,0:0:0:0:
270,216,116561,54,0,B|210:204|210:204|168:248|168:248|180:312,1,183.150005589295,6|0,1:0|0:0,0:0:0:0:
186,331,116847,1,2,0:0:0:0:
280,367,116990,1,0,0:0:0:0:
354,248,117132,6,0,B|346:275|346:275|349:314,1,61.0500018630982,2|0,1:3|0:0,0:0:0:0:
423,253,117275,2,0,B|415:280|415:280|418:319,1,61.0500018630982,2|0,3:2|0:0,0:0:0:0:
458,162,117418,22,2,B|447:121|447:121|452:64,1,83.2500031757356,2|0,3:0|0:0,0:3:0:0:
387,170,117561,2,2,B|376:129|376:129|381:72,1,83.2500031757356,2|0,3:2|0:0,0:3:0:0:
265,18,117704,54,0,B|283:55|283:55|278:100,1,83.25,4|0,1:2|0:0,0:0:0:0:
182,79,117990,6,0,B|169:118|169:118|134:147,1,83.25,4|2,3:0|0:0,0:0:0:0:
2,80,118276,22,2,B|43:83|43:83|80:65,1,83.25,2|0,1:0|0:0,0:3:0:0:
83,353,118561,69,4,3:0:0:0:
62,225,118704,1,4,3:0:0:0:
62,225,119418,86,2,B|67:273|67:273|45:293|45:293|82:353|82:353|139:343,1,199.799993902588,4|0,1:2|0:0,0:3:0:0:
153,339,119704,38,2,B|142:298|142:298|147:241,1,83.2500031757356,2|0,3:0|0:0,0:3:0:0:
224,331,119846,2,2,B|213:290|213:290|218:233,1,83.2500031757356,2|0,0:0|0:0,0:3:0:0:
321,159,119990,54,0,B|319:224|319:224|335:232|335:232|324:300|324:300|328:300|328:300|335:355,1,199.799993902588,6|0,1:3|0:0,0:0:0:0:
338,369,120276,1,2,0:0:0:0:
457,381,120419,1,0,0:0:0:0:
413,239,120562,1,2,1:0:0:0:
229,68,120847,38,0,B|257:60|257:60|255:53|255:53|264:51|264:51|265:59|265:59|322:47|322:47|324:55|324:55|332:53|332:53|330:45|330:45|359:39,1,166.500006351471,6|2,1:3|0:3,0:0:0:0:
385,33,121061,1,0,0:0:0:0:
411,28,121132,54,0,B|421:88|421:88|429:92|429:92|421:88|421:88|373:138|373:138|319:148,1,199.799993902588,6|0,1:0|0:0,0:0:0:0:
295,150,121418,1,2,0:0:0:0:
225,248,121562,1,0,0:0:0:0:
215,108,121704,6,0,B|223:135|223:135|220:174,1,66.5999979675294,2|0,1:3|0:0,0:0:0:0:
146,113,121847,2,0,B|154:139|154:139|151:179,1,66.5999979675294,2|0,3:2|0:0,0:0:0:0:
94,270,121990,22,2,B|83:310|83:310|88:368,1,83.2500031757356,2|0,3:0|0:0,0:3:0:0:
23,262,122133,2,2,B|12:302|12:302|17:359,1,83.2500031757356,2|0,3:2|0:0,0:3:0:0:
225,340,122275,54,0,B|192:336|192:336|161:312,2,66.5999979675294,6|0|0,1:3|0:0|0:0,0:0:0:0:
238,230,122561,38,2,B|313:220|313:220|318:214|318:214|313:220|313:220|328:295,1,166.500006351471,4|0,0:0|0:0,0:3:0:0:
454,384,122847,2,0,B|443:314|443:314|458:254,1,133.199995935059,0|0,1:0|0:0,0:0:0:0:
466,233,123061,1,0,0:0:0:0:
474,214,123132,2,2,B|398:223|398:223|393:229|393:229|398:223|398:223|383:148,1,166.500006351471,6|0,0:0|0:0,0:3:0:0:
462,11,123418,54,0,B|432:76|432:76|357:60|357:60|311:100,1,199.799993902588,6|0,1:0|0:0,0:0:0:0:
299,113,123704,1,2,0:0:0:0:
213,30,123847,1,0,0:0:0:0:
178,184,123990,2,0,B|44:176|44:176|3:118,1,199.799993902588,0|0,1:0|0:0,0:0:0:0:
8,100,124275,38,2,B|19:60|19:60|14:2,1,83.2500031757356,2|0,3:0|0:0,0:3:0:0:
81,111,124418,2,2,B|92:71|92:71|87:14,1,83.2500031757356,2|0,3:2|0:0,0:3:0:0:
213,30,124561,54,0,B|196:99|196:99|251:128|251:128|267:197,1,199.799993902588,6|0,1:3|0:0,0:0:0:0:
271,219,124847,1,2,0:0:0:0:
350,308,124990,1,0,0:0:0:0:
221,377,125132,1,2,1:0:0:0:
502,237,125418,38,0,B|474:229|474:229|476:222|476:222|467:220|467:220|466:228|466:228|409:216|409:216|407:224|407:224|399:222|399:222|401:214|401:214|372:208,1,166.500006351471,6|2,1:3|0:3,0:0:0:0:
350,223,125632,1,0,0:0:0:0:
330,241,125704,54,0,B|303:180|303:180|345:128|345:128|410:142,1,199.799993902588,6|0,1:0|0:0,0:0:0:0:
436,146,125990,1,2,0:0:0:0:
408,48,126132,1,0,0:0:0:0:
288,84,126275,6,2,B|270:105|270:105|244:118,1,55.5,2|0,1:0|0:0,0:0:0:0:
241,29,126418,2,0,B|225:48|225:48|198:62,1,55.5,2|0,3:2|0:0,0:0:0:0:
57,94,126561,22,2,B|51:63|51:63|59:23,1,72.1499966972353,2|0,3:0|0:0,0:3:0:0:
129,98,126703,2,2,B|123:66|123:66|131:26,1,72.1499966972353,2|0,3:2|0:0,0:3:0:0:
84,206,126847,54,0,B|57:259|57:259|65:325,1,124.875004763603,4|0,1:2|0:0,0:0:0:0:
205,293,127133,6,0,B|223:349|223:349|274:392,1,111,4|2,3:0|0:0,0:0:0:0:
465,294,127419,22,2,B|405:298|405:298|351:272,1,111,2|0,1:0|0:0,0:3:0:0:
