osu file format v14

[General]
AudioFilename: audio.mp3
AudioLeadIn: 0
PreviewTime: 54775
Countdown: 0
SampleSet: Soft
StackLeniency: 0.7
Mode: 0
LetterboxInBreaks: 0
WidescreenStoryboard: 1

[Editor]
Bookmarks: 9132,18275,36561,54847,70847,73132,91418,100561,109704,127418
DistanceSpacing: 0.9
BeatDivisor: 4
GridSize: 4
TimelineZoom: 2.2

[Metadata]
Title:Leprechaun
TitleUnicode:Leprechaun
Artist:Thaehan
ArtistUnicode:Thaehan
Creator:Mao
Version:Easy
Source:osu!
Tags:loki bwa featured artist fa mappers' guild mg myxomatosis mir kuron-kun desperate-kun electronic medieval
BeatmapID:1829907
BeatmapSetID:729808

[Difficulty]
HPDrainRate:2
CircleSize:3
OverallDifficulty:2.2
ApproachRate:3.3
SliderMultiplier:0.9
SliderTickRate:1

[Events]
//Background and Video events
0,0,"bg.jpg",0,0
//Break Periods
2,91618,99157
//Storyboard Layer 0 (Background)
//Storyboard Layer 1 (Fail)
//Storyboard Layer 2 (Pass)
//Storyboard Layer 3 (Foreground)
//Storyboard Sound Samples

[TimingPoints]
-10,285.714285714286,4,2,0,20,1,0
17132,-100,4,2,0,60,0,0
18275,-90.9090909090909,4,2,0,60,0,0
21704,-90.9090909090909,4,2,0,60,0,0
22847,-90.9090909090909,4,2,0,60,0,0
30847,-90.9090909090909,4,2,0,60,0,0
31990,-90.9090909090909,4,2,0,60,0,0
36561,-100,4,2,0,60,0,0
54847,-90.9090909090909,4,2,0,80,0,0
63918,-90.9090909090909,4,2,0,80,0,0
63990,-90.9090909090909,4,2,0,80,0,0
70847,-90.9090909090909,4,2,0,60,0,0
100561,-100,4,2,0,20,0,0
108561,-100,4,2,0,60,0,0
109704,-90.9090909090909,4,2,0,60,0,0
113132,-90.9090909090909,4,2,0,60,0,0
114275,-90.9090909090909,4,2,0,60,0,0
122275,-90.9090909090909,4,2,0,60,0,0
123418,-90.9090909090909,4,2,0,60,0,0

[Colours]
Combo1 : 242,234,187
Combo2 : 169,255,117
Combo3 : 245,245,245
Combo4 : 64,255,226
Combo5 : 0,255,0
Combo6 : 0,217,255
Combo7 : 255,106,111

[HitObjects]
326,79,9132,5,4,0:0:0:0:
289,163,9418,2,0,P|224:194|145:130,1,180,2|2,0:0|0:0,0:0:0:0:
74,78,10275,2,0,P|43:120|36:169,1,90,2|0,0:0|0:0,0:0:0:0:
48,245,10847,1,2,0:0:0:0:
174,373,11418,5,4,0:0:0:0:
237,309,11704,2,0,P|255:218|220:123,1,180,2|0,0:0|0:0,0:0:0:0:
186,57,12561,2,0,P|271:32|338:90,1,180,2|2,0:0|0:0,0:0:0:0:
294,260,13704,85,4,0:0:0:0:
332,341,13990,1,2,0:0:0:0:
420,356,14275,1,2,0:0:0:0:
501,195,14847,2,0,P|501:144|408:54,1,180,2|0,0:0|0:0,0:0:0:0:
328,75,15704,6,0,P|336:123|312:163,1,90,2|4,0:0|0:0,0:0:0:0:
255,223,16275,2,0,P|255:263|288:306,2,90,2|0|2,0:0|0:0|0:0,0:0:0:0:
187,150,17132,21,4,1:2:0:0:
223,58,17418,1,0,1:0:0:0:
142,0,17704,1,4,1:2:0:0:
18,154,18275,69,4,1:0:0:0:
31,242,18561,2,0,B|105:265|105:265|119:316|119:316|183:371,1,198.000006042481,2|2,0:0|0:0,0:0:0:0:
258,375,19418,1,0,1:0:0:0:
321,311,19704,1,2,0:0:0:0:
409,318,19990,1,8,1:0:0:0:
489,159,20561,5,4,1:2:0:0:
402,135,20847,2,0,B|363:163|363:163|356:217,2,99.0000030212403,2|8|2,0:0|1:0|0:0,0:0:0:0:
462,69,21704,1,0,1:0:0:0:
382,28,21990,2,0,B|354:20|354:20|281:44,1,99.0000030212403,2|8,0:3|1:0,0:0:0:0:
209,84,22561,1,2,0:0:0:0:
126,49,22847,85,4,1:2:0:0:
81,122,23132,2,0,B|38:147|38:147|-10:134,2,99.0000030212403,2|8|0,0:0|1:0|0:0,0:0:0:0:
161,162,23990,1,0,1:0:0:0:
115,238,24275,1,2,0:0:0:0:
151,319,24561,1,8,1:0:0:0:
324,358,25132,5,4,1:2:0:0:
389,297,25418,2,0,B|378:247|378:247|311:231|311:231|249:174,1,198.000006042481,2|2,0:0|0:0,0:0:0:0:
179,111,26275,21,4,1:2:0:0:
260,55,26561,1,0,1:0:0:0:
347,7,26847,1,4,1:2:0:0:
505,125,27418,53,4,1:0:0:0:
436,182,27704,2,0,B|429:225|429:225|406:254|406:254|436:298|436:298|416:317|416:317|399:374,1,198.000006042481,2|2,0:0|0:0,0:0:0:0:
320,378,28561,1,0,1:0:0:0:
270,303,28847,1,2,0:0:0:0:
182,321,29133,1,8,1:0:0:0:
197,143,29704,5,4,1:2:0:0:
112,113,29990,2,0,B|64:124|64:124|26:175,2,99.0000030212403,2|8|2,0:0|1:0|0:0,0:0:0:0:
153,34,30847,1,0,1:0:0:0:
238,58,31133,2,0,B|271:56|271:56|353:24,1,99.0000030212403,2|8,0:3|1:0,0:0:0:0:
418,9,31704,1,2,0:0:0:0:
441,95,31990,85,4,1:2:0:0:
503,157,32275,2,0,B|510:206|510:206|491:261,2,99.0000030212403,2|8|0,0:0|1:0|0:0,0:0:0:0:
416,181,33133,1,0,1:0:0:0:
347,237,33418,1,2,0:0:0:0:
271,186,33704,1,8,1:0:0:0:
190,344,34275,5,4,1:2:0:0:
108,308,34561,2,0,B|68:274|68:274|74:246|74:246|37:182|37:182|41:137,1,198.000006042481,0|0,0:0|0:0,0:0:0:0:
56,39,35418,21,4,1:2:0:0:
151,65,35704,1,0,1:0:0:0:
245,94,35990,1,8,1:0:0:0:
454,40,36561,6,0,P|463:102|485:184,1,135,4|4,1:0|3:0,0:0:0:0:
345,173,37418,2,0,P|354:235|376:317,1,135,4|4,3:0|3:0,0:0:0:0:
254,371,38275,1,0,1:0:0:0:
232,283,38561,1,4,3:0:0:0:
142,288,38847,6,0,P|76:270|9:260,2,135,4|4|4,3:0|3:0|3:0,0:0:0:0:
167,374,39990,1,4,1:0:0:0:
335,270,40561,1,4,1:0:0:0:
171,158,41132,86,0,P|151:92|137:26,1,135,4|4,1:2|3:0,0:0:0:0:
272,41,41990,2,0,P|286:106|305:171,1,135,4|4,3:0|3:0,0:0:0:0:
349,299,42847,1,0,1:0:0:0:
407,367,43132,1,4,3:0:0:0:
478,312,43418,2,0,P|494:225|520:128,1,180,4|0,3:0|1:0,0:0:0:0:
385,13,44561,5,4,1:2:0:0:
343,102,44847,1,0,1:0:0:0:
282,180,45132,1,4,1:2:0:0:
112,76,45704,86,0,P|83:137|61:200,1,135,4|4,1:0|3:0,0:0:0:0:
194,224,46561,2,0,P|222:285|244:348,1,135,4|4,3:0|3:0,0:0:0:0:
365,288,47418,1,0,1:0:0:0:
344,200,47704,1,4,3:0:0:0:
405,134,47990,6,0,P|469:166|538:198,2,135,4|4|0,3:0|3:0|3:0,0:0:0:0:
371,50,49133,1,4,1:0:0:0:
226,185,49704,1,4,1:0:0:0:
91,40,50275,86,0,P|74:114|46:182,1,135,4|4,3:0|3:0,0:0:0:0:
161,248,51132,2,0,P|165:315|187:389,1,135,4|4,3:0|3:0,0:0:0:0:
306,324,51990,1,0,1:0:0:0:
263,244,52275,1,4,3:0:0:0:
281,155,52561,2,0,P|340:172|438:248,1,180,4|0,1:2|0:0,0:0:0:0:
504,57,53704,5,6,3:0:0:0:
405,62,53990,1,4,3:0:0:0:
310,32,54275,1,4,3:0:0:0:
222,211,54847,54,0,B|193:255|228:321|199:354,2,148.50000453186,6|0|0,1:0|1:0|1:0,0:0:0:0:
335,114,56132,1,2,0:1:0:0:
216,24,56561,1,2,0:1:0:0:
176,103,56847,1,0,1:0:0:0:
92,133,57132,54,0,B|53:120|39:84|73:73|36:23|-3:18,2,148.50000453186,6|0|0,3:0|1:0|1:0,0:0:0:0:
162,187,58275,2,0,B|162:255|110:303|68:278|39:344,1,198.000006042481,2|2,0:1|0:1,0:0:0:0:
236,283,59418,6,0,B|232:220|285:215|292:177|274:149,2,148.50000453186,6|0|0,1:0|1:0|1:0,0:0:0:0:
357,369,60704,1,2,0:1:0:0:
478,283,61132,1,2,0:1:0:0:
422,213,61418,1,0,1:0:0:0:
491,156,61704,22,0,B|458:137|446:87|467:93|468:50|439:20,1,148.50000453186,6|0,3:0|1:0,0:0:0:0:
353,8,62418,1,4,3:0:0:0:
321,168,62847,53,4,1:2:0:0:
238,113,63132,1,0,1:0:0:0:
193,24,63418,1,4,1:2:0:0:
43,154,63990,6,0,B|18:224|57:213|50:276|14:293,2,148.50000453186,6|0|0,1:0|1:0|1:0,0:0:0:0:
188,182,65275,1,2,0:1:0:0:
221,326,65704,1,2,0:1:0:0:
305,353,65990,1,0,1:0:0:0:
365,288,66275,22,0,B|425:270|464:303|511:290,2,148.50000453186,6|0|0,3:0|1:0|1:0,0:0:0:0:
341,202,67418,2,0,B|354:145|419:112|434:159|479:143|507:92,1,198.000006042481,2|2,0:1|0:1,0:0:0:0:
303,72,68561,54,0,B|300:112|278:135|254:111|224:151|232:190,2,148.50000453186,6|0|0,1:0|1:0|1:0,0:0:0:0:
170,4,69847,1,2,0:1:0:0:
100,134,70275,1,2,0:1:0:0:
14,108,70561,1,0,1:0:0:0:
256,192,70847,12,0,71990,0:0:0:0:
102,92,73132,5,4,1:0:0:0:
169,34,73418,2,0,L|285:20,1,99.0000030212403,6|8,0:0|1:0,0:0:0:0:
271,111,73990,2,0,L|373:129,1,99.0000030212403,6|0,0:0|1:0,0:0:0:0:
384,40,74561,2,0,L|500:26,1,99.0000030212403,6|8,0:0|1:0,0:0:0:0:
492,206,75418,6,0,L|463:356,1,148.50000453186,0|2,1:0|0:3,0:0:0:0:
382,314,76132,2,0,L|404:199,1,99.0000030212403,2|2,0:3|0:3,0:0:0:0:
319,178,76704,2,0,L|290:328,1,148.50000453186,2|8,0:3|1:0,0:0:0:0:
100,379,77704,85,4,1:3:0:0:
48,306,77990,2,0,L|21:197,1,99.0000030212403,6|8,0:0|1:0,0:0:0:0:
112,197,78561,2,0,L|139:88,1,99.0000030212403,6|0,0:0|1:0,0:0:0:0:
46,95,79132,2,0,L|19:-14,1,99.0000030212403,6|8,0:0|1:0,0:0:0:0:
224,34,79990,6,0,L|394:60,1,148.50000453186,0|4,1:0|3:0,0:0:0:0:
459,68,80704,1,2,0:3:0:0:
356,174,81132,21,4,1:2:0:0:
412,255,81418,1,0,1:0:0:0:
468,336,81704,1,4,1:2:0:0:
274,377,82275,53,4,1:0:0:0:
189,347,82561,2,0,L|91:313,1,99.0000030212403,6|8,0:0|1:0,0:0:0:0:
129,232,83132,2,0,L|48:167,1,99.0000030212403,6|0,0:0|1:0,0:0:0:0:
111,103,83704,2,0,L|57:15,1,99.0000030212403,6|8,0:0|1:0,0:0:0:0:
259,19,84561,6,0,L|208:167,1,148.50000453186,0|2,1:0|0:3,0:0:0:0:
299,160,85275,2,0,L|300:263,1,99.0000030212403,2|2,0:3|0:3,0:0:0:0:
388,244,85847,2,0,L|442:388,1,148.50000453186,2|8,0:3|1:0,0:0:0:0:
504,216,86847,85,4,1:3:0:0:
491,127,87133,2,0,L|375:113,1,99.0000030212403,6|8,0:0|1:0,0:0:0:0:
372,28,87704,2,0,L|258:54,1,99.0000030212403,6|0,0:0|1:0,0:0:0:0:
248,135,88275,2,0,L|132:121,1,99.0000030212403,6|0,0:0|1:0,0:0:0:0:
19,272,89133,6,0,L|163:330,1,148.50000453186,0|4,1:0|3:0,0:0:0:0:
237,365,89847,1,2,0:3:0:0:
366,293,90275,21,4,1:2:0:0:
350,195,90561,1,0,1:0:0:0:
333,97,90847,1,4,1:2:0:0:
512,171,91418,37,4,1:0:0:0:
48,333,100561,5,4,0:0:0:0:
103,261,100847,2,0,P|161:220|264:269,1,180,2|2,0:0|0:0,0:0:0:0:
290,338,101704,2,0,P|327:362|380:363,1,90,2|0,0:0|0:0,0:0:0:0:
460,345,102276,1,2,0:0:0:0:
383,182,102847,85,4,0:0:0:0:
450,122,103132,2,0,P|433:61|324:34,1,180,2|0,0:0|0:0,0:0:0:0:
283,108,103990,2,0,P|219:111|141:30,1,180,2|2,0:0|0:0,0:0:0:0:
11,157,105133,5,4,0:0:0:0:
83,210,105419,1,2,0:0:0:0:
59,296,105704,1,2,0:0:0:0:
223,369,106276,2,0,P|260:323|245:202,1,180,2|0,0:0|0:0,0:0:0:0:
179,151,107133,86,0,P|186:104|219:75,1,90,2|4,0:0|0:0,0:0:0:0:
290,126,107704,2,0,P|325:155|376:158,2,90,2|0|2,0:0|0:0|0:0,0:0:0:0:
291,26,108561,37,4,1:2:0:0:
388,8,108847,1,0,1:0:0:0:
439,92,109133,1,4,1:2:0:0:
289,250,109704,69,4,1:0:0:0:
317,334,109990,2,0,B|389:304|389:304|446:346|446:346|494:305,1,198.000006042481,2|2,0:0|0:0,0:0:0:0:
497,226,110847,1,0,1:0:0:0:
426,171,111133,1,2,0:0:0:0:
451,85,111419,1,8,1:0:0:0:
278,11,111990,5,4,1:2:0:0:
296,98,112276,2,0,B|302:152|302:152|273:190,2,99.0000030212403,2|8|2,0:0|1:0|0:0,0:0:0:0:
211,68,113133,1,0,1:0:0:0:
144,8,113419,2,0,B|112:11|112:11|64:57,1,99.0000030212403,2|8,0:3|1:0,0:0:0:0:
4,123,113990,1,2,0:0:0:0:
65,187,114276,85,4,1:2:0:0:
34,267,114561,2,0,B|1:310|1:310|4:369,2,99.0000030212403,2|8|0,0:0|1:0|0:0,0:0:0:0:
121,285,115419,1,0,1:0:0:0:
167,360,115704,1,2,0:0:0:0:
249,325,115990,1,8,1:0:0:0:
180,139,116561,5,4,1:2:0:0:
244,77,116847,2,0,B|287:87|287:87|324:40|324:40|410:76,1,198.000006042481,2|2,0:0|0:0,0:0:0:0:
508,61,117704,21,4,1:2:0:0:
494,159,117990,1,0,1:0:0:0:
484,257,118276,1,4,1:2:0:0:
324,373,118847,53,2,0:0:0:0:
235,195,119418,6,0,B|268:198|268:198|335:147,1,99.0000030212403,4|2,1:0|0:0,0:0:0:0:
293,72,119990,1,0,1:0:0:0:
204,58,120276,1,2,0:0:0:0:
129,9,120562,1,8,1:0:0:0:
33,182,121133,85,4,1:2:0:0:
95,245,121419,2,0,B|66:285|66:285|13:291,2,99.0000030212403,2|8|2,0:0|1:0|0:0,0:0:0:0:
157,181,122276,1,0,1:0:0:0:
225,238,122562,2,0,B|253:230|253:230|307:288,1,99.0000030212403,2|8,0:3|1:0,0:0:0:0:
364,343,123133,1,2,0:0:0:0:
452,333,123419,5,4,1:2:0:0:
497,256,123704,2,0,B|507:236|507:236|484:159,2,99.0000030212403,2|8|0,0:0|1:0|0:0,0:0:0:0:
407,252,124562,1,0,1:0:0:0:
381,166,124847,1,2,0:0:0:0:
293,147,125133,1,8,1:0:0:0:
443,18,125704,85,4,1:2:0:0:
496,89,125990,2,0,B|446:60|446:60|387:67|387:67|309:32,1,198.000006042481,0|0,0:0|0:0,0:0:0:0:
204,38,126847,37,6,1:2:0:0:
230,143,127132,1,2,1:2:0:0:
256,249,127419,1,6,1:0:0:0:
