osu file format v14

[General]
AudioFilename: audio.mp3
AudioLeadIn: 0
PreviewTime: 34462
Countdown: 0
SampleSet: Soft
StackLeniency: 0.3
Mode: 0
LetterboxInBreaks: 0
WidescreenStoryboard: 1

[Editor]
DistanceSpacing: 0.8
BeatDivisor: 6
GridSize: 32
TimelineZoom: 4.199998

[Metadata]
Title:Kawaii
TitleUnicode:Kawaii
Artist:Thaehan
ArtistUnicode:Thaehan
Creator:Cris-
Version:Walao's Expert
Source:osu!
Tags:-Sh1n1- Shini [_L_u_k_a_s_] Lukas Minorsonek M2Usonek walaowey High Tempo Beatmap Pack FA Featured Artist Gremio Mappers' Guild MG OMGWTF! Electronic Instrumental Video Game Chiptune
BeatmapID:2133070
BeatmapSetID:1000338

[Difficulty]
HPDrainRate:5
CircleSize:3.3
OverallDifficulty:8
ApproachRate:9.4
SliderMultiplier:1.8
SliderTickRate:1

[Events]
//Background and Video events
0,0,"Kawaii.jpg",0,0
//Break Periods
//Storyboard Layer 0 (Background)
//Storyboard Layer 1 (Fail)
//Storyboard Layer 2 (Pass)
//Storyboard Layer 3 (Foreground)
//Storyboard Layer 4 (Overlay)
//Storyboard Sound Samples

[TimingPoints]
102,269.058295964126,4,2,1,50,1,0
102,-142.857142857143,4,2,1,50,0,0
8711,-125,4,2,1,55,0,0
16245,-125,4,2,1,60,0,0
17321,-111.111111111111,4,2,1,60,0,0
25931,-100,4,2,1,65,0,0
32388,-100,4,2,1,50,0,0
33465,-100,4,2,1,60,0,0
33734,-100,4,2,1,65,0,0
33913,-100,4,2,1,70,0,0
34541,-200,4,2,1,70,0,1
35079,-50,4,2,1,70,0,1
35797,-66.6666666666667,4,2,1,70,0,1
36155,-100,4,2,1,70,0,1
36424,-40,4,2,1,70,0,1
36962,-50,4,2,1,70,0,1
37232,-100,4,2,1,70,0,1
37770,-133.333333333333,4,2,1,70,0,1
38846,-50,4,2,1,70,0,1
39384,-66.6666666666667,4,2,1,70,0,1
40460,-200,4,2,1,70,0,1
41178,-50,4,2,1,70,0,1
41536,-100,4,2,1,70,0,1
41716,-50,4,2,1,70,0,1
42075,-66.6666666666667,4,2,1,70,0,1
42882,-100,4,2,1,70,0,0
43151,-200,4,2,1,70,0,1
43689,-50,4,2,1,70,0,1
44407,-66.6666666666667,4,2,1,70,0,1
44765,-100,4,2,1,70,0,1
45034,-40,4,2,1,70,0,1
45572,-50,4,2,1,70,0,1
45842,-100,4,2,1,70,0,1
46380,-133.333333333333,4,2,1,70,0,1
47456,-50,4,2,1,70,0,1
47994,-66.6666666666667,4,2,1,70,0,1
49070,-200,4,2,1,70,0,1
49608,-125,4,2,1,50,0,0
50146,-166.666666666667,4,2,1,50,0,0
50684,-250,4,2,1,50,0,0
51178,-133.333333333333,4,2,1,20,0,0
51223,-133.333333333333,4,2,1,35,0,0
51312,-133.333333333333,4,2,1,40,0,0
51402,-133.333333333333,4,2,1,45,0,0
51492,-133.333333333333,4,2,1,50,0,0
51581,-142.857142857143,4,2,1,50,0,0
60371,-125,4,2,1,60,0,0
61447,265.486725663717,4,2,1,60,1,0
61447,-125,4,2,1,60,0,0
62508,256.410256410256,4,2,1,62,1,0
62508,-125,4,2,1,62,0,0
63533,251.046025104603,4,2,1,65,1,0
63533,-125,4,2,1,65,0,0
64537,246.913580246914,4,2,1,68,1,0
64537,-125,4,2,1,68,0,0
65524,241.935483870968,4,2,1,71,1,0
65524,-125,4,2,1,71,0,0
66491,237.154150197628,4,2,1,74,1,0
66491,-125,4,2,1,74,0,0
67440,235.294117647059,4,2,1,77,1,0
67440,-125,4,2,1,77,0,0
68381,-111.111111111111,4,2,1,80,0,0
75910,-100,4,2,1,80,0,0
81557,-100,4,2,1,60,0,0
82498,-100,4,2,1,80,0,0
83440,-200,4,2,1,90,0,1
83910,-50,4,2,1,90,0,1
84538,-66.6666666666667,4,2,1,90,0,1
84851,-100,4,2,1,90,0,1
85087,-40,4,2,1,90,0,1
85557,-50,4,2,1,90,0,1
85792,-100,4,2,1,90,0,1
86263,-133.333333333333,4,2,1,90,0,1
87204,-50,4,2,1,90,0,1
87675,-66.6666666666667,4,2,1,90,0,1
88616,-200,4,2,1,90,0,1
89243,-50,4,2,1,90,0,1
89557,-100,4,2,1,90,0,1
89714,-50,4,2,1,90,0,1
90028,-66.6666666666667,4,2,1,90,0,1
90734,-100,4,2,1,90,0,0
90969,-200,4,2,1,90,0,1
91440,-50,4,2,1,90,0,1
92067,-66.6666666666667,4,2,1,90,0,1
92381,-100,4,2,1,90,0,1
92616,-40,4,2,1,90,0,1
93087,-50,4,2,1,90,0,1
93322,-100,4,2,1,90,0,1
93792,-133.333333333333,4,2,1,90,0,1
94734,-50,4,2,1,90,0,1
95204,-66.6666666666667,4,2,1,90,0,1
96145,-200,4,2,1,90,0,1
96381,-200,4,2,1,80,0,1
96616,-83.3333333333333,4,2,1,90,0,0

[Colours]
Combo1 : 97,192,147
Combo2 : 45,189,186
Combo3 : 248,120,123
Combo4 : 113,204,223

[HitObjects]
90,118,102,6,0,P|126:83|213:93,1,125.999996154785,6|2,0:0|0:0,0:0:0:0:
205,226,550,1,2,0:0:0:0:
205,226,640,2,0,P|174:198|161:158,1,83.9999974365235,10|2,0:0|0:0,0:0:0:0:
245,151,909,2,0,P|273:120|281:79,1,83.9999974365235,2|2,0:0|0:0,0:0:0:0:
198,83,1178,5,4,3:0:0:0:
383,213,1447,2,0,L|510:227,2,125.999996154785,2|10|2,0:0|0:0|0:0,0:0:0:0:
191,315,2254,6,0,L|316:300,1,125.999996154785,4|2,3:0|0:0,0:0:0:0:
113,284,2702,1,2,0:0:0:0:
113,284,2792,2,0,P|108:329|125:366,1,83.9999974365235,10|2,0:0|0:0,0:0:0:0:
191,315,3061,1,2,0:0:0:0:
76,144,3330,6,0,L|175:145,1,83.9999974365235,4|2,3:0|0:0,0:0:0:0:
171,58,3599,2,0,L|256:108,1,83.9999974365235,2|2,0:0|0:0,0:0:0:0:
295,28,3868,2,0,L|343:114,1,83.9999974365235,10|2,0:0|0:0,0:0:0:0:
416,67,4137,2,0,L|415:166,1,83.9999974365235,2|2,0:0|0:0,0:0:0:0:
337,276,4406,6,0,B|337:192|337:192|373:229,1,125.999996154785,6|2,0:0|0:0,0:0:0:0:
252,277,4855,1,2,0:0:0:0:
252,277,4945,2,0,L|252:169,1,83.9999974365235,10|2,0:0|0:0,0:0:0:0:
337,192,5214,2,0,L|337:276,1,83.9999974365235,2|2,0:0|0:0,0:0:0:0:
293,350,5483,6,0,P|243:315|170:328,1,125.999996154785,4|2,3:0|0:0,0:0:0:0:
13,186,6021,2,0,P|48:164|90:161,1,83.9999974365235,10|2,0:0|0:0,0:0:0:0:
153,219,6290,1,2,0:0:0:0:
54,369,6559,6,0,L|75:245,1,125.999996154785,4|2,3:0|0:0,0:0:0:0:
232,187,7007,1,2,0:0:0:0:
232,187,7097,2,0,L|325:201,1,83.9999974365235,10|2,0:0|0:0,0:0:0:0:
392,162,7366,1,2,0:0:0:0:
297,36,7635,6,0,L|283:118,1,83.9999974365235,6|0,3:0|0:0,0:0:0:0:
383,243,7904,2,0,L|396:325,1,83.9999974365235,6|0,3:0|0:0,0:0:0:0:
269,366,8173,1,10,0:0:0:0:
228,216,8353,1,2,0:0:0:0:
215,298,8442,1,2,0:0:0:0:
351,227,8622,1,2,0:0:0:0:
364,335,8711,6,0,B|398:349|398:349|383:243,1,144,6|2,0:0|0:0,0:0:0:0:
261,165,9160,1,2,0:0:0:0:
261,165,9249,2,0,P|228:193|150:197,1,96,10|2,0:0|0:0,0:0:0:0:
104,154,9519,2,0,P|137:126|215:122,1,96,2|2,0:0|0:0,0:0:0:0:
261,165,9788,5,4,3:0:0:0:
94,241,10057,2,0,B|48:225|48:225|-9:113,2,144,2|10|2,0:0|0:0|0:0,0:0:0:0:
187,115,10864,6,0,P|258:77|325:104,1,144,4|2,3:0|0:0,0:0:0:0:
297,249,11312,1,2,0:0:0:0:
297,249,11402,2,0,P|268:211|260:165,1,96,10|2,0:0|0:0,0:0:0:0:
348,176,11671,1,2,0:0:0:0:
206,270,11940,6,0,L|98:244,1,96,4|2,3:0|0:0,0:0:0:0:
212,300,12209,2,0,L|320:274,1,96,2|2,0:0|0:0,0:0:0:0:
202,321,12478,2,0,L|94:295,1,96,10|2,0:0|0:0,0:0:0:0:
205,348,12747,2,0,L|313:322,1,96,2|2,0:0|0:0,0:0:0:0:
434,225,13016,6,0,P|387:286|410:357,1,144,6|2,0:0|0:0,0:0:0:0:
506,182,13465,1,2,0:0:0:0:
506,182,13554,2,0,P|455:175|409:124,1,96,10|2,0:0|0:0,0:0:0:0:
406,61,13823,2,0,P|457:68|503:119,1,96,2|2,0:0|0:0,0:0:0:0:
421,147,14093,6,0,P|338:114|320:68,1,144,4|2,3:0|0:0,0:0:0:0:
106,44,14631,2,0,L|117:157,1,96,10|2,0:0|0:0,0:0:0:0:
125,225,14900,1,2,0:0:0:0:
319,67,15169,6,0,L|302:225,1,144,4|2,3:0|0:0,0:0:0:0:
223,353,15617,1,2,0:0:0:0:
223,353,15707,2,0,L|214:247,1,96,10|2,0:0|0:0,0:0:0:0:
303,293,15976,1,2,0:0:0:0:
125,225,16245,6,0,L|116:320,1,96,6|0,3:0|0:0,0:0:0:0:
214,257,16514,2,0,L|205:161,1,96,6|4,3:0|3:0,0:0:0:0:
156,47,16783,1,6,3:0:0:0:
125,128,16873,1,4,3:0:0:0:
205,161,16962,1,4,3:0:0:0:
236,79,17052,2,0,P|285:59|328:67,1,96,4|4,3:0|3:0,0:0:0:0:
476,114,17321,6,0,B|441:142|441:142|378:136,1,107.999996704102,6|0,0:0|0:0,0:0:0:0:
413,56,17590,1,2,0:0:0:0:
347,213,17770,1,2,0:0:0:0:
294,148,17859,2,0,P|264:202|286:270,1,107.999996704102,10|2,0:0|0:0,0:0:0:0:
289,328,18128,2,0,P|314:318|336:302,1,53.9999983520508,2|0,0:0|0:0,0:0:0:0:
205,301,18308,1,2,0:0:0:0:
205,301,18397,6,0,B|153:280|153:280|112:313,1,107.999996704102,4|0,3:0|0:0,0:0:0:0:
56,250,18667,2,0,L|161:165,1,107.999996704102,2|0,0:0|0:0,0:0:0:0:
240,220,18936,2,0,L|138:181,1,107.999996704102,10|2,0:0|0:0,0:0:0:0:
122,75,19205,2,0,L|139:181,1,107.999996704102,2|2,0:0|0:0,0:0:0:0:
205,301,19474,6,0,B|256:321|256:321|297:288,1,107.999996704102,4|0,3:0|0:0,0:0:0:0:
240,220,19743,1,2,0:0:0:0:
359,351,19922,1,2,0:0:0:0:
381,265,20012,2,0,L|385:184,1,53.9999983520508,10|0,0:0|0:0,0:0:0:0:
347,87,20191,1,2,0:0:0:0:
347,87,20281,2,0,L|353:216,1,107.999996704102,2|0,0:0|0:0,0:0:0:0:
475,248,20550,6,0,B|493:205|493:205|490:143,1,107.999996704102,6|0,3:0|0:0,0:0:0:0:
468,53,20819,5,2,0:0:0:0:
427,67,20909,1,2,0:0:0:0:
384,64,20998,1,2,0:0:0:0:
294,32,21088,5,10,0:0:0:0:
243,29,21177,1,2,0:0:0:0:
193,46,21267,1,2,0:0:0:0:
139,110,21357,2,0,L|141:148,5,26.9999991760254,2|2|2|2|2|2,0:0|0:0|0:0|0:0|0:0|0:0,0:0:0:0:
160,175,21626,6,0,B|155:46,1,107.999996704102,4|0,3:0|0:0,0:0:0:0:
76,31,21895,1,2,0:0:0:0:
82,215,22075,1,2,0:0:0:0:
160,175,22164,2,0,P|217:198|243:243,1,107.999996704102,10|2,0:0|0:0,0:0:0:0:
189,304,22433,2,0,P|170:285|159:261,1,53.9999983520508,2|0,0:0|0:0,0:0:0:0:
277,314,22613,1,2,0:0:0:0:
277,314,22702,6,0,B|331:326|331:326|401:304,1,107.999996704102,4|0,3:0|0:0,0:0:0:0:
429,238,22971,2,0,B|375:226|375:226|305:248,1,107.999996704102,2|0,0:0|0:0,0:0:0:0:
381,310,23241,2,0,P|405:320|437:323,1,53.9999983520508,10|0,0:0|0:0,0:0:0:0:
512,228,23420,1,2,0:0:0:0:
512,228,23510,2,0,L|400:204,1,107.999996704102,2|2,0:0|0:0,0:0:0:0:
308,56,23779,6,0,L|434:84,1,107.999996704102,4|0,3:0|0:0,0:0:0:0:
497,99,24048,1,2,0:0:0:0:
318,146,24227,1,2,0:0:0:0:
236,113,24317,2,0,L|183:124,1,53.9999983520508,10|0,0:0|0:0,0:0:0:0:
116,264,24496,1,2,0:0:0:0:
116,264,24586,2,0,P|127:212|103:157,1,107.999996704102,2|0,0:0|0:0,0:0:0:0:
6,94,24855,6,0,L|-5:42,2,53.9999983520508,6|2|2,3:0|0:0|0:0,0:0:0:0:
41,219,25124,2,0,L|30:271,2,53.9999983520508,6|2|2,3:0|0:0|0:0,0:0:0:0:
110,77,25393,1,2,3:0:0:0:
188,39,25483,1,2,3:0:0:0:
262,81,25572,1,2,3:0:0:0:
265,167,25662,2,0,L|252:203,5,26.9999991760254,2|2|2|2|2|2,3:0|0:0|3:0|0:0|3:0|0:0,0:0:0:0:
220,169,25931,6,0,P|245:228|256:283,1,120,6|0,0:0|0:0,0:0:0:0:
276,365,26200,1,2,0:0:0:0:
385,207,26380,1,2,0:0:0:0:
372,289,26469,2,0,L|365:364,1,60,10|0,0:0|0:0,0:0:0:0:
472,218,26649,1,2,0:0:0:0:
472,218,26738,2,0,P|466:168|403:121,1,120,2|2,0:0|0:0,0:0:0:0:
260,111,27007,6,0,B|234:125|234:125|324:133,1,120,4|0,3:0|0:0,0:0:0:0:
385,207,27276,2,0,P|328:217|290:275,1,120,2|0,0:0|0:0,0:0:0:0:
372,289,27545,2,0,P|317:269|255:300,1,120,10|2,0:0|0:0,0:0:0:0:
320,353,27815,2,0,P|282:308|213:304,1,120,2|2,0:0|0:0,0:0:0:0:
99,344,28084,6,0,B|113:369|113:369|121:279,1,120,4|0,3:0|0:0,0:0:0:0:
132,196,28353,1,2,0:0:0:0:
35,86,28532,1,2,0:0:0:0:
43,170,28622,2,0,L|49:231,1,60,10|0,0:0|0:0,0:0:0:0:
117,113,28801,1,2,0:0:0:0:
117,113,28891,2,0,P|178:122|216:182,1,120,2|0,0:0|0:0,0:0:0:0:
331,301,29160,6,0,B|319:167,1,120,6|0,3:0|0:0,0:0:0:0:
376,102,29429,5,2,0:0:0:0:
404,132,29519,1,2,0:0:0:0:
415,172,29608,1,2,0:0:0:0:
320,181,29698,5,10,0:0:0:0:
285,139,29788,1,2,0:0:0:0:
282,85,29877,1,2,0:0:0:0:
346,19,29967,2,0,L|395:11,5,30,2|2|2|2|2|2,0:0|0:0|0:0|0:0|0:0|0:0,0:0:0:0:
417,19,30236,6,0,P|376:40|286:27,1,120,4|0,3:0|0:0,0:0:0:0:
220,21,30505,1,2,0:0:0:0:
64,94,30685,1,2,0:0:0:0:
120,155,30774,2,0,P|146:102|132:46,1,120,10|2,0:0|0:0,0:0:0:0:
49,37,31043,2,0,P|51:66|64:94,1,60,2|0,0:0|0:0,0:0:0:0:
184,213,31223,1,2,0:0:0:0:
184,213,31312,6,0,B|174:337,1,120,4|0,3:0|0:0,0:0:0:0:
93,356,31581,2,0,L|104:230,1,120,2|0,0:0|0:0,0:0:0:0:
201,242,31851,2,0,L|196:312,1,60,10|0,0:0|0:0,0:0:0:0:
117,152,32030,1,2,0:0:0:0:
117,152,32120,2,0,P|155:128|238:142,1,120,2|2,0:0|0:0,0:0:0:0:
306,206,32388,6,0,P|368:210|320:138,1,180,2|2,0:0|0:0,0:0:0:0:
284,289,32837,1,2,0:0:0:0:
284,289,32927,2,0,P|348:301|409:282,1,120,2|2,0:0|0:0,0:0:0:0:
481,266,33196,2,0,P|441:310|424:367,1,120,2|0,0:0|0:0,0:0:0:0:
420,204,33465,6,0,L|437:147,2,60,6|2|2,3:0|0:0|0:0,0:0:0:0:
284,289,33734,2,0,L|301:346,2,60,6|2|2,3:0|0:0|0:0,0:0:0:0:
257,118,34003,1,2,3:0:0:0:
178,149,34093,1,2,3:0:0:0:
213,224,34182,1,2,3:0:0:0:
292,193,34272,2,0,P|307:183|329:164,5,30,2|2|2|2|2|2,3:0|0:0|3:0|0:0|0:0|0:0,0:0:0:0:
336,99,34541,6,0,B|280:48|280:48|257:118,1,150,14|0,0:0|0:0,0:0:0:0:
359,102,35079,6,0,B|273:23|273:23|222:180|222:180|213:80|97:35|20:100|9:181|35:220,1,600,10|0,0:0|0:0,0:0:0:0:
122,184,35617,5,4,3:0:0:0:
84,362,35797,2,0,L|83:269,1,90.0000034332277,2|0,0:0|0:0,0:0:0:0:
53,237,35931,2,0,B|55:351|55:351|116:310,1,180.000006866455,2|0,0:0|0:0,0:0:0:0:
182,355,36155,6,0,B|199:323|184:280|184:280|207:320|239:326,1,150,10|0,0:0|0:0,0:0:0:0:
316,299,36424,6,0,B|307:263|262:249|262:249|334:211|374:332|467:281|496:237,1,300,0|0,0:0|0:0,0:0:0:0:
413,184,36693,5,6,3:0:0:0:
398,141,36783,1,2,0:0:0:0:
440,127,36873,1,2,0:0:0:0:
455,170,36962,2,0,B|408:184|408:184|272:162|272:162|208:184,1,240,2|0,0:0|0:0,0:0:0:0:
107,278,37232,6,0,B|101:324|129:362|129:362|178:286|131:215|117:186|142:139,1,300,10|0,0:0|0:0,0:0:0:0:
288,62,37770,6,0,P|275:153|203:95,1,225.000008583069,6|0,3:0|0:0,0:0:0:0:
56,28,38308,5,10,0:0:0:0:
48,62,38397,1,2,0:0:0:0:
48,98,38487,1,2,0:0:0:0:
96,175,38577,5,2,0:0:0:0:
115,225,38666,1,2,0:0:0:0:
107,278,38756,1,2,0:0:0:0:
55,360,38846,6,0,P|28:335|16:308,1,60,4|0,3:0|0:0,0:0:0:0:
129,368,38980,2,0,P|92:369|64:358,1,60,2|0,0:0|0:0,0:0:0:0:
190,331,39115,2,0,P|165:358|138:370,1,60,2|0,0:0|0:0,0:0:0:0:
198,257,39249,2,0,P|199:293|188:321,1,60,2|0,0:0|0:0,0:0:0:0:
171,124,39384,6,0,B|170:177|204:204|204:204|246:137|360:149,1,225.000008583069,10|0,0:0|0:0,0:0:0:0:
338,188,39653,2,0,B|266:177|219:242|219:242|185:215|186:165,1,225.000008583069,0|0,0:0|0:0,0:0:0:0:
200,210,39922,2,0,B|200:261|234:288|234:288|276:221|350:231,1,225.000008583069,4|0,3:0|0:0,0:0:0:0:
367,271,40191,2,0,B|295:260|248:325|248:325|214:298|215:248,1,225.000008583069,0|0,0:0|0:0,0:0:0:0:
320,147,40460,6,0,B|370:141|370:141|420:172|420:172|471:166,1,150,10|0,0:0|0:0,0:0:0:0:
438,89,40998,1,4,3:0:0:0:
350,231,41178,6,0,P|286:226|326:147,2,180,2|0|2,0:0|0:0|0:0,0:0:0:0:
357,59,41536,2,0,L|297:66,1,60,10|0,0:0|0:0,0:0:0:0:
180,179,41716,2,0,P|116:174|156:95,2,180,2|0|2,0:0|0:0|0:0,0:0:0:0:
65,44,42075,6,0,P|30:99|65:240,1,180.000006866455,4|0,3:0|0:0,0:0:0:0:
48,40,42344,2,0,P|13:95|48:236,1,180.000006866455,4|0,3:0|0:0,0:0:0:0:
114,272,42613,5,2,0:0:0:0:
147,285,42702,1,2,0:0:0:0:
182,289,42792,1,2,0:0:0:0:
216,283,42882,2,0,B|237:252|237:252|187:289|131:258,1,150,2|0,0:0|0:0,0:0:0:0:
180,179,43151,6,0,B|239:142|294:180|294:180|292:158|303:131,1,165,14|0,0:0|0:0,0:0:0:0:
152,172,43689,6,0,B|228:109|315:152|334:196|334:196|321:137|353:72|428:75|428:75|385:139|388:211|447:242|489:254,1,600,10|0,0:0|0:0,0:0:0:0:
508,148,44227,5,4,3:0:0:0:
286,64,44407,2,0,P|237:57|184:66,1,90.0000034332277,2|0,0:0|0:0,0:0:0:0:
154,76,44541,2,0,P|241:101|356:60,1,180.000006866455,2|0,0:0|0:0,0:0:0:0:
392,16,44765,6,0,B|372:69|372:69|389:174,1,150,10|0,0:0|0:0,0:0:0:0:
437,273,45034,6,0,B|457:209|457:209|388:161|388:161|319:213|319:213|346:280,1,300,0|0,0:0|0:0,0:0:0:0:
449,357,45303,5,6,3:0:0:0:
404,355,45393,1,2,0:0:0:0:
358,352,45483,1,2,0:0:0:0:
317,348,45572,2,0,B|263:344|263:344|194:161,1,240,2|0,0:0|0:0,0:0:0:0:
68,141,45842,6,0,P|193:161|141:291,1,300,10|0,0:0|0:0,0:0:0:0:
67,140,46380,6,0,B|111:68|111:68|122:208,1,225.000008583069,6|0,3:0|0:0,0:0:0:0:
237,320,46918,5,10,0:0:0:0:
272,323,47007,1,2,0:0:0:0:
308,320,47097,1,2,0:0:0:0:
282,224,47187,5,2,0:0:0:0:
253,269,47277,1,2,0:0:0:0:
237,320,47366,1,2,0:0:0:0:
342,313,47456,6,0,P|362:287|372:255,1,60,4|0,3:0|0:0,0:0:0:0:
456,247,47590,2,0,P|443:216|420:192,1,60,2|0,0:0|0:0,0:0:0:0:
455,113,47725,2,0,P|422:108|389:116,1,60,2|0,0:0|0:0,0:0:0:0:
340,46,47859,2,0,P|320:71|310:103,1,60,2|0,0:0|0:0,0:0:0:0:
170,50,47994,6,0,B|160:113|198:196|198:196|191:153|214:126,1,225.000008583069,10|0,0:0|0:0,0:0:0:0:
248,144,48263,2,0,B|214:155|199:196|199:196|207:105|247:55,1,225.000008583069,0|0,0:0|0:0,0:0:0:0:
311,98,48532,2,0,B|251:121|198:195|198:195|232:168|266:175,1,225.000008583069,4|0,3:0|0:0,0:0:0:0:
268,212,48801,2,0,B|241:189|198:195|198:195|281:157|348:167,1,225.000008583069,0|0,0:0|0:0,0:0:0:0:
216,279,49070,6,0,B|170:284|145:262|145:262|121:286|66:280,1,150,10|0,0:0|0:0,0:0:0:0:
30,96,49608,6,0,P|132:101|93:196,1,240,4|0,3:0|0:0,0:0:0:0:
30,96,50146,6,0,P|115:83|136:162,1,179.999994506836,4|0,3:0|0:0,0:0:0:0:
30,96,50684,6,0,P|95:73|133:101,1,120,4|0,3:0|0:0,0:0:0:0:
212,125,51223,5,4,3:0:0:0:
223,127,51312,1,4,3:0:0:0:
247,128,51402,1,4,3:0:0:0:
283,125,51492,1,4,3:0:0:0:
329,114,51581,1,4,3:0:0:0:
382,86,51671,1,4,3:0:0:0:
437,31,51761,6,0,P|414:79|440:154,1,125.999996154785,6|2,0:0|0:0,0:0:0:0:
461,306,52209,1,2,0:0:0:0:
461,306,52299,2,0,P|474:264|460:213,1,83.9999974365235,10|2,0:0|0:0,0:0:0:0:
390,262,52568,2,0,P|377:304|391:355,1,83.9999974365235,2|2,0:0|0:0,0:0:0:0:
461,306,52837,5,4,3:0:0:0:
312,219,53106,2,0,P|254:221|196:257,2,125.999996154785,2|10|2,0:0|0:0|0:0,0:0:0:0:
135,334,53913,6,0,P|77:332|19:296,1,125.999996154785,4|2,3:0|0:0,0:0:0:0:
104,134,54361,1,2,0:0:0:0:
104,134,54451,2,0,L|111:220,1,83.9999974365235,10|2,0:0|0:0,0:0:0:0:
29,182,54720,1,2,0:0:0:0:
175,80,54989,6,0,P|217:65|266:80,1,83.9999974365235,4|2,3:0|0:0,0:0:0:0:
324,24,55258,2,0,P|339:63|332:104,1,83.9999974365235,2|2,0:0|0:0,0:0:0:0:
377,174,55528,2,0,P|338:189|298:182,1,83.9999974365235,10|2,0:0|0:0,0:0:0:0:
227,229,55797,2,0,P|212:190|220:149,1,83.9999974365235,2|2,0:0|0:0,0:0:0:0:
331,103,56065,6,0,P|399:93|451:133,1,125.999996154785,6|2,0:0|0:0,0:0:0:0:
380,257,56514,1,2,0:0:0:0:
380,257,56604,2,0,L|377:174,1,83.9999974365235,10|2,0:0|0:0,0:0:0:0:
455,204,56873,2,0,L|458:287,1,83.9999974365235,2|2,0:0|0:0,0:0:0:0:
392,340,57142,6,0,L|263:327,1,125.999996154785,4|2,3:0|0:0,0:0:0:0:
61,307,57680,2,0,L|144:297,1,83.9999974365235,10|2,0:0|0:0,0:0:0:0:
219,258,57949,1,2,0:0:0:0:
136,113,58218,6,0,P|99:163|105:224,1,125.999996154785,4|2,3:0|0:0,0:0:0:0:
261,188,58667,1,2,0:0:0:0:
261,188,58756,2,0,P|221:177|181:186,1,83.9999974365235,10|2,0:0|0:0,0:0:0:0:
219,258,59025,1,2,0:0:0:0:
332,136,59294,6,0,L|422:124,1,83.9999974365235,6|0,3:0|0:0,0:0:0:0:
386,275,59563,2,0,L|296:263,1,83.9999974365235,6|0,3:0|0:0,0:0:0:0:
253,106,59832,1,10,0:0:0:0:
415,124,60012,1,2,0:0:0:0:
440,203,60101,1,2,0:0:0:0:
339,102,60281,1,2,0:0:0:0:
294,223,60371,6,0,B|252:235|252:235|153:219,1,144,6|2,0:0|0:0,0:0:0:0:
96,51,60820,1,2,0:0:0:0:
96,51,60909,2,0,L|105:155,1,96,10|2,0:0|0:0,0:0:0:0:
66,224,61178,2,0,L|57:328,1,96,2|2,0:0|0:0,0:0:0:0:
129,370,61447,5,4,3:0:0:0:
332,282,61712,2,0,B|323:186|323:186|280:239,2,144,2|10|2,0:0|0:0|0:0,0:0:0:0:
129,370,62508,6,0,L|144:207,1,144,4|2,3:0|0:0,0:0:0:0:
232,48,62935,1,2,0:0:0:0:
232,48,63020,2,0,L|242:162,1,96,10|2,0:0|0:0,0:0:0:0:
233,231,63277,1,2,0:0:0:0:
66,168,63533,6,0,P|104:140|152:135,1,96,4|2,3:0|0:0,0:0:0:0:
233,231,63784,2,0,P|280:226|317:196,1,96,2|2,0:0|0:0,0:0:0:0:
324,108,64035,2,0,P|276:112|240:143,1,96,10|2,0:0|0:0,0:0:0:0:
142,226,64286,2,0,P|105:255|58:260,1,96,2|2,0:0|0:0,0:0:0:0:
151,134,64537,6,0,P|207:156|232:239,1,144,6|2,0:0|0:0,0:0:0:0:
391,341,64948,1,2,0:0:0:0:
391,341,65030,2,0,L|410:235,1,96,10|2,0:0|0:0,0:0:0:0:
320,243,65277,2,0,L|303:337,1,96,2|2,0:0|0:0,0:0:0:0:
391,341,65524,6,0,P|438:279|514:289,1,144,4|2,3:0|0:0,0:0:0:0:
303,337,66007,2,0,L|208:318,1,96,10|2,0:0|0:0,0:0:0:0:
123,300,66249,1,2,0:0:0:0:
220,139,66491,6,0,L|361:113,1,144,4|2,3:0|0:0,0:0:0:0:
249,235,66886,1,2,0:0:0:0:
249,235,66965,2,0,L|154:216,1,96,10|2,0:0|0:0,0:0:0:0:
124,135,67202,1,2,0:0:0:0:
344,18,67440,6,0,L|361:112,1,96,6|0,3:0|0:0,0:0:0:0:
333,294,67675,2,0,L|350:200,1,96,6|0,3:0|3:0,0:0:0:0:
443,83,67910,1,6,3:0:0:0:
510,137,67989,1,0,3:0:0:0:
430,168,68067,1,0,3:0:0:0:
361,112,68145,2,0,P|312:118|274:152,1,96,0|0,3:0|3:0,0:0:0:0:
207,273,68381,6,0,B|186:157,1,107.999996704102,6|0,0:0|0:0,0:0:0:0:
172,80,68616,1,2,0:0:0:0:
23,198,68773,1,2,0:0:0:0:
36,112,68851,2,0,P|85:137|109:202,1,107.999996704102,10|2,0:0|0:0,0:0:0:0:
77,264,69086,2,0,P|61:286|51:311,1,53.9999983520508,2|0,0:0|0:0,0:0:0:0:
176,362,69243,1,2,0:0:0:0:
176,362,69322,6,0,B|213:366|213:366|299:343,1,107.999996704102,4|0,3:0|0:0,0:0:0:0:
369,200,69557,2,0,L|360:320,1,107.999996704102,2|0,0:0|0:0,0:0:0:0:
322,166,69792,2,0,L|331:286,1,107.999996704102,10|2,0:0|0:0,0:0:0:0:
355,117,70028,2,0,L|346:237,1,107.999996704102,2|2,0:0|0:0,0:0:0:0:
267,52,70263,6,0,B|230:48|230:48|144:71,1,107.999996704102,4|0,3:0|0:0,0:0:0:0:
235,131,70498,1,2,0:0:0:0:
362,24,70655,1,2,0:0:0:0:
433,73,70734,2,0,L|438:136,1,53.9999983520508,10|0,0:0|0:0,0:0:0:0:
346,224,70890,1,2,0:0:0:0:
346,224,70969,2,0,P|284:213|235:241,1,107.999996704102,2|0,0:0|0:0,0:0:0:0:
426,321,71204,6,0,L|435:195,1,107.999996704102,6|0,3:0|0:0,0:0:0:0:
301,298,71440,5,2,0:0:0:0:
262,316,71518,1,2,0:0:0:0:
219,314,71596,1,2,0:0:0:0:
159,245,71675,2,0,P|135:273|128:304,2,53.9999983520508,10|2|2,0:0|0:0|0:0,0:0:0:0:
212,171,71910,2,0,L|232:189,5,26.9999991760254,2|2|2|2|2|2,0:0|0:0|0:0|0:0|0:0|0:0,0:0:0:0:
244,231,72145,6,0,P|294:211|346:224,1,107.999996704102,4|0,3:0|0:0,0:0:0:0:
301,298,72381,1,2,0:0:0:0:
378,140,72538,1,2,0:0:0:0:
311,85,72616,2,0,L|195:78,1,107.999996704102,10|2,0:0|0:0,0:0:0:0:
120,106,72851,2,0,L|66:108,1,53.9999983520508,2|0,0:0|0:0,0:0:0:0:
186,41,73008,1,2,0:0:0:0:
186,41,73087,6,0,B|316:49,1,107.999996704102,4|0,3:0|0:0,0:0:0:0:
323,129,73322,2,0,L|215:121,1,107.999996704102,2|0,0:0|0:0,0:0:0:0:
242,204,73557,2,0,L|313:209,1,53.9999983520508,10|0,0:0|0:0,0:0:0:0:
413,149,73714,1,2,0:0:0:0:
413,149,73792,2,0,P|375:207|376:264,1,107.999996704102,2|2,0:0|0:0,0:0:0:0:
478,328,74028,6,0,L|370:335,1,107.999996704102,4|0,3:0|0:0,0:0:0:0:
283,327,74263,1,2,0:0:0:0:
112,311,74420,1,2,0:0:0:0:
193,281,74498,2,0,L|197:357,1,53.9999983520508,10|0,0:0|0:0,0:0:0:0:
41,368,74655,1,2,0:0:0:0:
41,368,74734,2,0,B|25:315|25:315|40:250,1,107.999996704102,2|0,0:0|0:0,0:0:0:0:
132,171,74969,6,0,L|121:228,2,53.9999983520508,6|2|2,3:0|0:0|0:0,0:0:0:0:
35,111,75204,2,0,L|46:168,2,53.9999983520508,6|2|2,3:0|0:0|0:0,0:0:0:0:
123,50,75440,1,2,3:0:0:0:
207,64,75518,1,2,3:0:0:0:
152,130,75596,1,2,3:0:0:0:
123,50,75675,2,0,L|137:15,5,26.9999991760254,2|2|2|2|2|2,3:0|0:0|3:0|0:0|3:0|0:0,0:0:0:0:
167,47,75910,6,0,P|227:89|234:150,1,120,6|0,0:0|0:0,0:0:0:0:
214,213,76145,1,2,0:0:0:0:
377,279,76302,1,2,0:0:0:0:
333,205,76381,2,0,P|351:149|402:120,1,120,10|2,0:0|0:0,0:0:0:0:
466,176,76616,2,0,P|442:194|414:203,1,60,2|0,0:0|0:0,0:0:0:0:
289,275,76773,1,2,0:0:0:0:
289,275,76851,6,0,B|252:260|252:260|137:276,1,120,4|0,3:0|0:0,0:0:0:0:
58,290,77087,2,0,B|80:316|80:316|93:225,1,120,2|0,0:0|0:0,0:0:0:0:
27,144,77322,2,0,B|-6:150|-6:150|65:206,1,120,10|2,0:0|0:0,0:0:0:0:
167,189,77557,2,0,B|178:156|178:156|93:191,1,120,2|2,0:0|0:0,0:0:0:0:
172,271,77792,6,0,B|252:260|252:260|285:232,1,120,4|0,3:0|0:0,0:0:0:0:
345,175,78028,1,2,0:0:0:0:
312,16,78185,1,2,0:0:0:0:
274,91,78263,2,0,L|266:150,1,60,10|0,0:0|0:0,0:0:0:0:
406,113,78420,1,2,0:0:0:0:
406,113,78498,2,0,P|431:166|406:241,1,120,2|0,0:0|0:0,0:0:0:0:
282,234,78734,6,0,B|202:245|202:245|169:273,1,120,6|0,3:0|0:0,0:0:0:0:
111,334,78969,5,2,0:0:0:0:
87,291,79048,1,2,0:0:0:0:
91,243,79126,1,2,0:0:0:0:
144,157,79204,2,0,L|113:88,2,60,10|2|2,0:0|0:0|0:0,0:0:0:0:
255,124,79440,2,0,L|284:119,5,30,2|2|2|2|2|2,0:0|0:0|0:0|0:0|0:0|0:0,0:0:0:0:
314,89,79675,6,0,P|277:95|179:63,1,120,4|0,3:0|0:0,0:0:0:0:
133,20,79910,1,2,0:0:0:0:
385,37,80067,1,2,0:0:0:0:
313,89,80145,2,0,P|314:151|359:201,1,120,10|2,0:0|0:0,0:0:0:0:
429,165,80381,2,0,P|415:139|393:120,1,60,2|0,0:0|0:0,0:0:0:0:
271,233,80538,1,2,0:0:0:0:
271,233,80616,6,0,B|230:240|230:240|146:214,1,120,4|0,3:0|0:0,0:0:0:0:
122,138,80851,2,0,B|163:131|163:131|247:157,1,120,2|0,0:0|0:0,0:0:0:0:
155,216,81087,2,0,L|88:229,1,60,10|0,0:0|0:0,0:0:0:0:
65,66,81243,1,2,0:0:0:0:
65,66,81322,2,0,L|182:43,1,120,2|2,0:0|0:0,0:0:0:0:
319,127,81557,6,0,B|325:154|354:176|354:176|237:154,1,180,2|2,0:0|0:0,0:0:0:0:
401,103,81949,1,2,0:0:0:0:
401,103,82028,2,0,P|440:163|423:228,1,120,2|2,0:0|0:0,0:0:0:0:
387,280,82263,2,0,P|351:233|354:175,1,120,2|0,0:0|0:0,0:0:0:0:
467,287,82498,6,0,P|491:271|516:231,2,60,6|2|2,3:0|0:0|0:0,0:0:0:0:
362,359,82734,2,0,P|392:362|421:355,2,60,6|2|2,3:0|0:0|0:0,0:0:0:0:
259,233,82969,1,2,3:0:0:0:
179,206,83047,1,2,3:0:0:0:
128,273,83126,1,2,3:0:0:0:
175,342,83204,2,0,L|194:376,5,30,2|2|2|2|2|2,3:0|0:0|3:0|0:0|0:0|0:0,0:0:0:0:
255,316,83440,6,0,B|290:277|290:277|396:280,1,150,14|0,0:0|0:0,0:0:0:0:
213,326,83910,6,0,B|280:250|280:250|406:256|406:256|429:296|384:311|384:311|328:278|348:180|348:180|404:126|404:126|498:131,1,600,10|0,0:0|0:0,0:0:0:0:
483,218,84381,5,4,3:0:0:0:
355,63,84538,2,0,L|282:134,1,90.0000034332277,2|2,0:0|0:0,0:0:0:0:
295,170,84655,2,0,B|405:66|405:66|354:62,1,180.000006866455,2|0,0:0|0:0,0:0:0:0:
282,19,84851,6,0,B|210:88|210:88|206:156,1,150,10|0,0:0|0:0,0:0:0:0:
202,215,85087,6,0,B|207:138|207:138|133:52|133:52|121:217,1,300,2|0,0:0|0:0,0:0:0:0:
121,291,85322,5,6,3:0:0:0:
124,246,85400,1,2,0:0:0:0:
78,243,85479,1,2,0:0:0:0:
76,289,85557,2,0,B|123:291|123:291|168:349|168:349|219:296|219:296|267:299,1,240,2|0,0:0|0:0,0:0:0:0:
408,306,85792,6,0,P|381:331|397:228,1,300,10|0,0:0|0:0,0:0:0:0:
478,350,86263,6,0,B|494:287|494:287|470:240|470:240|467:187|467:187|422:141,1,225.000008583069,6|0,3:0|0:0,0:0:0:0:
349,108,86734,5,10,0:0:0:0:
315,119,86812,1,2,0:0:0:0:
279,116,86890,1,2,0:0:0:0:
205,65,86969,6,0,L|192:16,2,45.0000017166138,2|2|2,0:0|0:0|0:0,0:0:0:0:
279,116,87204,6,0,P|255:138|210:155,1,60,4|0,3:0|0:0,0:0:0:0:
206,233,87322,2,0,P|177:216|147:179,1,60,2|0,0:0|0:0,0:0:0:0:
72,200,87440,2,0,P|78:168|104:127,1,60,2|0,0:0|0:0,0:0:0:0:
62,62,87558,2,0,P|94:58|140:71,1,60,2|0,0:0|0:0,0:0:0:0:
279,116,87675,6,0,B|348:122|348:122|430:95|430:95|508:104,1,225.000008583069,10|0,0:0|0:0,0:0:0:0:
498,147,87910,2,0,B|429:139|429:139|346:165|346:165|277:159,1,225.000008583069,2|0,0:0|0:0,0:0:0:0:
279,204,88145,2,0,B|348:210|348:210|430:183|430:183|508:192,1,225.000008583069,4|0,3:0|0:0,0:0:0:0:
498,235,88380,2,0,B|429:227|429:227|346:253|346:253|277:247,1,225.000008583069,0|0,0:0|0:0,0:0:0:0:
177,109,88616,6,0,B|196:131|196:131|196:252,1,150,10|0,0:0|0:0,0:0:0:0:
127,336,89087,1,4,3:0:0:0:
46,226,89243,6,0,B|114:166|114:166|113:255,2,180,2|0|2,0:0|0:0|0:0,0:0:0:0:
127,336,89557,2,0,L|201:335,1,60,10|0,0:0|0:0,0:0:0:0:
263,222,89714,2,0,B|195:162|195:162|196:251,2,180,2|0|2,0:0|0:0|0:0,0:0:0:0:
357,318,90028,6,0,B|398:354|398:354|376:194,1,180.000006866455,4|0,3:0|0:0,0:0:0:0:
369,302,90263,2,0,B|410:338|410:338|388:178,1,180.000006866455,4|0,3:0|0:0,0:0:0:0:
321,108,90498,5,2,0:0:0:0:
322,144,90577,1,2,0:0:0:0:
354,127,90655,1,2,0:0:0:0:
321,108,90734,2,0,B|267:97|267:97|164:120,1,150,2|0,0:0|0:0,0:0:0:0:
115,183,90969,6,0,B|80:160|80:160|187:138,1,150,14|0,0:0|0:0,0:0:0:0:
128,218,91440,6,0,B|25:152|25:152|233:105|233:105|175:243|208:320|317:293|281:234|250:220,1,600,10|0,0:0|0:0,0:0:0:0:
149,298,91910,5,4,3:0:0:0:
351,305,92067,2,0,P|362:260|349:200,1,90.0000034332277,2|2,0:0|0:0,0:0:0:0:
364,172,92185,2,0,P|378:277|361:349,1,180.000006866455,2|0,0:0|0:0,0:0:0:0:
280,366,92381,6,0,B|261:324|261:324|361:347,1,150,10|0,0:0|0:0,0:0:0:0:
457,315,92616,6,0,B|417:261|417:261|260:225|260:225|157:262,1,300,2|0,0:0|0:0,0:0:0:0:
48,326,92851,5,6,3:0:0:0:
92,316,92930,1,2,0:0:0:0:
116,278,93008,1,2,0:0:0:0:
112,232,93087,2,0,B|72:188|1:226|50:289|119:295|210:238,1,240,2|0,0:0|0:0,0:0:0:0:
258,135,93322,6,0,B|210:135|210:135|170:175|170:175|127:97|127:97|82:135|82:135|26:135,1,300,10|0,0:0|0:0,0:0:0:0:
201,56,93792,6,0,B|297:56|297:56|337:96|337:96|417:96,1,225.000008583069,6|0,3:0|0:0,0:0:0:0:
468,36,94263,5,10,0:0:0:0:
489,66,94341,1,2,0:0:0:0:
494,102,94420,1,2,0:0:0:0:
504,196,94498,6,0,L|498:240,2,45.0000017166138,2|2|2,0:0|0:0|0:0,0:0:0:0:
409,96,94734,6,0,L|417:160,1,60,4|0,3:0|0:0,0:0:0:0:
333,242,94851,2,0,L|339:182,1,60,2|0,0:0|0:0,0:0:0:0:
328,95,94969,2,0,L|336:159,1,60,2|0,0:0|0:0,0:0:0:0:
414,243,95086,2,0,L|421:184,1,60,2|0,0:0|0:0,0:0:0:0:
328,95,95204,6,0,P|246:39|158:141,1,225.000008583069,10|0,0:0|0:0,0:0:0:0:
164,174,95440,2,0,P|257:224|335:153,1,225.000008583069,2|0,0:0|0:0,0:0:0:0:
328,95,95675,2,0,P|246:39|158:141,1,225.000008583069,4|0,3:0|0:0,0:0:0:0:
164,174,95911,2,0,P|257:224|335:153,1,225.000008583069,0|0,0:0|0:0,0:0:0:0:
247,132,96145,6,0,B|247:180|247:180|279:228|279:228|279:284,1,150,10|0,0:0|0:0,0:0:0:0:
189,354,96616,6,0,L|110:368,5,71.9999978027344,4|2|2|2|2|2,3:0|0:0|0:0|0:0|0:0|0:0,0:0:0:0:
70,274,97087,2,0,L|0:261,5,71.9999978027344,4|2|2|2|2|2,3:0|0:0|0:0|0:0|0:0|0:0,0:0:0:0:
60,142,97557,5,4,3:0:0:0:
60,142,97636,1,2,0:0:0:0:
60,142,97714,1,2,0:0:0:0:
60,142,97792,2,0,L|71:71,2,71.9999978027344,2|2|2,0:0|0:0|0:0,0:0:0:0:
173,188,98028,1,4,3:0:0:0:
173,188,98107,1,2,0:0:0:0:
173,188,98185,1,2,0:0:0:0:
173,188,98263,2,0,L|184:258,2,71.9999978027344,2|2|2,0:0|0:0|0:0,0:0:0:0:
251,80,98498,5,4,3:0:0:0:
272,76,98577,1,2,0:0:0:0:
293,73,98655,1,2,0:0:0:0:
314,70,98734,2,0,L|386:83,2,71.9999978027344,2|2|2,0:0|0:0|0:0,0:0:0:0:
295,203,98969,1,4,3:0:0:0:
316,207,99048,1,2,0:0:0:0:
337,210,99126,1,2,0:0:0:0:
358,213,99205,2,0,L|430:200,2,71.9999978027344,2|2|2,0:0|0:0|0:0,0:0:0:0:
241,293,99440,6,0,L|255:364,2,71.9999978027344,2|2|2,0:0|0:0|0:0,0:0:0:0:
173,188,99675,2,0,L|101:198,2,71.9999978027344,2|2|2,0:0|0:0|0:0,0:0:0:0:
290,108,99910,1,2,0:0:0:0:
286,88,99988,1,2,0:0:0:0:
282,67,100067,1,2,0:0:0:0:
278,45,100145,2,0,B|251:14|251:14|270:116,1,143.999995605469,2|0,0:0|0:0,0:0:0:0:
270,199,100381,5,6,0:0:0:0:
