osu file format v14

[General]
AudioFilename: audio.mp3
AudioLeadIn: 0
PreviewTime: 34462
Countdown: 0
SampleSet: Soft
StackLeniency: 0.3
Mode: 0
LetterboxInBreaks: 0
WidescreenStoryboard: 0

[Editor]
DistanceSpacing: 1.6
BeatDivisor: 3
GridSize: 32
TimelineZoom: 2.599999

[Metadata]
Title:Kawaii
TitleUnicode:Kawaii
Artist:Thaehan
ArtistUnicode:Thaehan
Creator:Cris-
Version:Sh1n1's Hard
Source:osu!
Tags:-Sh1n1- Shini [_L_u_k_a_s_] Lukas Minorsonek M2Usonek walaowey High Tempo Beatmap Pack FA Featured Artist Gremio Mappers' Guild MG OMGWTF! Electronic Instrumental Video Game Chiptune
BeatmapID:2134432
BeatmapSetID:1000338

[Difficulty]
HPDrainRate:4
CircleSize:3
OverallDifficulty:7
ApproachRate:8
SliderMultiplier:1.6
SliderTickRate:1

[Events]
//Background and Video events
0,0,"Kawaii.jpg",0,0
//Break Periods
//Storyboard Layer 0 (Background)
//Storyboard Layer 1 (Fail)
//Storyboard Layer 2 (Pass)
//Storyboard Layer 3 (Foreground)
//Storyboard Layer 4 (Overlay)
//Storyboard Sound Samples

[TimingPoints]
102,269.058295964126,4,2,1,50,1,0
102,-100,4,2,1,50,0,0
1626,-100,4,2,1,5,0,0
1716,-100,4,2,1,50,0,0
1895,-100,4,2,1,5,0,0
1985,-100,4,2,1,50,0,0
2164,-100,4,2,1,5,0,0
2254,-100,4,2,1,50,0,0
5931,-100,4,2,1,5,0,0
6021,-100,4,2,1,50,0,0
7815,-100,4,2,1,5,0,0
7904,-100,4,2,1,50,0,0
8084,-100,4,2,1,5,0,0
8173,-100,4,2,1,50,0,0
8711,-100,4,2,1,55,0,0
8891,-100,4,2,1,5,0,0
8980,-100,4,2,1,55,0,0
10236,-100,4,2,1,5,0,0
10326,-100,4,2,1,55,0,0
10505,-100,4,2,1,5,0,0
10595,-100,4,2,1,55,0,0
10774,-100,4,2,1,5,0,0
10864,-100,4,2,1,55,0,0
11043,-100,4,2,1,5,0,0
11133,-100,4,2,1,55,0,0
11850,-100,4,2,1,5,0,0
11940,-100,4,2,1,55,0,0
15348,-100,4,2,1,5,0,0
15438,-100,4,2,1,55,0,0
16155,-100,4,2,1,5,0,0
16245,-100,4,2,1,60,0,0
16424,-100,4,2,1,5,0,0
16514,-100,4,2,1,60,0,0
17321,-100,4,2,1,60,0,0
20550,-100,4,2,1,60,0,0
20819,-100,4,2,1,60,0,0
23196,-100,4,2,1,5,0,0
23241,-100,4,2,1,60,0,0
24810,-100,4,2,1,5,0,0
24855,-100,4,2,1,60,0,0
25931,-100,4,2,1,65,0,0
29160,-100,4,2,1,65,0,0
29429,-100,4,2,1,65,0,0
32388,-100,4,2,1,50,0,0
33420,-100,4,2,1,5,0,0
33465,-100,4,2,1,60,0,0
33734,-100,4,2,1,65,0,0
33913,-100,4,2,1,70,0,0
34541,-100,4,2,1,70,0,1
35617,-100,4,2,1,70,0,1
36110,-100,4,2,1,5,0,1
36155,-100,4,2,1,70,0,1
36424,-100,4,2,1,5,0,1
36469,-100,4,2,1,70,0,1
36649,-100,4,2,1,5,0,1
36693,-100,4,2,1,70,0,1
36962,-100,4,2,1,70,0,1
37187,-100,4,2,1,5,0,1
37232,-100,4,2,1,70,0,1
37725,-100,4,2,1,5,0,1
37770,-100,4,2,1,70,0,1
38263,-100,4,2,1,5,0,1
38308,-100,4,2,1,70,0,1
38846,-100,4,2,1,70,0,1
39384,-100,4,2,1,70,0,1
39653,-100,4,2,1,70,0,1
39877,-100,4,2,1,5,0,1
39922,-100,4,2,1,70,0,1
40191,-100,4,2,1,5,0,1
40236,-100,4,2,1,70,0,1
40415,-100,4,2,1,5,0,1
40460,-100,4,2,1,70,0,1
40954,-100,4,2,1,5,0,1
40998,-100,4,2,1,70,0,1
42075,-100,4,2,1,70,0,1
42254,-100,4,2,1,5,0,1
42344,-100,4,2,1,70,0,1
42523,-100,4,2,1,5,0,1
42613,-100,4,2,1,70,0,1
42882,-100,4,2,1,70,0,0
43106,-100,4,2,1,5,0,0
43151,-100,4,2,1,70,0,1
44227,-100,4,2,1,70,0,1
44496,-100,4,2,1,70,0,1
44720,-100,4,2,1,5,0,1
44765,-100,4,2,1,70,0,1
45034,-100,4,2,1,5,0,1
45079,-100,4,2,1,70,0,1
45258,-100,4,2,1,5,0,1
45303,-100,4,2,1,70,0,1
45572,-100,4,2,1,70,0,1
45797,-100,4,2,1,5,0,1
45841,-100,4,2,1,70,0,1
46335,-100,4,2,1,5,0,1
46380,-100,4,2,1,70,0,1
46918,-100,4,2,1,70,0,1
47456,-100,4,2,1,70,0,1
47994,-100,4,2,1,70,0,1
48263,-100,4,2,1,70,0,1
48487,-100,4,2,1,5,0,1
48532,-100,4,2,1,70,0,1
48801,-100,4,2,1,5,0,1
48846,-100,4,2,1,70,0,1
49025,-100,4,2,1,5,0,1
49070,-100,4,2,1,70,0,1
49608,-100,4,2,1,60,0,0
50102,-100,4,2,1,5,0,0
50146,-100,4,2,1,50,0,0
50640,-100,4,2,1,5,0,0
50684,-100,4,2,1,40,0,0
51178,-100,4,2,1,20,0,0
51223,-100,4,2,1,35,0,0
51312,-100,4,2,1,40,0,0
51402,-100,4,2,1,45,0,0
51492,-100,4,2,1,50,0,0
51581,-100,4,2,1,55,0,0
51671,-100,4,2,1,60,0,0
51761,-100,4,2,1,50,0,0
53285,-100,4,2,1,5,0,0
53375,-100,4,2,1,50,0,0
53554,-100,4,2,1,5,0,0
53644,-100,4,2,1,50,0,0
53823,-100,4,2,1,5,0,0
53913,-100,4,2,1,50,0,0
57590,-100,4,2,1,5,0,0
57680,-100,4,2,1,50,0,0
59474,-100,4,2,1,5,0,0
59563,-100,4,2,1,50,0,0
59743,-100,4,2,1,5,0,0
59832,-100,4,2,1,50,0,0
60371,-100,4,2,1,60,0,0
60550,-100,4,2,1,5,0,0
60640,-100,4,2,1,60,0,0
61447,265.486725663717,4,2,1,60,1,0
61889,-100,4,2,1,5,0,0
61977,-100,4,2,1,60,0,0
62154,-100,4,2,1,5,0,0
62243,-100,4,2,1,60,0,0
62420,-100,4,2,1,5,0,0
62508,256.410256410256,4,2,1,62,1,0
62508,-100,4,2,1,62,0,0
62678,-100,4,2,1,5,0,0
62764,-100,4,2,1,62,0,0
63448,-100,4,2,1,5,0,0
63533,251.046025104603,4,2,1,65,1,0
63533,-100,4,2,1,65,0,0
64537,246.913580246914,4,2,1,68,1,0
64537,-100,4,2,1,68,0,0
65524,241.935483870968,4,2,1,71,1,0
65524,-100,4,2,1,71,0,0
66491,237.154150197628,4,2,1,74,1,0
66491,-100,4,2,1,74,0,0
66649,-100,4,2,1,5,0,0
66728,-100,4,2,1,74,0,0
67360,-100,4,2,1,5,0,0
67440,235.294117647059,4,2,1,77,1,0
67440,-100,4,2,1,77,0,0
67596,-100,4,2,1,5,0,0
67675,-100,4,2,1,77,0,0
68381,-100,4,2,1,80,0,0
73518,-100,4,2,1,5,0,0
73557,-100,4,2,1,80,0,0
74930,-100,4,2,1,5,0,0
74969,-100,4,2,1,80,0,0
75910,-100,4,2,1,80,0,0
81557,-100,4,2,1,60,0,0
82459,-100,4,2,1,5,0,0
82498,-100,4,2,1,80,0,0
83440,-100,4,2,1,90,0,1
84381,-100,4,2,1,90,0,1
84655,-100,4,2,1,90,0,1
84812,-100,4,2,1,5,0,1
84851,-100,4,2,1,90,0,1
85047,-100,4,2,1,5,0,1
85087,-100,4,2,1,90,0,1
85283,-100,4,2,1,5,0,1
85322,-100,4,2,1,90,0,1
85557,-100,4,2,1,90,0,1
85753,-100,4,2,1,5,0,1
85792,-100,4,2,1,90,0,1
86224,-100,4,2,1,5,0,1
86263,-100,4,2,1,90,0,1
86694,-100,4,2,1,5,0,1
86734,-100,4,2,1,90,0,1
87204,-100,4,2,1,90,0,1
87675,-100,4,2,1,90,0,1
87871,-100,4,2,1,5,0,1
87910,-100,4,2,1,90,0,1
88106,-100,4,2,1,5,0,1
88145,-100,4,2,1,90,0,1
88381,-100,4,2,1,5,0,1
88420,-100,4,2,1,90,0,1
88577,-100,4,2,1,5,0,1
88616,-100,4,2,1,90,0,1
89047,-100,4,2,1,5,0,1
89087,-100,4,2,1,90,0,1
90028,-100,4,2,1,90,0,1
90185,-100,4,2,1,5,0,1
90263,-100,4,2,1,90,0,1
90420,-100,4,2,1,5,0,1
90498,-100,4,2,1,90,0,1
90734,-100,4,2,1,80,0,0
90930,-100,4,2,1,5,0,0
90969,-100,4,2,1,90,0,1
91910,-100,4,2,1,90,0,1
92185,-100,4,2,1,90,0,1
92341,-100,4,2,1,5,0,1
92381,-100,4,2,1,90,0,1
92577,-100,4,2,1,5,0,1
92616,-100,4,2,1,90,0,1
92812,-100,4,2,1,5,0,1
92851,-100,4,2,1,90,0,1
93087,-100,4,2,1,90,0,1
93283,-100,4,2,1,5,0,1
93322,-100,4,2,1,90,0,1
93753,-100,4,2,1,5,0,1
93792,-100,4,2,1,90,0,1
94224,-100,4,2,1,5,0,1
94263,-100,4,2,1,90,0,1
94734,-100,4,2,1,90,0,1
95204,-100,4,2,1,90,0,1
95400,-100,4,2,1,5,0,1
95440,-100,4,2,1,90,0,1
95636,-100,4,2,1,5,0,1
95675,-100,4,2,1,90,0,1
95871,-100,4,2,1,5,0,1
95910,-100,4,2,1,90,0,1
96106,-100,4,2,1,5,0,1
96145,-100,4,2,1,90,0,1
96381,-100,4,2,1,80,0,1
96577,-100,4,2,1,5,0,1
96616,-100,4,2,1,90,0,0
99440,-100,4,2,1,90,0,0
100145,-100,4,2,1,90,0,0
100341,-100,4,2,1,5,0,0
100381,-100,4,2,1,90,0,0

[Colours]
Combo1 : 97,192,147
Combo2 : 45,189,186
Combo3 : 248,120,123
Combo4 : 113,204,223

[HitObjects]
98,88,102,6,0,B|219:106|219:106|261:86,1,160,6|2,0:0|0:0,0:0:0:0:
410,60,640,2,0,L|399:175,1,106.666666666667,10|2,0:0|0:0,0:0:0:0:
337,224,909,2,0,L|348:339,1,106.666666666667,2|2,0:0|0:0,0:0:0:0:
421,371,1178,5,4,3:0:0:0:
263,344,1447,2,0,L|87:361,2,160,2|10|2,0:0|0:0|0:0,0:0:0:0:
162,219,2254,6,0,L|2:208,1,160,4|2,3:0|0:0,0:0:0:0:
78,67,2792,2,0,L|184:59,1,106.666666666667,10|2,0:0|0:0,0:0:0:0:
260,97,3061,2,0,P|264:161|241:205,1,106.666666666667,2|0,0:0|0:0,0:0:0:0:
162,219,3330,6,0,P|168:240|187:264,1,53.3333333333333,4|0,3:0|0:0,0:0:0:0:
291,286,3599,2,0,P|307:265|329:251,1,53.3333333333333,2|0,0:0|0:0,0:0:0:0:
436,256,3868,6,0,L|428:183,1,53.3333333333333,10|0,0:0|0:0,0:0:0:0:
342,143,4137,2,0,L|350:70,1,53.3333333333333,2|0,0:0|0:0,0:0:0:0:
412,4,4406,6,0,P|486:27|497:102,1,160,6|2,0:0|0:0,0:0:0:0:
342,143,4945,2,0,B|291:165|291:126|236:147,1,106.666666666667,10|2,0:0|0:0,0:0:0:0:
186,214,5214,2,0,P|134:230|84:207,1,106.666666666667,2|2,0:0|0:0,0:0:0:0:
31,146,5483,5,4,3:0:0:0:
150,39,5752,1,2,0:0:0:0:
264,151,6021,2,0,B|274:226|274:226|256:273,1,106.666666666667,10|2,0:0|0:0,0:0:0:0:
186,214,6290,1,2,0:0:0:0:
298,327,6559,6,0,B|342:335|342:335|414:322|414:322|459:329,1,160,4|2,3:0|0:0,0:0:0:0:
504,176,7097,2,0,B|470:182|470:182|421:171|421:171|389:177,1,106.666666666667,10|2,0:0|0:0,0:0:0:0:
344,240,7366,1,2,0:0:0:0:
204,318,7635,6,0,L|92:316,1,106.666666666667,6|0,3:0|0:0,0:0:0:0:
30,264,7904,2,0,P|17:213|33:156,1,106.666666666667,6|0,3:0|0:0,0:0:0:0:
86,97,8173,1,10,0:0:0:0:
236,42,8442,2,0,B|288:51|288:27|343:43,1,106.666666666667,2|2,0:0|0:0,0:0:0:0:
371,124,8711,6,0,B|389:245|389:245|369:287,1,160,6|2,0:0|0:0,0:0:0:0:
235,364,9249,2,0,P|185:346|115:365,1,106.666666666667,10|2,0:0|0:0,0:0:0:0:
48,365,9518,2,0,L|58:258,1,106.666666666667,2|2,0:0|0:0,0:0:0:0:
68,174,9787,5,4,3:0:0:0:
158,42,10056,2,0,L|173:201,2,160,2|10|2,0:0|0:0|0:0,0:0:0:0:
272,153,10863,6,0,L|261:313,1,160,4|2,3:0|0:0,0:0:0:0:
378,203,11401,2,0,L|371:96,1,106.666666666667,10|2,0:0|0:0,0:0:0:0:
457,86,11671,2,0,L|463:192,1,106.666666666667,2|0,0:0|0:0,0:0:0:0:
433,271,11940,6,0,P|404:291|383:292,1,53.3333333333333,4|0,3:0|0:0,0:0:0:0:
296,234,12209,2,0,L|298:287,1,53.3333333333333,2|0,0:0|0:0,0:0:0:0:
202,333,12478,6,0,L|204:279,1,53.3333333333333,10|0,0:0|0:0,0:0:0:0:
108,234,12747,2,0,L|110:287,1,53.3333333333333,2|0,0:0|0:0,0:0:0:0:
185,199,13015,6,0,B|191:72|191:72|160:96,1,160,6|2,0:0|0:0,0:0:0:0:
316,143,13554,2,0,B|367:165|367:126|422:147,1,106.666666666667,10|2,0:0|0:0,0:0:0:0:
502,169,13823,2,0,L|497:54,1,106.666666666667,2|2,0:0|0:0,0:0:0:0:
412,52,14092,5,4,3:0:0:0:
254,24,14361,1,2,0:0:0:0:
154,149,14630,2,0,B|144:224|144:224|162:271,1,106.666666666667,10|2,0:0|0:0,0:0:0:0:
230,211,14899,1,2,0:0:0:0:
382,162,15168,6,0,B|390:206|390:206|377:278|377:278|384:323,1,160,4|2,3:0|0:0,0:0:0:0:
480,192,15706,2,0,B|474:158|474:158|485:109|485:109|479:77,1,106.666666666667,10|2,0:0|0:0,0:0:0:0:
397,69,15975,1,2,0:0:0:0:
240,38,16244,6,0,L|126:51,1,106.666666666667,6|0,3:0|0:0,0:0:0:0:
66,102,16513,2,0,P|53:153|69:210,1,106.666666666667,6|4,3:0|3:0,0:0:0:0:
134,258,16783,2,0,L|196:265,3,53.3333333333333,6|4|4|4,3:0|3:0|3:0|3:0,0:0:0:0:
312,363,17321,6,0,P|384:370|408:283,1,160,6|2,0:0|0:0,0:0:0:0:
337,158,17859,2,0,L|347:51,1,106.666666666667,10|2,0:0|0:0,0:0:0:0:
264,75,18128,2,0,B|213:86|213:52|155:75,1,106.666666666667,2|2,0:0|0:0,0:0:0:0:
100,135,18397,5,4,3:0:0:0:
142,289,18667,1,2,0:0:0:0:
142,289,18936,1,10,0:0:0:0:
142,289,19205,1,2,0:0:0:0:
296,328,19473,6,0,P|365:325|379:225,1,160,4|2,3:0|0:0,0:0:0:0:
341,96,20011,2,0,L|230:86,1,106.666666666667,10|2,0:0|0:0,0:0:0:0:
183,156,20281,2,0,L|72:166,1,106.666666666667,2|0,0:0|0:0,0:0:0:0:
26,234,20550,6,0,P|13:284|28:344,1,106.666666666667,6|0,3:0|0:0,0:0:0:0:
106,362,20819,6,0,P|127:347|153:347,2,53.3333333333333,2|2|2,0:0|0:0|0:0,0:0:0:0:
162,261,21088,6,0,P|188:263|208:280,2,53.3333333333333,10|2|2,0:0|0:0|0:0,0:0:0:0:
267,206,21357,6,0,P|285:224|289:250,2,53.3333333333333,2|2|2,0:0|0:0|0:0,0:0:0:0:
187,177,21625,6,0,P|176:96|192:19,1,160,4|2,3:0|0:0,0:0:0:0:
331,99,22164,2,0,B|382:121|382:82|437:103,1,106.666666666667,10|2,0:0|0:0,0:0:0:0:
496,161,22433,2,0,L|489:276,1,106.666666666667,2|2,0:0|0:0,0:0:0:0:
481,352,22702,5,4,3:0:0:0:
343,269,22971,1,2,0:0:0:0:
206,352,23240,2,0,B|131:362|131:362|84:344,1,106.666666666667,10|2,0:0|0:0,0:0:0:0:
23,316,23509,1,2,0:0:0:0:
54,159,23778,6,0,B|66:120|59:80|59:80|101:93|144:80,1,160,4|2,3:0|0:0,0:0:0:0:
293,42,24316,2,0,B|284:154,1,106.666666666667,10|2,0:0|0:0,0:0:0:0:
276,233,24585,1,2,0:0:0:0:
406,326,24855,6,0,L|458:318,2,53.3333333333333,6|2|2,3:0|0:0|0:0,0:0:0:0:
430,236,25124,6,0,L|482:228,2,53.3333333333333,6|2|2,3:0|0:0|0:0,0:0:0:0:
366,158,25393,6,0,L|418:150,2,53.3333333333333,2|2|2,3:0|3:0|3:0,0:0:0:0:
390,68,25662,6,0,L|442:60,2,53.3333333333333,2|2|2,3:0|3:0|3:0,0:0:0:0:
324,14,25930,6,0,B|203:32|203:32|161:12,1,160,6|2,0:0|0:0,0:0:0:0:
9,11,26469,2,0,L|21:117,1,106.666666666667,10|2,0:0|0:0,0:0:0:0:
96,160,26738,2,0,L|84:266,1,106.666666666667,2|2,0:0|0:0,0:0:0:0:
71,349,27007,5,4,3:0:0:0:
211,271,27276,1,2,0:0:0:0:
211,271,27545,1,10,0:0:0:0:
211,271,27815,1,2,0:0:0:0:
349,349,28084,6,0,L|329:190,1,160,4|2,3:0|0:0,0:0:0:0:
270,41,28622,2,0,P|231:26|184:66,1,106.666666666667,10|2,0:0|0:0,0:0:0:0:
160,146,28891,2,0,L|47:128,1,106.666666666667,2|0,0:0|0:0,0:0:0:0:
9,202,29160,6,0,P|4:258|21:317,1,106.666666666667,6|0,3:0|0:0,0:0:0:0:
88,352,29429,6,0,L|143:357,2,53.3333333333333,2|2|2,0:0|0:0|0:0,0:0:0:0:
178,279,29698,6,0,L|233:274,2,53.3333333333333,10|2|2,0:0|0:0|0:0,0:0:0:0:
253,190,29967,6,0,L|306:194,2,53.3333333333333,2|2|2,0:0|0:0|0:0,0:0:0:0:
343,119,30236,6,0,B|470:113|470:113|446:144,1,160,4|2,3:0|0:0,0:0:0:0:
432,298,30774,2,0,P|379:303|338:271,1,106.666666666667,10|2,0:0|0:0,0:0:0:0:
306,194,31043,2,0,B|221:186|221:186|182:200,1,106.666666666667,2|2,0:0|0:0,0:0:0:0:
130,241,31312,5,4,3:0:0:0:
78,89,31581,1,2,0:0:0:0:
4,230,31850,2,0,L|11:341,1,106.666666666667,10|2,0:0|0:0,0:0:0:0:
86,376,32119,1,2,0:0:0:0:
240,334,32388,6,0,B|271:325|271:325|356:349|356:349|391:332,1,160,2|2,0:0|0:0,0:0:0:0:
465,189,32927,2,0,P|481:139|462:78,1,106.666666666667,2|2,0:0|0:0,0:0:0:0:
406,27,33196,1,2,0:0:0:0:
250,70,33465,6,0,L|191:61,2,53.3333333333333,6|2|2,3:0|0:0|0:0,0:0:0:0:
301,146,33734,6,0,L|249:155,2,53.3333333333333,6|2|2,3:0|0:0|0:0,0:0:0:0:
336,225,34003,6,0,L|388:233,3,53.3333333333333,2|2|2|2,3:0|3:0|3:0|3:0,0:0:0:0:
256,323,34541,6,0,B|208:344|208:344|56:323|56:323|111:290,1,266.666666666667,14|0,0:0|0:0,0:0:0:0:
175,238,35079,2,0,P|151:152|54:244,1,266.666666666667,10|0,0:0|0:0,0:0:0:0:
108,291,35617,5,4,3:0:0:0:
206,341,35797,2,0,P|231:329|259:326,1,53.3333333333333,2|0,0:0|0:0,0:0:0:0:
413,352,36155,2,0,L|410:84,1,266.666666666667,10|0,0:0|0:0,0:0:0:0:
325,72,36693,6,0,L|331:12,2,53.3333333333333,6|2|2,3:0|0:0|0:0,0:0:0:0:
245,104,36962,1,2,0:0:0:0:
43,120,37232,6,0,B|-16:139|-16:139|78:214|171:148,1,266.666666666667,10|0,0:0|0:0,0:0:0:0:
245,104,37770,2,0,B|297:130|297:130|313:202|313:202|295:277|295:277|244:310,1,266.666666666667,6|0,3:0|0:0,0:0:0:0:
175,355,38308,6,0,L|122:345,2,53.3333333333333,10|2|2,0:0|0:0|0:0,0:0:0:0:
107,260,38577,2,0,L|53:270,2,53.3333333333333,2|2|2,0:0|0:0|0:0,0:0:0:0:
170,202,38846,5,4,3:0:0:0:
168,185,38980,1,2,0:0:0:0:
109,123,39115,1,2,0:0:0:0:
111,106,39249,1,2,0:0:0:0:
165,39,39384,6,0,B|281:64|281:64|326:42,1,160,10|0,0:0|0:0,0:0:0:0:
477,30,39922,2,0,P|406:62|411:143,1,160,4|0,3:0|0:0,0:0:0:0:
510,256,40460,2,0,B|381:185|398:348|271:313,1,266.666666666667,10|0,0:0|0:0,0:0:0:0:
202,265,40998,5,4,3:0:0:0:
102,225,41178,2,0,L|107:317,2,80,2|0|2,0:0|0:0|0:0,0:0:0:0:
142,150,41536,5,10,0:0:0:0:
248,134,41716,2,0,L|253:42,2,80,2|0|2,0:0|0:0|0:0,0:0:0:0:
323,173,42075,5,4,3:0:0:0:
323,173,42344,1,4,3:0:0:0:
443,281,42613,2,0,L|495:273,3,53.3333333333333,2|2|2|2,0:0|0:0|0:0|0:0,0:0:0:0:
368,371,43151,6,0,B|330:357|291:382|291:382|241:323|241:323|202:370|134:333,1,266.666666666667,14|0,0:0|0:0,0:0:0:0:
185,261,43689,2,0,B|213:222|217:178|210:131|166:114|166:114|103:145|132:211,1,266.666666666667,10|0,0:0|0:0,0:0:0:0:
90,270,44227,5,4,3:0:0:0:
16,193,44406,2,0,P|15:163|22:126,1,53.3333333333333,2|0,0:0|0:0,0:0:0:0:
132,27,44765,2,0,B|261:-5|247:132|378:104,1,266.666666666667,10|0,0:0|0:0,0:0:0:0:
451,70,45303,6,0,L|445:15,2,53.3333333333333,6|2|2,3:0|0:0|0:0,0:0:0:0:
510,131,45572,1,2,0:0:0:0:
506,290,45841,6,0,P|436:232|272:326,1,266.666666666667,10|0,0:0|0:0,0:0:0:0:
201,307,46380,2,0,P|118:216|214:132,1,266.666666666667,6|0,3:0|0:0,0:0:0:0:
285,117,46918,6,0,P|278:91|263:69,2,53.3333333333333,10|2|2,0:0|0:0|0:0,0:0:0:0:
355,166,47187,2,0,P|366:142|370:116,2,53.3333333333333,2|2|2,0:0|0:0|0:0,0:0:0:0:
278,204,47456,5,4,3:0:0:0:
261,206,47590,1,2,0:0:0:0:
199,265,47725,1,2,0:0:0:0:
182,263,47859,1,2,0:0:0:0:
114,210,47994,6,0,B|107:48,1,160,10|0,0:0|0:0,0:0:0:0:
264,22,48532,2,0,B|332:63|340:-2|421:38,1,160,4|0,3:0|0:0,0:0:0:0:
476,185,49070,2,0,P|484:271|346:243,1,266.666666666667,10|0,0:0|0:0,0:0:0:0:
325,170,49608,6,0,B|282:180|263:223|263:223|178:181|178:181|157:228|113:241,1,266.666666666667,4|0,3:0|0:0,0:0:0:0:
46,191,50146,2,0,P|44:293|186:303,1,266.666666666667,4|0,3:0|0:0,0:0:0:0:
267,310,50684,6,0,L|243:43,1,266.666666666667,4|0,3:0|0:0,0:0:0:0:
333,2,51223,2,0,L|328:56,5,53.3333333333333,4|4|4|4|4|4,3:0|3:0|3:0|3:0|3:0|3:0,0:0:0:0:
403,95,51761,6,0,P|437:169|412:248,1,160,6|2,0:0|0:0,0:0:0:0:
320,369,52299,2,0,L|205:358,1,106.666666666667,10|2,0:0|0:0,0:0:0:0:
156,296,52568,2,0,L|41:307,1,106.666666666667,2|2,0:0|0:0,0:0:0:0:
8,231,52837,5,4,3:0:0:0:
142,144,53106,2,0,L|312:161,2,160,2|10|2,0:0|0:0|0:0,0:0:0:0:
249,25,53913,6,0,L|409:14,1,160,4|2,3:0|0:0,0:0:0:0:
484,154,54451,2,0,B|495:206|495:206|484:264,1,106.666666666667,10|2,0:0|0:0,0:0:0:0:
429,323,54720,2,0,P|381:339|331:316,1,106.666666666667,2|0,0:0|0:0,0:0:0:0:
273,254,54989,6,0,L|211:263,1,53.3333333333333,4|0,3:0|0:0,0:0:0:0:
140,333,55258,2,0,L|78:324,1,53.3333333333333,2|0,0:0|0:0,0:0:0:0:
17,244,55527,6,0,P|13:215|26:178,1,53.3333333333333,10|0,0:0|0:0,0:0:0:0:
87,109,55797,2,0,L|139:101,1,53.3333333333333,2|0,0:0|0:0,0:0:0:0:
233,152,56066,6,0,P|307:139|329:66,1,160,6|2,0:0|0:0,0:0:0:0:
482,17,56604,2,0,P|469:71|489:145,1,106.666666666667,10|2,0:0|0:0,0:0:0:0:
485,205,56873,2,0,B|409:193|409:193|372:208,1,106.666666666667,2|2,0:0|0:0,0:0:0:0:
310,251,57142,5,4,3:0:0:0:
244,105,57411,1,2,0:0:0:0:
107,188,57680,2,0,B|97:263|97:263|115:310,1,106.666666666667,10|2,0:0|0:0,0:0:0:0:
185,251,57949,1,2,0:0:0:0:
329,181,58218,6,0,B|373:171|373:171|440:191|440:191|486:178,1,160,4|2,3:0|0:0,0:0:0:0:
367,289,58756,2,0,P|310:295|266:269,1,106.666666666667,10|2,0:0|0:0,0:0:0:0:
242,190,59025,1,2,0:0:0:0:
176,43,59294,6,0,L|163:162,1,106.666666666667,6|0,3:0|0:0,0:0:0:0:
83,176,59563,2,0,L|96:295,1,106.666666666667,6|0,3:0|0:0,0:0:0:0:
160,337,59832,1,10,0:0:0:0:
314,295,60101,2,0,B|366:284|366:315|421:294,1,106.666666666667,2|2,0:0|0:0,0:0:0:0:
481,235,60371,6,0,B|463:114|463:114|483:72,1,160,6|2,0:0|0:0,0:0:0:0:
327,29,60909,2,0,B|339:59|339:59|328:140,1,106.666666666667,10|2,0:0|0:0,0:0:0:0:
277,201,61178,2,0,P|225:217|174:195,1,106.666666666667,2|2,0:0|0:0,0:0:0:0:
124,132,61447,5,4,3:0:0:0:
28,3,61712,2,0,L|43:162,2,160,2|10|2,0:0|0:0|0:0,0:0:0:0:
191,42,62508,6,0,B|304:65|304:65|355:44,1,160,4|2,3:0|0:0,0:0:0:0:
501,13,63020,2,0,L|495:121,1,106.666666666667,10|2,0:0|0:0,0:0:0:0:
436,181,63277,2,0,P|421:233|440:285,1,106.666666666667,2|0,0:0|0:0,0:0:0:0:
477,359,63533,6,0,P|450:371|411:361,1,53.3333333333333,4|0,3:0|0:0,0:0:0:0:
341,304,63784,2,0,P|314:302|290:314,1,53.3333333333333,2|0,0:0|0:0,0:0:0:0:
190,351,64035,6,0,L|186:298,1,53.3333333333333,10|0,0:0|0:0,0:0:0:0:
82,269,64286,2,0,L|89:212,1,53.3333333333333,2|0,0:0|0:0,0:0:0:0:
193,189,64537,6,0,B|187:62|187:62|219:87,1,160,6|2,0:0|0:0,0:0:0:0:
350,164,65030,2,0,B|401:186|401:147|459:170,1,106.666666666667,10|2,0:0|0:0,0:0:0:0:
508,235,65277,2,0,L|502:342,1,106.666666666667,2|2,0:0|0:0,0:0:0:0:
421,376,65524,5,4,3:0:0:0:
261,365,65765,1,2,0:0:0:0:
121,286,66007,2,0,B|111:211|111:211|127:168,1,106.666666666667,10|2,0:0|0:0,0:0:0:0:
197,224,66249,1,2,0:0:0:0:
344,158,66491,6,0,P|374:86|323:20,1,160,4|2,3:0|0:0,0:0:0:0:
170,22,66965,2,0,B|136:28|136:28|87:17|87:17|55:23,1,106.666666666667,10|2,0:0|0:0,0:0:0:0:
81,104,67202,1,2,0:0:0:0:
65,267,67440,6,0,B|86:271|86:271|135:260|135:260|169:266,1,106.666666666667,6|0,3:0|0:0,0:0:0:0:
230,326,67675,2,0,P|281:339|338:323,1,106.666666666667,6|0,3:0|3:0,0:0:0:0:
389,261,67910,2,0,L|387:195,3,53.3333333333333,6|0|0|0,3:0|3:0|3:0|3:0,0:0:0:0:
502,96,68381,6,0,P|474:26|399:31,1,160,6|2,0:0|0:0,0:0:0:0:
277,135,68851,2,0,B|223:156|223:122|172:133,1,106.666666666667,10|2,0:0|0:0,0:0:0:0:
97,176,69087,2,0,L|107:283,1,106.666666666667,2|2,0:0|0:0,0:0:0:0:
118,367,69322,5,4,3:0:0:0:
266,308,69557,1,2,0:0:0:0:
266,308,69792,1,10,0:0:0:0:
266,308,70028,1,2,0:0:0:0:
414,367,70263,6,0,P|423:288|395:210,1,160,4|2,3:0|0:0,0:0:0:0:
279,103,70734,2,0,L|168:93,1,106.666666666667,10|2,0:0|0:0,0:0:0:0:
122,163,70969,2,0,L|11:173,1,106.666666666667,2|0,0:0|0:0,0:0:0:0:
0,257,71204,6,0,P|18:317|72:322,1,106.666666666667,6|0,3:0|0:0,0:0:0:0:
141,316,71440,6,0,L|132:368,2,53.3333333333333,2|2|2,0:0|0:0|0:0,0:0:0:0:
217,277,71675,6,0,L|208:225,2,53.3333333333333,10|2|2,0:0|0:0|0:0,0:0:0:0:
293,316,71910,6,0,L|284:368,2,53.3333333333333,2|2|2,0:0|0:0|0:0,0:0:0:0:
372,283,72145,6,0,P|400:223|367:131,1,160,4|2,3:0|0:0,0:0:0:0:
223,79,72616,2,0,B|172:57|172:96|117:75,1,106.666666666667,10|2,0:0|0:0,0:0:0:0:
37,49,72851,2,0,L|44:164,1,106.666666666667,2|2,0:0|0:0,0:0:0:0:
52,240,73087,5,4,3:0:0:0:
210,223,73322,1,2,0:0:0:0:
306,352,73557,2,0,B|381:362|381:362|428:344,1,106.666666666667,10|2,0:0|0:0,0:0:0:0:
489,316,73792,1,2,0:0:0:0:
458,159,74028,6,0,B|446:120|453:80|453:80|411:93|368:80,1,160,4|2,3:0|0:0,0:0:0:0:
219,42,74498,2,0,B|228:154,1,106.666666666667,10|2,0:0|0:0,0:0:0:0:
237,235,74734,1,2,0:0:0:0:
104,324,74969,6,0,L|52:332,2,53.3333333333333,6|2|2,3:0|0:0|0:0,0:0:0:0:
79,241,75204,6,0,L|27:233,2,53.3333333333333,6|2|2,3:0|0:0|0:0,0:0:0:0:
138,177,75440,6,0,L|190:185,2,53.3333333333333,2|2|2,3:0|3:0|3:0,0:0:0:0:
163,94,75675,6,0,L|215:86,2,53.3333333333333,2|2|2,3:0|3:0|3:0,0:0:0:0:
102,32,75910,6,0,P|35:22|6:101,1,160,6|2,0:0|0:0,0:0:0:0:
18,256,76381,2,0,L|124:268,1,106.666666666667,10|2,0:0|0:0,0:0:0:0:
167,343,76616,2,0,L|273:331,1,106.666666666667,2|2,0:0|0:0,0:0:0:0:
356,318,76851,5,4,3:0:0:0:
253,194,77087,1,2,0:0:0:0:
253,194,77322,1,10,0:0:0:0:
253,194,77557,1,2,0:0:0:0:
375,91,77792,6,0,B|412:70|452:74|452:74|427:42|362:32,1,160,4|2,3:0|0:0,0:0:0:0:
224,62,78263,2,0,B|145:78|145:78|107:53,1,106.666666666667,10|2,0:0|0:0,0:0:0:0:
40,39,78498,2,0,L|49:151,1,106.666666666667,2|0,0:0|0:0,0:0:0:0:
132,169,78734,6,0,L|123:281,1,106.666666666667,6|0,3:0|0:0,0:0:0:0:
176,343,78969,6,0,L|231:348,2,53.3333333333333,2|2|2,0:0|0:0|0:0,0:0:0:0:
266,270,79204,6,0,L|321:265,2,53.3333333333333,10|2|2,0:0|0:0|0:0,0:0:0:0:
341,181,79440,6,0,L|394:185,2,53.3333333333333,2|2|2,0:0|0:0|0:0,0:0:0:0:
288,112,79675,6,0,B|161:118|161:118|185:87,1,160,4|2,3:0|0:0,0:0:0:0:
21,78,80145,2,0,P|4:128|26:175,1,106.666666666667,10|2,0:0|0:0,0:0:0:0:
100,219,80381,2,0,B|185:211|185:211|224:225,1,106.666666666667,2|2,0:0|0:0,0:0:0:0:
281,258,80616,5,4,3:0:0:0:
373,127,80851,1,2,0:0:0:0:
503,220,81087,2,0,L|496:331,1,106.666666666667,10|2,0:0|0:0,0:0:0:0:
426,376,81322,1,2,0:0:0:0:
272,334,81557,6,0,B|241:325|241:325|156:349|156:349|121:332,1,160,2|2,0:0|0:0,0:0:0:0:
47,189,82028,2,0,P|31:139|50:78,1,106.666666666667,2|2,0:0|0:0,0:0:0:0:
106,27,82263,1,2,0:0:0:0:
262,70,82498,6,0,L|321:61,2,53.3333333333333,6|2|2,3:0|0:0|0:0,0:0:0:0:
211,146,82734,6,0,L|263:155,2,53.3333333333333,6|2|2,3:0|0:0|0:0,0:0:0:0:
176,225,82969,6,0,L|124:233,3,53.3333333333333,2|2|2|2,3:0|3:0|3:0|3:0,0:0:0:0:
256,323,83440,6,0,B|304:344|304:344|456:323|456:323|401:290,1,266.666666666667,14|0,0:0|0:0,0:0:0:0:
337,238,83910,2,0,P|361:152|458:244,1,266.666666666667,10|0,0:0|0:0,0:0:0:0:
404,291,84381,5,4,3:0:0:0:
306,341,84538,2,0,P|281:329|253:326,1,53.3333333333333,2|2,0:0|0:0,0:0:0:0:
99,352,84851,2,0,P|41:227|121:116,1,266.666666666667,10|0,0:0|0:0,0:0:0:0:
182,93,85322,6,0,L|176:33,2,53.3333333333333,6|2|2,3:0|0:0|0:0,0:0:0:0:
264,116,85557,1,2,0:0:0:0:
419,152,85792,6,0,B|475:239|424:351|424:351|367:318,1,266.666666666667,10|0,0:0|0:0,0:0:0:0:
297,281,86263,2,0,B|200:240|198:318|89:274|89:274|143:226,1,266.666666666667,6|0,3:0|0:0,0:0:0:0:
159,159,86734,6,0,P|182:171|199:192,2,53.3333333333333,10|2|2,0:0|0:0|0:0,0:0:0:0:
134,77,86969,2,0,P|159:71|186:76,2,53.3333333333333,2|2|2,0:0|0:0|0:0,0:0:0:0:
66,130,87204,5,4,3:0:0:0:
68,147,87322,1,2,0:0:0:0:
11,211,87440,1,2,0:0:0:0:
13,228,87557,1,2,0:0:0:0:
23,313,87675,6,0,B|139:338|139:338|184:316,1,160,10|2,0:0|0:0,0:0:0:0:
305,226,88145,2,0,P|346:308|325:380,1,160,4|0,3:0|0:0,0:0:0:0:
226,248,88616,2,0,B|209:86|209:86|264:32|315:81,1,266.666666666667,10|0,0:0|0:0,0:0:0:0:
377,110,89087,5,4,3:0:0:0:
457,179,89243,2,0,P|470:217|457:273,2,80,2|0|2,0:0|0:0|0:0,0:0:0:0:
386,228,89557,5,10,0:0:0:0:
297,287,89714,2,0,P|284:325|297:381,2,80,2|0|2,0:0|0:0|0:0,0:0:0:0:
368,336,90028,5,4,3:0:0:0:
303,189,90263,1,4,3:0:0:0:
162,264,90498,2,0,L|168:207,3,53.3333333333333,2|2|2|2,0:0|0:0|0:0|0:0,0:0:0:0:
144,371,90969,6,0,B|182:357|221:382|221:382|271:323|271:323|310:370|378:333,1,266.666666666667,14|0,0:0|0:0,0:0:0:0:
327,261,91440,2,0,B|299:222|295:178|302:131|346:114|346:114|409:145|380:211,1,266.666666666667,10|0,0:0|0:0,0:0:0:0:
422,270,91910,5,4,3:0:0:0:
496,193,92067,2,0,P|497:163|490:126,1,53.3333333333333,2|2,0:0|0:0,0:0:0:0:
380,27,92381,2,0,B|251:-5|265:132|134:104,1,266.666666666667,10|0,0:0|0:0,0:0:0:0:
61,70,92851,6,0,L|67:15,2,53.3333333333333,6|2|2,3:0|0:0|0:0,0:0:0:0:
2,131,93087,1,2,0:0:0:0:
6,290,93322,6,0,P|76:232|240:326,1,266.666666666667,10|0,0:0|0:0,0:0:0:0:
311,307,93792,2,0,P|394:216|298:132,1,266.666666666667,6|0,3:0|0:0,0:0:0:0:
227,117,94263,6,0,P|234:91|249:69,2,53.3333333333333,10|2|2,0:0|0:0|0:0,0:0:0:0:
157,166,94498,2,0,P|146:142|142:116,2,53.3333333333333,2|2|2,0:0|0:0|0:0,0:0:0:0:
234,204,94734,5,4,3:0:0:0:
251,206,94851,1,2,0:0:0:0:
313,265,94969,1,2,0:0:0:0:
330,263,95087,1,2,0:0:0:0:
398,210,95204,6,0,B|405:48,1,160,10|2,0:0|0:0,0:0:0:0:
245,65,95675,2,0,B|177:106|169:41|88:81,1,160,4|0,3:0|0:0,0:0:0:0:
33,228,96145,2,0,P|25:314|163:286,1,266.666666666667,10|0,0:0|0:0,0:0:0:0:
184,213,96616,6,0,B|227:223|246:266|246:266|331:224|331:224|352:271|396:284,1,266.666666666667,4|2,3:0|0:0,0:0:0:0:
463,234,97087,2,0,P|465:336|323:346,1,266.666666666667,4|2,3:0|0:0,0:0:0:0:
242,353,97557,6,0,L|266:86,1,266.666666666667,4|2,3:0|0:0,0:0:0:0:
347,114,98028,2,0,B|378:167|436:173|486:168|518:110|518:110|490:50,1,266.666666666667,4|2,3:0|0:0,0:0:0:0:
410,41,98498,6,0,B|347:18|347:18|287:40|287:40|184:17|184:17|188:60,1,266.666666666667,4|2,3:0|0:0,0:0:0:0:
235,117,98969,2,0,B|263:156|267:200|260:247|216:264|216:264|153:233|182:167,1,266.666666666667,4|2,3:0|0:0,0:0:0:0:
132,111,99440,6,0,P|97:156|95:214,1,106.666666666667,2|2,0:0|0:0,0:0:0:0:
109,288,99675,2,0,P|80:292|45:276,2,53.3333333333333,2|2|2,0:0|0:0|0:0,0:0:0:0:
171,347,99910,2,0,B|255:302|342:356|342:356|364:316|344:257,1,266.666666666667,2|0,0:0|0:0,0:0:0:0:
314,192,100381,1,6,0:0:0:0:
