osu file format v14

[General]
AudioFilename: audio.mp3
AudioLeadIn: 0
PreviewTime: 34462
Countdown: 0
SampleSet: Soft
StackLeniency: 0.3
Mode: 0
LetterboxInBreaks: 0
WidescreenStoryboard: 1

[Editor]
DistanceSpacing: 1
BeatDivisor: 3
GridSize: 4
TimelineZoom: 3.999998

[Metadata]
Title:Kawaii
TitleUnicode:Kawaii
Artist:Thaehan
ArtistUnicode:Thaehan
Creator:Cris-
Version:Normal
Source:osu!
Tags:-Sh1n1- Shini [_L_u_k_a_s_] Lukas Minorsonek M2Usonek walaowey High Tempo Beatmap Pack FA Featured Artist Gremio Mappers' Guild MG OMGWTF! Electronic Instrumental Video Game Chiptune
BeatmapID:2144871
BeatmapSetID:1000338

[Difficulty]
HPDrainRate:3
CircleSize:3
OverallDifficulty:4
ApproachRate:5.5
SliderMultiplier:0.799999999999999
SliderTickRate:1

[Events]
//Background and Video events
0,0,"Kawaii.jpg",0,0
//Break Periods
//Storyboard Layer 0 (Background)
//Storyboard Layer 1 (Fail)
//Storyboard Layer 2 (Pass)
//Storyboard Layer 3 (Foreground)
//Storyboard Layer 4 (Overlay)
//Storyboard Sound Samples

[TimingPoints]
102,269.058295964126,4,2,1,50,1,0
102,-100,4,2,1,50,0,0
1626,-100,4,2,1,5,0,0
1716,-100,4,2,1,50,0,0
1895,-100,4,2,1,5,0,0
1985,-100,4,2,1,50,0,0
2164,-100,4,2,1,5,0,0
2254,-100,4,2,1,50,0,0
5931,-100,4,2,1,5,0,0
6021,-100,4,2,1,50,0,0
7815,-100,4,2,1,5,0,0
7904,-100,4,2,1,50,0,0
8084,-100,4,2,1,5,0,0
8173,-100,4,2,1,50,0,0
8711,-100,4,2,1,55,0,0
8891,-100,4,2,1,5,0,0
8980,-100,4,2,1,55,0,0
10236,-100,4,2,1,5,0,0
10326,-100,4,2,1,55,0,0
10505,-100,4,2,1,5,0,0
10595,-100,4,2,1,55,0,0
10774,-100,4,2,1,5,0,0
10864,-100,4,2,1,55,0,0
11043,-100,4,2,1,5,0,0
11133,-100,4,2,1,55,0,0
11850,-100,4,2,1,5,0,0
11940,-100,4,2,1,55,0,0
15348,-100,4,2,1,5,0,0
15438,-100,4,2,1,55,0,0
16155,-100,4,2,1,5,0,0
16245,-100,4,2,1,60,0,0
16424,-100,4,2,1,5,0,0
16514,-100,4,2,1,60,0,0
17321,-100,4,2,1,60,0,0
20550,-100,4,2,1,60,0,0
20819,-100,4,2,1,60,0,0
23196,-100,4,2,1,5,0,0
23241,-100,4,2,1,60,0,0
24810,-100,4,2,1,5,0,0
24855,-100,4,2,1,60,0,0
25931,-100,4,2,1,65,0,0
29160,-100,4,2,1,65,0,0
29429,-100,4,2,1,65,0,0
32388,-100,4,2,1,50,0,0
33420,-100,4,2,1,5,0,0
33465,-100,4,2,1,60,0,0
33734,-100,4,2,1,65,0,0
33913,-100,4,2,1,70,0,0
34541,-100,4,2,1,70,0,1
35617,-100,4,2,1,70,0,1
36110,-100,4,2,1,5,0,1
36155,-100,4,2,1,70,0,1
36424,-100,4,2,1,70,0,1
36469,-100,4,2,1,70,0,1
36649,-100,4,2,1,5,0,1
36693,-100,4,2,1,70,0,1
36962,-100,4,2,1,70,0,1
37187,-100,4,2,1,5,0,1
37232,-100,4,2,1,70,0,1
37725,-100,4,2,1,5,0,1
37770,-100,4,2,1,70,0,1
38263,-100,4,2,1,5,0,1
38308,-100,4,2,1,70,0,1
38846,-100,4,2,1,70,0,1
39384,-100,4,2,1,70,0,1
39653,-100,4,2,1,70,0,1
39877,-100,4,2,1,5,0,1
39922,-100,4,2,1,70,0,1
40191,-100,4,2,1,5,0,1
40236,-100,4,2,1,70,0,1
40415,-100,4,2,1,5,0,1
40460,-100,4,2,1,70,0,1
40954,-100,4,2,1,5,0,1
40998,-100,4,2,1,70,0,1
42075,-100,4,2,1,70,0,1
42254,-100,4,2,1,5,0,1
42344,-100,4,2,1,70,0,1
42523,-100,4,2,1,5,0,1
42613,-100,4,2,1,70,0,1
42882,-100,4,2,1,70,0,0
43106,-100,4,2,1,5,0,0
43151,-100,4,2,1,70,0,1
44227,-100,4,2,1,70,0,1
44496,-100,4,2,1,70,0,1
44720,-100,4,2,1,5,0,1
44765,-100,4,2,1,70,0,1
45034,-100,4,2,1,70,0,1
45079,-100,4,2,1,70,0,1
45258,-100,4,2,1,5,0,1
45303,-100,4,2,1,70,0,1
45572,-100,4,2,1,70,0,1
45797,-100,4,2,1,5,0,1
45841,-100,4,2,1,70,0,1
46335,-100,4,2,1,5,0,1
46380,-100,4,2,1,70,0,1
46918,-100,4,2,1,70,0,1
47456,-100,4,2,1,70,0,1
47994,-100,4,2,1,70,0,1
48263,-100,4,2,1,70,0,1
48487,-100,4,2,1,5,0,1
48532,-100,4,2,1,70,0,1
48801,-100,4,2,1,5,0,1
48846,-100,4,2,1,70,0,1
49025,-100,4,2,1,5,0,1
49070,-100,4,2,1,70,0,1
49608,-100,4,2,1,60,0,0
50102,-100,4,2,1,5,0,0
50146,-100,4,2,1,50,0,0
50640,-100,4,2,1,5,0,0
50684,-100,4,2,1,40,0,0
51178,-100,4,2,1,20,0,0
51223,-100,4,2,1,35,0,0
51312,-100,4,2,1,40,0,0
51402,-100,4,2,1,45,0,0
51492,-100,4,2,1,50,0,0
51581,-100,4,2,1,55,0,0
51671,-100,4,2,1,60,0,0
51761,-100,4,2,1,50,0,0
53285,-100,4,2,1,5,0,0
53375,-100,4,2,1,50,0,0
53554,-100,4,2,1,5,0,0
53644,-100,4,2,1,50,0,0
53823,-100,4,2,1,5,0,0
53913,-100,4,2,1,50,0,0
57590,-100,4,2,1,5,0,0
57680,-100,4,2,1,50,0,0
59474,-100,4,2,1,5,0,0
59563,-100,4,2,1,50,0,0
59743,-100,4,2,1,5,0,0
59832,-100,4,2,1,50,0,0
60371,-100,4,2,1,60,0,0
60550,-100,4,2,1,5,0,0
60640,-100,4,2,1,60,0,0
61447,265.486725663717,4,2,1,60,1,0
61889,-100,4,2,1,5,0,0
61977,-100,4,2,1,60,0,0
62154,-100,4,2,1,5,0,0
62243,-100,4,2,1,60,0,0
62420,-100,4,2,1,5,0,0
62508,256.410256410256,4,2,1,62,1,0
62508,-100,4,2,1,62,0,0
62678,-100,4,2,1,5,0,0
62764,-100,4,2,1,62,0,0
63448,-100,4,2,1,5,0,0
63533,251.046025104603,4,2,1,65,1,0
63533,-100,4,2,1,65,0,0
64537,246.913580246914,4,2,1,68,1,0
64537,-100,4,2,1,68,0,0
65524,241.935483870968,4,2,1,71,1,0
65524,-100,4,2,1,71,0,0
66491,237.154150197628,4,2,1,74,1,0
66491,-100,4,2,1,74,0,0
66649,-100,4,2,1,5,0,0
66728,-100,4,2,1,74,0,0
67360,-100,4,2,1,5,0,0
67440,235.294117647059,4,2,1,77,1,0
67440,-100,4,2,1,77,0,0
67596,-100,4,2,1,5,0,0
67675,-100,4,2,1,77,0,0
68381,-100,4,2,1,80,0,0
73518,-100,4,2,1,5,0,0
73557,-100,4,2,1,80,0,0
74930,-100,4,2,1,5,0,0
74969,-100,4,2,1,80,0,0
75910,-100,4,2,1,80,0,0
81557,-100,4,2,1,60,0,0
82459,-100,4,2,1,5,0,0
82498,-100,4,2,1,80,0,0
83440,-100,4,2,1,90,0,1
84381,-100,4,2,1,90,0,1
84655,-100,4,2,1,90,0,1
84812,-100,4,2,1,5,0,1
84851,-100,4,2,1,90,0,1
85047,-100,4,2,1,5,0,1
85087,-100,4,2,1,90,0,1
85283,-100,4,2,1,5,0,1
85322,-100,4,2,1,90,0,1
85557,-100,4,2,1,90,0,1
85753,-100,4,2,1,5,0,1
85792,-100,4,2,1,90,0,1
86224,-100,4,2,1,5,0,1
86263,-100,4,2,1,90,0,1
86694,-100,4,2,1,5,0,1
86734,-100,4,2,1,90,0,1
87204,-100,4,2,1,90,0,1
87675,-100,4,2,1,90,0,1
87871,-100,4,2,1,5,0,1
87910,-100,4,2,1,90,0,1
88106,-100,4,2,1,5,0,1
88145,-100,4,2,1,90,0,1
88381,-100,4,2,1,5,0,1
88420,-100,4,2,1,90,0,1
88577,-100,4,2,1,5,0,1
88616,-100,4,2,1,90,0,1
89047,-100,4,2,1,5,0,1
89087,-100,4,2,1,90,0,1
90028,-100,4,2,1,90,0,1
90185,-100,4,2,1,5,0,1
90263,-100,4,2,1,90,0,1
90420,-100,4,2,1,5,0,1
90498,-100,4,2,1,90,0,1
90734,-100,4,2,1,80,0,0
90930,-100,4,2,1,5,0,0
90969,-100,4,2,1,90,0,1
91910,-100,4,2,1,90,0,1
92185,-100,4,2,1,90,0,1
92341,-100,4,2,1,5,0,1
92381,-100,4,2,1,90,0,1
92577,-100,4,2,1,5,0,1
92616,-100,4,2,1,90,0,1
92812,-100,4,2,1,5,0,1
92851,-100,4,2,1,90,0,1
93087,-100,4,2,1,90,0,1
93283,-100,4,2,1,5,0,1
93322,-100,4,2,1,90,0,1
93753,-100,4,2,1,5,0,1
93792,-100,4,2,1,90,0,1
94224,-100,4,2,1,5,0,1
94263,-100,4,2,1,90,0,1
94734,-100,4,2,1,90,0,1
95204,-100,4,2,1,90,0,1
95400,-100,4,2,1,5,0,1
95440,-100,4,2,1,90,0,1
95636,-100,4,2,1,5,0,1
95675,-100,4,2,1,90,0,1
95871,-100,4,2,1,5,0,1
95910,-100,4,2,1,90,0,1
96106,-100,4,2,1,5,0,1
96145,-100,4,2,1,90,0,1
96381,-100,4,2,1,80,0,1
96577,-100,4,2,1,5,0,1
96616,-100,4,2,1,90,0,0
99440,-100,4,2,1,90,0,0
100145,-100,4,2,1,90,0,0
100341,-100,4,2,1,5,0,0
100381,-100,4,2,1,90,0,0

[Colours]
Combo1 : 97,192,147
Combo2 : 45,189,186
Combo3 : 248,120,123
Combo4 : 113,204,223

[HitObjects]
144,280,102,6,0,B|176:204|112:204|144:126,1,160,6|10,0:0|0:0,0:0:0:0:
196,64,909,1,2,0:0:0:0:
248,128,1178,2,0,P|288:136|325:128,1,79.9999999999999,4|2,3:0|0:0,0:0:0:0:
376,64,1716,1,10,0:0:0:0:
504,164,2254,6,0,L|496:243,1,79.9999999999999,4|2,3:0|0:0,0:0:0:0:
484,324,2792,2,0,L|405:316,1,79.9999999999999,10|2,0:0|0:0,0:0:0:0:
324,304,3330,2,0,B|208:248|208:360|96:304,1,240,4|2,3:0|0:0,0:0:0:0:
20,276,4406,6,0,L|36:117,1,160,6|10,0:0|0:0,0:0:0:0:
92,60,5213,1,2,0:0:0:0:
144,124,5483,2,0,L|136:203,1,79.9999999999999,4|2,3:0|0:0,0:0:0:0:
124,284,6020,1,10,0:0:0:0:
284,300,6559,6,0,L|292:221,1,79.9999999999999,4|2,3:0|0:0,0:0:0:0:
372,232,7097,2,0,L|364:311,1,79.9999999999999,10|2,0:0|0:0,0:0:0:0:
444,324,7635,2,0,L|452:245,2,79.9999999999999,6|6|10,3:0|3:0|0:0,0:0:0:0:
284,300,8711,6,0,B|232:288|232:288|184:312|184:312|133:300,1,160,6|10,0:0|0:0,0:0:0:0:
72,352,9518,1,2,0:0:0:0:
12,300,9788,2,0,P|4:260|12:223,1,79.9999999999999,4|2,3:0|0:0,0:0:0:0:
72,168,10325,1,10,0:0:0:0:
224,224,10863,6,0,B|263:236|263:236|300:224,1,79.9999999999999,4|2,3:0|0:0,0:0:0:0:
360,168,11402,2,0,B|399:156|399:156|436:168,1,79.9999999999999,10|2,0:0|0:0,0:0:0:0:
496,224,11940,2,0,B|536:168|496:112|496:112|536:56|496:3,1,240,4|2,3:0|0:0,0:0:0:0:
436,56,13016,6,0,B|360:24|360:88|282:56,1,160,6|10,0:0|0:0,0:0:0:0:
220,4,13822,1,2,0:0:0:0:
156,56,14093,2,0,B|144:95|144:95|156:132,1,79.9999999999999,4|2,3:0|0:0,0:0:0:0:
220,180,14631,1,10,0:0:0:0:
156,328,15169,6,0,P|116:336|79:328,1,79.9999999999999,4|2,3:0|0:0,0:0:0:0:
24,268,15707,2,0,P|16:228|24:191,1,79.9999999999999,10|2,0:0|0:0,0:0:0:0:
79,132,16245,2,0,P|119:124|156:132,1,79.9999999999999,6|6,3:0|3:0,0:0:0:0:
208,192,16783,1,6,3:0:0:0:
296,328,17321,6,0,P|364:364|432:328,1,160,6|10,0:0|0:0,0:0:0:0:
364,284,18128,1,2,0:0:0:0:
432,240,18397,2,0,P|440:200|432:163,1,79.9999999999999,4|2,3:0|0:0,0:0:0:0:
364,116,18936,1,10,0:0:0:0:
300,164,19205,1,2,0:0:0:0:
236,116,19474,6,0,B|160:84|160:148|82:116,1,160,4|10,3:0|0:0,0:0:0:0:
40,272,20550,2,0,P|32:312|40:349,1,79.9999999999999,6|2,3:0|0:0,0:0:0:0:
120,349,21088,2,0,P|128:310|119:271,1,79.9999999999999,10|2,0:0|0:0,0:0:0:0:
80,200,21626,6,0,B|156:168|156:232|234:200,1,160,4|10,3:0|0:0,0:0:0:0:
288,140,22433,1,2,0:0:0:0:
344,200,22702,2,0,B|356:239|356:239|344:276,1,79.9999999999999,4|2,3:0|0:0,0:0:0:0:
288,336,23241,2,0,B|249:348|249:348|212:336,1,79.9999999999999,10|2,0:0|0:0,0:0:0:0:
156,276,23779,6,0,P|88:240|20:276,1,160,4|10,3:0|0:0,0:0:0:0:
88,320,24586,1,2,0:0:0:0:
156,276,24855,2,0,P|164:238|155:199,2,79.9999999999999,6|6|2,3:0|3:0|3:0,0:0:0:0:
112,120,25931,6,0,B|164:108|164:108|212:132|212:132|263:120,1,160,6|10,0:0|0:0,0:0:0:0:
320,60,26738,1,2,0:0:0:0:
376,120,27007,2,0,B|388:159|388:159|376:196,1,79.9999999999999,4|2,3:0|0:0,0:0:0:0:
320,256,27546,1,10,0:0:0:0:
376,316,27815,1,2,0:0:0:0:
432,256,28084,6,0,B|468:236|508:256|508:256|488:220|508:179,1,160,4|10,3:0|0:0,0:0:0:0:
508,20,29160,2,0,P|468:12|431:20,1,79.9999999999999,6|2,3:0|0:0,0:0:0:0:
360,60,29698,2,0,P|321:68|282:59,1,79.9999999999999,10|2,0:0|0:0,0:0:0:0:
212,20,30236,6,0,B|180:96|244:96|212:174,1,160,4|10,3:0|0:0,0:0:0:0:
164,240,31043,1,2,0:0:0:0:
208,308,31312,2,0,B|247:320|247:320|284:308,1,79.9999999999999,4|2,3:0|0:0,0:0:0:0:
328,240,31850,2,0,B|367:228|367:228|404:240,1,79.9999999999999,10|2,0:0|0:0,0:0:0:0:
448,308,32389,6,0,P|484:240|448:172,1,160,2|2,0:0|0:0,0:0:0:0:
316,80,33465,2,0,P|307:41|316:2,2,79.9999999999999,6|6|2,3:0|3:0|3:0,0:0:0:0:
376,136,34272,1,2,3:0:0:0:
316,192,34541,6,0,B|240:224|240:160|162:192,1,160,14|10,0:0|0:0,0:0:0:0:
44,304,35617,2,0,B|122:272|122:336|198:304,1,160,4|10,3:0|0:0,0:0:0:0:
244,236,36424,1,0,0:0:0:0:
288,304,36693,6,0,P|327:312|366:303,1,79.9999999999999,6|2,3:0|0:0,0:0:0:0:
412,236,37232,2,0,P|448:304|412:372,1,160,10|6,0:0|3:0,0:0:0:0:
244,371,38308,2,0,P|208:303|244:236,1,160,10|4,0:0|3:0,0:0:0:0:
288,304,39115,5,2,0:0:0:0:
244,371,39384,2,0,L|165:363,1,79.9999999999999,10|0,0:0|0:0,0:0:0:0:
84,351,39922,2,0,L|92:272,1,79.9999999999999,4|0,3:0|0:0,0:0:0:0:
104,192,40460,2,0,B|180:160|180:224|258:192,1,160,10|4,0:0|3:0,0:0:0:0:
324,144,41267,5,2,0:0:0:0:
388,192,41536,2,0,P|396:231|387:269,1,79.9999999999999,10|2,0:0|0:0,0:0:0:0:
324,320,42075,1,4,3:0:0:0:
260,268,42344,1,4,3:0:0:0:
196,320,42613,2,0,B|157:332|157:332|120:320,1,79.9999999999999,2|2,0:0|0:0,0:0:0:0:
56,268,43151,6,0,B|88:192|24:192|56:114,1,160,14|10,0:0|0:0,0:0:0:0:
216,112,44227,2,0,B|248:190|184:190|216:266,1,160,4|10,3:0|0:0,0:0:0:0:
264,332,45034,1,0,0:0:0:0:
308,264,45303,6,0,P|347:256|386:265,1,79.9999999999999,6|2,3:0|0:0,0:0:0:0:
432,332,45842,2,0,P|468:264|432:196,1,160,10|6,0:0|3:0,0:0:0:0:
264,197,46918,2,0,P|228:265|264:332,1,160,10|4,0:0|3:0,0:0:0:0:
308,264,47725,5,2,0:0:0:0:
264,197,47994,2,0,L|185:189,1,79.9999999999999,10|0,0:0|0:0,0:0:0:0:
104,177,48532,2,0,L|112:98,1,79.9999999999999,4|0,3:0|0:0,0:0:0:0:
124,20,49070,2,0,B|176:32|176:32|224:8|224:8|275:20,1,160,10|4,0:0|3:0,0:0:0:0:
384,140,50146,6,0,B|333:128|333:128|285:152|285:152|233:140,1,160,4|4,3:0|3:0,0:0:0:0:
121,250,51223,2,0,P|113:289|122:328,1,79.9999999999999,4|4,3:0|3:0,0:0:0:0:
189,374,51761,6,0,B|265:342|265:406|343:374,1,160,6|10,0:0|0:0,0:0:0:0:
409,326,52568,1,2,0:0:0:0:
345,274,52837,2,0,P|337:234|345:197,1,79.9999999999999,4|2,3:0|0:0,0:0:0:0:
409,146,53375,1,10,0:0:0:0:
345,0,53913,6,0,B|306:-12|306:-12|269:0,1,79.9999999999999,4|2,3:0|0:0,0:0:0:0:
209,56,54451,2,0,B|170:68|170:68|133:56,1,79.9999999999999,10|2,0:0|0:0,0:0:0:0:
73,0,54989,2,0,B|33:56|73:112|73:112|33:168|73:221,1,240,4|2,3:0|0:0,0:0:0:0:
142,266,56066,6,0,P|74:302|6:266,1,160,6|10,0:0|0:0,0:0:0:0:
74,222,56873,1,2,0:0:0:0:
142,266,57142,2,0,B|179:278|179:278|218:266,1,79.9999999999999,4|2,3:0|0:0,0:0:0:0:
285,222,57680,1,10,0:0:0:0:
217,76,58218,6,0,B|180:64|180:64|141:76,1,79.9999999999999,4|2,3:0|0:0,0:0:0:0:
141,156,58756,2,0,B|178:168|178:168|217:156,1,79.9999999999999,10|2,0:0|0:0,0:0:0:0:
289,116,59294,2,0,B|301:79|301:79|289:40,2,79.9999999999999,6|6|10,3:0|3:0|0:0,0:0:0:0:
244,272,60371,6,0,B|296:284|296:284|344:260|344:260|395:272,1,160,6|10,0:0|0:0,0:0:0:0:
448,332,61178,1,2,0:0:0:0:
500,272,61447,2,0,P|508:232|500:195,1,79.9999999999999,4|2,3:0|0:0,0:0:0:0:
448,132,61977,1,10,0:0:0:0:
292,196,62508,6,0,B|253:208|253:208|216:196,1,79.9999999999999,4|2,3:0|0:0,0:0:0:0:
216,116,63020,2,0,B|253:104|253:104|292:116,1,79.9999999999999,10|2,0:0|0:0,0:0:0:0:
364,156,63533,2,0,P|451:118|364:78,1,240,4|2,3:0|0:0,0:0:0:0:
292,116,64537,6,0,B|260:192|324:192|292:270,1,160,6|10,0:0|0:0,0:0:0:0:
240,332,65277,1,2,0:0:0:0:
184,272,65524,2,0,P|144:264|107:272,1,79.9999999999999,4|2,3:0|0:0,0:0:0:0:
52,332,66007,1,10,0:0:0:0:
0,180,66491,6,0,L|8:101,1,79.9999999999999,4|2,3:0|0:0,0:0:0:0:
88,112,66965,2,0,L|80:191,1,79.9999999999999,10|2,0:0|0:0,0:0:0:0:
160,204,67440,2,0,L|168:125,1,79.9999999999999,6|6,3:0|3:0,0:0:0:0:
248,136,67910,1,6,3:0:0:0:
356,256,68381,6,0,P|424:292|492:256,1,160,6|10,0:0|0:0,0:0:0:0:
424,212,69087,1,2,0:0:0:0:
356,256,69322,2,0,L|348:335,1,79.9999999999999,4|2,3:0|0:0,0:0:0:0:
276,376,69792,1,10,0:0:0:0:
204,336,70028,1,2,0:0:0:0:
132,376,70263,6,0,B|100:300|164:300|132:222,1,160,4|10,3:0|0:0,0:0:0:0:
92,68,71204,2,0,P|132:60|169:68,1,79.9999999999999,6|2,3:0|0:0,0:0:0:0:
240,108,71675,2,0,P|279:116|318:107,1,79.9999999999999,10|2,0:0|0:0,0:0:0:0:
388,67,72145,6,0,B|420:143|356:143|388:221,1,160,4|10,3:0|0:0,0:0:0:0:
320,368,73087,2,0,P|281:376|242:367,1,79.9999999999999,4|2,3:0|0:0,0:0:0:0:
196,300,73557,2,0,P|157:292|118:301,1,79.9999999999999,10|2,0:0|0:0,0:0:0:0:
72,368,74028,6,0,P|36:300|72:232,1,160,4|10,3:0|0:0,0:0:0:0:
132,176,74734,1,2,0:0:0:0:
72,120,74969,2,0,P|64:82|73:43,2,79.9999999999999,6|6|2,3:0|3:0|3:0,0:0:0:0:
188,232,75910,6,0,B|264:264|264:200|342:232,1,160,6|10,0:0|0:0,0:0:0:0:
404,284,76616,1,2,0:0:0:0:
468,232,76851,2,0,B|480:193|480:193|468:156,1,79.9999999999999,4|2,3:0|0:0,0:0:0:0:
404,104,77322,1,10,0:0:0:0:
344,156,77557,1,2,0:0:0:0:
280,104,77792,6,0,P|212:68|144:104,1,160,4|10,3:0|0:0,0:0:0:0:
108,260,78734,2,0,P|100:300|108:337,1,79.9999999999999,6|2,3:0|0:0,0:0:0:0:
188,336,79204,2,0,P|196:297|187:258,1,79.9999999999999,10|2,0:0|0:0,0:0:0:0:
148,188,79675,6,0,B|224:156|224:220|302:188,1,160,4|10,3:0|0:0,0:0:0:0:
360,132,80381,1,2,0:0:0:0:
420,188,80616,2,0,B|432:227|432:227|420:264,1,79.9999999999999,4|2,3:0|0:0,0:0:0:0:
360,320,81087,2,0,B|321:332|321:332|284:320,1,79.9999999999999,10|2,0:0|0:0,0:0:0:0:
224,264,81557,6,0,B|148:296|148:232|70:264,1,160,2|2,0:0|0:0,0:0:0:0:
188,156,82498,2,0,P|197:117|188:78,2,79.9999999999999,6|6|2,3:0|3:0|3:0,0:0:0:0:
116,116,83204,1,2,3:0:0:0:
44,156,83440,6,0,B|12:80|76:80|44:2,1,160,14|10,0:0|0:0,0:0:0:0:
204,0,84381,2,0,B|172:78|236:78|204:154,1,160,4|10,3:0|0:0,0:0:0:0:
152,216,85087,1,2,0:0:0:0:
204,280,85322,6,0,P|243:288|282:279,1,79.9999999999999,6|2,3:0|0:0,0:0:0:0:
332,216,85792,2,0,B|384:204|384:204|432:228|432:228|483:216,1,160,10|6,0:0|3:0,0:0:0:0:
484,56,86734,2,0,B|433:44|433:44|385:68|385:68|333:56,1,160,10|4,0:0|3:0,0:0:0:0:
272,112,87440,5,2,0:0:0:0:
212,56,87675,2,0,P|173:48|134:57,1,79.9999999999999,10|2,0:0|0:0,0:0:0:0:
76,112,88145,2,0,P|68:151|77:190,1,79.9999999999999,4|0,3:0|0:0,0:0:0:0:
132,248,88616,2,0,B|208:280|208:216|286:248,1,160,10|4,0:0|3:0,0:0:0:0:
352,296,89322,5,2,0:0:0:0:
416,248,89557,2,0,P|424:209|415:171,1,79.9999999999999,10|2,0:0|0:0,0:0:0:0:
352,120,90028,1,4,3:0:0:0:
288,172,90263,1,4,3:0:0:0:
224,120,90498,2,0,B|185:108|185:108|148:120,1,79.9999999999999,2|2,0:0|0:0,0:0:0:0:
84,172,90969,6,0,P|48:240|84:308,1,160,14|10,0:0|0:0,0:0:0:0:
244,308,91910,2,0,P|280:240|244:172,1,160,4|10,3:0|0:0,0:0:0:0:
200,240,92616,1,2,0:0:0:0:
244,308,92851,6,0,P|283:316|322:307,1,79.9999999999999,6|2,3:0|0:0,0:0:0:0:
368,240,93322,2,0,P|404:307|368:375,1,160,10|6,0:0|3:0,0:0:0:0:
199,375,94263,2,0,P|163:307|200:240,1,160,10|4,0:0|3:0,0:0:0:0:
260,184,94969,5,2,0:0:0:0:
200,128,95204,2,0,L|192:49,1,79.9999999999999,10|2,0:0|0:0,0:0:0:0:
112,48,95675,2,0,L|104:127,1,79.9999999999999,4|0,3:0|0:0,0:0:0:0:
44,184,96145,1,10,0:0:0:0:
152,304,96616,6,0,B|228:336|228:272|306:304,1,160,4|4,3:0|3:0,0:0:0:0:
364,360,97322,1,2,0:0:0:0:
424,304,97557,2,0,P|432:265|423:226,2,79.9999999999999,4|2|4,3:0|0:0|3:0,0:0:0:0:
364,360,98263,1,2,0:0:0:0:
307,304,98498,6,0,P|299:265|308:226,1,79.9999999999999,4|2,3:0|0:0,0:0:0:0:
364,168,98969,1,4,3:0:0:0:
308,108,99204,1,2,0:0:0:0:
252,168,99440,2,0,B|213:180|213:180|176:168,1,79.9999999999999,2|2,0:0|0:0,0:0:0:0:
120,108,99910,2,0,B|84:128|44:108|44:108|64:144|44:185,1,160,2|6,0:0|0:0,0:0:0:0:
