osu file format v14

[General]
AudioFilename: audio.mp3
AudioLeadIn: 0
PreviewTime: 34462
Countdown: 0
SampleSet: Soft
StackLeniency: 0.2
Mode: 0
LetterboxInBreaks: 0
WidescreenStoryboard: 1

[Editor]
DistanceSpacing: 0.8
BeatDivisor: 6
GridSize: 8
TimelineZoom: 2.899999

[Metadata]
Title:Kawaii
TitleUnicode:Kawaii
Artist:Thaehan
ArtistUnicode:Thaehan
Creator:Cris-
Version:Minorsonek's Another
Source:osu!
Tags:-Sh1n1- Shini [_L_u_k_a_s_] Lukas Minorsonek M2Usonek walaowey High Tempo Beatmap Pack FA Featured Artist Gremio Mappers' Guild MG OMGWTF! Electronic Instrumental Video Game Chiptune
BeatmapID:2108178
BeatmapSetID:1000338

[Difficulty]
HPDrainRate:5
CircleSize:3.8
OverallDifficulty:8
ApproachRate:8.8
SliderMultiplier:2
SliderTickRate:1

[Events]
//Background and Video events
0,0,"Kawaii.jpg",0,0
//Break Periods
2,51961,58665
//Storyboard Layer 0 (Background)
//Storyboard Layer 1 (Fail)
//Storyboard Layer 2 (Pass)
//Storyboard Layer 3 (Foreground)
//Storyboard Layer 4 (Overlay)
//Storyboard Sound Samples

[TimingPoints]
102,269.058295964126,4,2,1,50,1,0
102,-250,4,2,1,50,0,0
7635,-133.333333333333,4,2,1,50,0,0
8353,-500,4,2,1,50,0,0
8711,-142.857142857143,4,2,1,55,0,0
10326,-200,4,2,1,55,0,0
10864,-142.857142857143,4,2,1,55,0,0
15169,-133.333333333333,4,2,1,55,0,0
16245,-111.111111111111,4,2,1,60,0,0
17321,-100,4,2,1,60,0,0
24855,-83.3333333333333,4,2,1,60,0,0
25662,-100,4,2,1,60,0,0
25931,-80,4,2,1,65,0,0
32388,-80,4,2,1,50,0,0
33465,-71.4285714285714,4,2,1,60,0,0
33734,-71.4285714285714,4,2,1,65,0,0
33913,-71.4285714285714,4,2,1,70,0,0
34272,-100,4,2,1,70,0,0
34541,-66.6666666666667,4,2,1,70,0,1
35079,-83.3333333333333,4,2,1,70,0,1
35797,-71.4285714285714,4,2,1,70,0,1
37232,-55.5555555555556,4,2,1,70,0,1
37770,-100,4,2,1,70,0,1
38846,-83.3333333333333,4,2,1,70,0,1
39384,-58.8235294117647,4,2,1,70,0,1
39653,-100,4,2,1,70,0,1
39922,-58.8235294117647,4,2,1,70,0,1
40191,-100,4,2,1,70,0,1
40460,-66.6666666666667,4,2,1,70,0,1
40998,-45.4545454545455,4,2,1,70,0,1
42075,-62.5,4,2,1,70,0,1
43151,-66.6666666666667,4,2,1,70,0,1
43689,-83.3333333333333,4,2,1,70,0,1
44406,-71.4285714285714,4,2,1,70,0,1
45841,-55.5555555555556,4,2,1,70,0,1
46380,-100,4,2,1,70,0,1
47456,-83.3333333333333,4,2,1,70,0,1
47994,-58.8235294117647,4,2,1,70,0,1
48263,-100,4,2,1,70,0,1
48532,-58.8235294117647,4,2,1,70,0,1
48801,-100,4,2,1,70,0,1
49070,-66.6666666666667,4,2,1,70,0,1
49608,-100,4,2,1,60,0,0
50146,-133.333333333333,4,2,1,50,0,0
50684,-200,4,2,1,40,0,0
51178,-400,4,2,1,20,0,0
51223,-400,4,2,1,35,0,0
51312,-400,4,2,1,40,0,0
51402,-400,4,2,1,45,0,0
51492,-400,4,2,1,50,0,0
59294,-133.333333333333,4,2,1,50,0,0
60012,-500,4,2,1,50,0,0
60371,-142.857142857143,4,2,1,60,0,0
61447,265.486725663717,4,2,1,60,1,0
61977,-200,4,2,1,60,0,0
62508,256.410256410256,4,2,1,62,1,0
62508,-142.857142857143,4,2,1,62,0,0
63533,251.046025104603,4,2,1,65,1,0
64537,246.913580246914,4,2,1,68,1,0
64537,-142.857142857143,4,2,1,68,0,0
65524,241.935483870968,4,2,1,71,1,0
65524,-142.857142857143,4,2,1,71,0,0
66491,237.154150197628,4,2,1,74,1,0
66491,-133.333333333333,4,2,1,74,0,0
67440,235.294117647059,4,2,1,77,1,0
67440,-111.111111111111,4,2,1,77,0,0
68381,-100,4,2,1,80,0,0
74969,-83.3333333333333,4,2,1,80,0,0
75675,-100,4,2,1,80,0,0
75910,-80,4,2,1,80,0,0
81557,-80,4,2,1,60,0,0
82498,-71.4285714285714,4,2,1,80,0,0
83204,-100,4,2,1,80,0,0
83440,-66.6666666666667,4,2,1,90,0,1
83910,-83.3333333333333,4,2,1,90,0,1
84498,-71.4285714285714,4,2,1,90,0,1
85792,-55.5555555555556,4,2,1,90,0,1
86263,-100,4,2,1,90,0,1
87204,-83.3333333333333,4,2,1,90,0,1
87675,-58.8235294117647,4,2,1,90,0,1
87910,-100,4,2,1,90,0,1
88145,-58.8235294117647,4,2,1,90,0,1
88380,-100,4,2,1,90,0,1
88616,-66.6666666666667,4,2,1,90,0,1
89086,-50,4,2,1,90,0,1
90028,-62.5,4,2,1,90,0,1
90969,-66.6666666666667,4,2,1,90,0,1
91439,-83.3333333333333,4,2,1,90,0,1
91910,-71.4285714285714,4,2,1,90,0,1
93322,-55.5555555555556,4,2,1,90,0,1
93792,-100,4,2,1,90,0,1
94733,-83.3333333333333,4,2,1,90,0,1
95204,-58.8235294117647,4,2,1,90,0,1
95439,-100,4,2,1,90,0,1
95675,-58.8235294117647,4,2,1,90,0,1
95910,-100,4,2,1,90,0,1
96145,-66.6666666666667,4,2,1,90,0,1
96616,-100,4,2,1,90,0,0

[Colours]
Combo1 : 97,192,147
Combo2 : 45,189,186
Combo3 : 248,120,123
Combo4 : 113,204,223

[HitObjects]
39,56,102,6,0,L|187:77,1,133.333333333333,6|2,0:0|0:0,0:0:0:0:
87,147,640,2,0,L|27:155,1,53.3333333333333,10|2,0:0|0:0,0:0:0:0:
155,206,909,1,2,0:0:0:0:
263,51,1088,5,2,0:0:0:0:
323,110,1178,2,0,L|334:180,1,53.3333333333333,4|0,3:0|0:0,0:0:0:0:
237,183,1447,2,0,L|228:130,1,53.3333333333333,2|0,0:0|0:0,0:0:0:0:
346,244,1716,2,0,L|357:314,1,53.3333333333333,10|0,0:0|0:0,0:0:0:0:
260,317,1985,2,0,L|251:264,1,53.3333333333333,2|0,0:0|0:0,0:0:0:0:
322,374,2254,5,4,3:0:0:0:
322,374,2702,1,2,0:0:0:0:
354,296,2792,2,0,L|418:302,1,53.3333333333333,10|2,0:0|0:0,0:0:0:0:
454,384,3061,2,0,L|400:379,1,53.3333333333333,2|0,0:0|0:0,0:0:0:0:
503,309,3330,5,4,3:0:0:0:
32,374,4406,6,0,L|53:226,1,133.333333333333,6|2,0:0|0:0,0:0:0:0:
123,326,4945,2,0,L|131:386,1,53.3333333333333,10|2,0:0|0:0,0:0:0:0:
182,258,5214,1,2,0:0:0:0:
27,150,5393,5,2,0:0:0:0:
86,90,5483,2,0,L|156:79,1,53.3333333333333,4|0,3:0|0:0,0:0:0:0:
159,176,5752,2,0,L|106:185,1,53.3333333333333,2|0,0:0|0:0,0:0:0:0:
220,67,6021,2,0,L|255:61,1,26.6666666666667,10|0,0:0|0:0,0:0:0:0:
293,153,6200,1,2,0:0:0:0:
293,153,6290,2,0,L|240:162,1,53.3333333333333,2|0,0:0|0:0,0:0:0:0:
350,91,6559,5,4,3:0:0:0:
350,91,7007,1,2,0:0:0:0:
373,179,7097,1,10,0:0:0:0:
190,225,7276,1,2,0:0:0:0:
167,137,7366,1,2,0:0:0:0:
307,284,7635,6,0,B|400:288|400:288|460:254,2,150.000005722046,6|6|10,3:0|3:0|0:0,0:0:0:0:
505,214,8353,2,0,L|503:200,1,13.3333333333333,2|2,0:0|0:0,0:0:0:0:
411,11,8622,1,2,0:0:0:0:
368,72,8711,6,0,B|352:101|352:101|382:219,1,139.999995727539,6|2,0:0|0:0,0:0:0:0:
232,154,9160,1,2,0:0:0:0:
268,92,9249,2,0,L|298:44,1,46.6666652425131,10|0,0:0|0:0,0:0:0:0:
204,4,9429,1,2,0:0:0:0:
168,66,9519,2,0,L|138:114,2,46.6666652425131,2|0|2,0:0|0:0|0:0,0:0:0:0:
232,154,9788,5,4,3:0:0:0:
65,52,10057,1,2,0:0:0:0:
232,154,10326,2,0,L|206:204,1,33.3333333333333,10|0,0:0|0:0,0:0:0:0:
65,52,10595,2,0,L|39:102,1,33.3333333333333,2|0,0:0|0:0,0:0:0:0:
56,271,10864,5,4,3:0:0:0:
56,271,11312,1,2,0:0:0:0:
127,320,11402,2,0,L|188:309,1,46.6666652425131,10|0,0:0|0:0,0:0:0:0:
226,237,11581,1,2,0:0:0:0:
297,286,11671,2,0,L|358:275,2,46.6666652425131,2|0|0,0:0|0:0|0:0,0:0:0:0:
395,206,11940,5,4,3:0:0:0:
395,206,12478,1,10,0:0:0:0:
7,374,12927,1,2,0:0:0:0:
50,312,13016,6,0,B|68:278|68:278|48:154,1,139.999995727539,6|2,0:0|0:0,0:0:0:0:
137,76,13465,1,2,0:0:0:0:
150,145,13554,2,0,L|158:200,1,46.6666652425131,10|0,0:0|0:0,0:0:0:0:
255,169,13734,1,2,0:0:0:0:
242,99,13823,2,0,L|233:43,2,46.6666652425131,2|0|2,0:0|0:0|0:0,0:0:0:0:
137,76,14093,5,4,3:0:0:0:
317,118,14362,1,2,0:0:0:0:
137,76,14631,6,0,L|81:82,1,46.6666652425131,10|0,0:0|0:0,0:0:0:0:
12,93,14810,1,2,0:0:0:0:
23,170,14900,1,2,0:0:0:0:
21,334,15169,6,0,B|56:353|56:353|36:239,1,150.000005722046,4|2,3:0|0:0,0:0:0:0:
134,326,15617,1,2,0:0:0:0:
203,366,15707,2,0,L|261:356,1,50.0000019073487,10|0,0:0|0:0,0:0:0:0:
298,285,15886,1,2,0:0:0:0:
229,245,15976,2,0,L|171:255,1,50.0000019073487,2|0,0:0|0:0,0:0:0:0:
395,363,16245,6,0,B|366:349|366:349|405:259,1,119.999996337891,6|0,3:0|0:0,0:0:0:0:
472,225,16514,2,0,B|501:239|501:239|462:329,1,119.999996337891,6|4,3:0|3:0,0:0:0:0:
361,137,16783,5,6,3:0:0:0:
435,129,16873,1,4,3:0:0:0:
404,196,16962,1,4,3:0:0:0:
400,159,17052,1,4,3:0:0:0:
190,34,17232,1,4,3:0:0:0:
249,87,17321,6,0,B|272:220|272:220|143:243,1,266.666666666667,6|0,0:0|0:0,0:0:0:0:
56,184,17770,1,2,0:0:0:0:
56,184,17859,2,0,L|192:160,1,133.333333333333,10|2,0:0|0:0,0:0:0:0:
142,243,18128,2,0,L|10:266,1,133.333333333333,2|2,0:0|0:0,0:0:0:0:
78,332,18397,1,4,3:0:0:0:
157,314,18532,2,0,B|281:292,1,100,0|2,0:0|0:0,0:0:0:0:
3,345,18936,5,10,0:0:0:0:
3,345,19205,1,2,0:0:0:0:
100,98,19474,6,0,B|-2:116|-2:116|28:289,1,266.666666666667,4|0,3:0|0:0,0:0:0:0:
82,178,19922,1,2,0:0:0:0:
82,178,20012,2,0,L|109:322,1,133.333333333333,10|2,0:0|0:0,0:0:0:0:
0,118,20281,1,2,0:0:0:0:
180,342,20550,6,0,B|282:324|282:324|252:151,1,266.666666666667,6|2,3:0|0:0,0:0:0:0:
254,163,20998,1,2,0:0:0:0:
184,202,21088,2,0,L|198:285,2,66.6666666666667,10|2|2,0:0|0:0|0:0,0:0:0:0:
117,251,21357,2,0,L|124:292,4,33.3333333333333,2|2|2|2|2,0:0|0:0|0:0|0:0|0:0,0:0:0:0:
47,287,21626,6,0,B|24:154|24:154|153:131,1,266.666666666667,4|0,3:0|0:0,0:0:0:0:
138,58,22075,1,2,0:0:0:0:
138,58,22164,2,0,L|2:82,1,133.333333333333,10|2,0:0|0:0,0:0:0:0:
214,81,22433,2,0,L|346:58,1,133.333333333333,2|2,0:0|0:0,0:0:0:0:
198,2,22702,1,4,3:0:0:0:
214,81,22837,2,0,B|236:202,1,100,0|2,0:0|0:0,0:0:0:0:
358,71,23241,6,0,L|281:53,1,66.6666666666667,10|0,0:0|0:0,0:0:0:0:
429,33,23420,1,2,0:0:0:0:
502,54,23510,1,2,0:0:0:0:
330,384,23779,6,0,B|432:366|432:366|402:193,1,266.666666666667,4|0,3:0|0:0,0:0:0:0:
348,304,24227,1,2,0:0:0:0:
348,304,24317,2,0,L|321:160,1,133.333333333333,10|2,0:0|0:0,0:0:0:0:
278,331,24586,2,0,L|251:187,1,133.333333333333,2|0,0:0|0:0,0:0:0:0:
158,146,24855,6,0,B|235:128|235:128|216:41,1,159.999995117188,6|2,3:0|0:0,0:0:0:0:
147,8,25124,2,0,B|70:26|70:26|89:113,1,159.999995117188,6|2,3:0|0:0,0:0:0:0:
158,146,25393,5,2,3:0:0:0:
234,127,25483,1,2,3:0:0:0:
217,48,25572,1,2,3:0:0:0:
147,8,25662,6,0,L|101:19,5,33.3333333333333,2|2|2|2|2|2,3:0|0:0|3:0|0:0|3:0|0:0,0:0:0:0:
87,105,25931,6,0,B|27:271|27:271|181:329,1,333.333333333333,6|0,0:0|0:0,0:0:0:0:
297,280,26380,1,2,0:0:0:0:
279,285,26469,2,0,L|118:225,1,166.666666666667,10|2,0:0|0:0,0:0:0:0:
252,355,26738,2,0,L|91:295,1,166.666666666667,2|2,0:0|0:0,0:0:0:0:
305,205,27007,1,4,3:0:0:0:
380,177,27142,2,0,B|516:214,1,125,0|2,0:0|0:0,0:0:0:0:
490,56,27545,5,10,0:0:0:0:
490,56,27815,1,2,0:0:0:0:
204,259,28084,6,0,B|264:93|264:93|110:35,1,333.333333333333,4|0,3:0|0:0,0:0:0:0:
0,92,28532,1,2,0:0:0:0:
20,83,28622,2,0,L|124:125,1,83.3333333333333,10|0,0:0|0:0,0:0:0:0:
139,196,28801,1,2,0:0:0:0:
118,205,28891,2,0,L|13:162,1,83.3333333333333,2|0,0:0|0:0,0:0:0:0:
237,337,29160,6,0,L|-13:233,1,250,6|2,3:0|0:0,0:0:0:0:
7,240,29519,1,2,0:0:0:0:
7,240,29608,1,2,0:0:0:0:
40,173,29698,2,0,L|118:205,2,83.3333333333333,10|2|2,0:0|0:0|0:0,0:0:0:0:
89,111,29967,2,0,L|127:126,5,41.6666666666667,2|2|2|2|2|2,0:0|0:0|0:0|0:0|0:0|0:0,0:0:0:0:
94,32,30236,6,0,B|240:87|240:87|180:253,1,333.333333333333,4|0,3:0|0:0,0:0:0:0:
236,375,30684,1,2,0:0:0:0:
228,350,30774,2,0,L|289:167,1,166.666666666667,10|2,0:0|0:0,0:0:0:0:
305,355,31043,2,0,L|366:172,1,166.666666666667,2|2,0:0|0:0,0:0:0:0:
436,224,31312,1,4,3:0:0:0:
357,196,31447,2,0,L|214:149,1,125,0|2,0:0|0:0,0:0:0:0:
54,178,31850,6,0,L|34:87,1,83.3333333333333,10|0,0:0|0:0,0:0:0:0:
32,251,32030,1,2,0:0:0:0:
50,326,32119,1,2,0:0:0:0:
256,192,32388,12,0,33375,0:0:0:0:
252,272,33465,6,0,B|164:251|164:251|185:152,1,186.666660970052,6|2,3:0|0:0,0:0:0:0:
266,114,33734,2,0,B|353:134|353:134|332:233,1,186.666660970052,6|2,3:0|0:0,0:0:0:0:
252,272,34003,5,2,3:0:0:0:
164,248,34093,1,2,3:0:0:0:
184,157,34182,1,2,3:0:0:0:
266,114,34272,6,0,L|312:125,5,33.3333333333333,2|2|2|2|2|2,3:0|0:0|3:0|0:0|0:0|0:0,0:0:0:0:
332,229,34541,6,0,B|347:169|403:138|498:190|471:244|437:257|494:305|494:305|392:269|402:393|281:354,1,500.000019073487,14|0,0:0|0:0,0:0:0:0:
251,272,35079,2,0,P|110:221|255:182,1,399.999987792969,10|0,0:0|0:0,0:0:0:0:
188,224,35617,5,4,3:0:0:0:
20,66,35797,2,0,P|57:32|90:70,2,93.3333304850261,2|0|0,0:0|0:0|0:0,0:0:0:0:
20,66,36155,2,0,B|11:161|133:205|135:138|184:101|229:109|297:157|264:215|268:244|354:269|448:225,1,466.666652425131,10|0,0:0|0:0,0:0:0:0:
360,154,36693,5,6,3:0:0:0:
409,137,36783,1,2,0:0:0:0:
360,135,36873,1,2,0:0:0:0:
409,118,36962,1,2,0:0:0:0:
126,277,37232,6,0,B|159:320|130:369|130:369|83:379|31:343|-1:286|16:222|43:179|97:173|147:180|168:159|206:110|203:64|170:6|125:-4,1,599.999981689454,10|0,0:0|0:0,0:0:0:0:
25,94,37770,6,0,P|99:150|67:11,1,333.333333333333,6|0,3:0|0:0,0:0:0:0:
95,78,38308,5,10,0:0:0:0:
151,83,38397,1,2,0:0:0:0:
207,88,38487,1,2,0:0:0:0:
284,135,38577,5,2,0:0:0:0:
340,130,38667,1,2,0:0:0:0:
396,125,38756,1,2,0:0:0:0:
459,65,38846,6,0,L|454:26,1,39.9999987792969,4|0,3:0|0:0,0:0:0:0:
480,139,38980,6,0,L|475:100,1,39.9999987792969,2|0,0:0|0:0,0:0:0:0:
501,213,39115,6,0,L|496:174,1,39.9999987792969,2|0,0:0|0:0,0:0:0:0:
480,283,39249,6,0,L|475:244,1,39.9999987792969,2|0,0:0|0:0,0:0:0:0:
426,334,39384,6,0,B|379:284|322:294|291:345|238:378|152:345|148:295,1,283.333338737488,10|0,0:0|0:0,0:0:0:0:
112,273,39653,2,0,P|170:280|209:320,1,100,0|0,0:0|0:0,0:0:0:0:
344,150,39922,6,0,B|278:130|233:167|232:227|203:282|112:296|83:255,1,283.333338737488,4|0,3:0|0:0,0:0:0:0:
41,254,40191,2,0,P|94:231|148:246,1,100,0|0,0:0|0:0,0:0:0:0:
207,12,40460,6,0,B|145:57|170:138|94:176|48:153|48:153|23:118|45:62|126:37|196:129|268:71,1,500.000019073487,10|0,0:0|0:0,0:0:0:0:
381,37,40998,5,4,3:0:0:0:
381,37,41178,2,0,B|447:123|310:175|403:257,2,220.000006713867,2|0|2,0:0|0:0|0:0,0:0:0:0:
240,242,41536,5,10,0:0:0:0:
240,242,41716,2,0,B|306:156|169:104|262:22,2,220.000006713867,2|0|2,0:0|0:0|0:0,0:0:0:0:
193,349,42075,6,0,P|88:346|15:272,1,213.333333333333,4|0,3:0|0:0,0:0:0:0:
62,165,42344,2,0,P|166:167|239:241,1,213.333333333333,4|0,3:0|0:0,0:0:0:0:
193,349,42613,5,2,0:0:0:0:
123,356,42702,1,2,0:0:0:0:
58,328,42792,1,2,0:0:0:0:
15,272,42882,1,2,0:0:0:0:
353,99,43151,6,0,B|397:82|402:3|331:-38|223:30|250:150|333:200|333:200|377:159|441:160|482:197,1,500.000019073487,14|0,0:0|0:0,0:0:0:0:
512,348,43689,2,0,B|481:366|435:344|417:304|425:254|425:254|412:238|388:235|378:293|309:273|309:273|249:253|215:301,1,399.999987792969,10|0,0:0|0:0,0:0:0:0:
151,379,44227,5,4,3:0:0:0:
76,152,44406,2,0,P|44:174|-12:160,2,93.3333304850261,2|0|0,0:0|0:0|0:0,0:0:0:0:
76,152,44765,2,0,B|51:95|125:49|212:57|177:180|217:223|286:215|308:195|343:161|337:85|265:68|193:128,1,466.666652425131,10|0,0:0|0:0,0:0:0:0:
110,232,45303,5,6,3:0:0:0:
98,281,45393,1,2,0:0:0:0:
88,240,45483,1,2,0:0:0:0:
76,289,45572,1,2,0:0:0:0:
349,284,45841,6,0,B|377:319|358:364|358:364|293:401|232:336|223:241|273:157|348:149|422:214|485:160|521:118|497:38,1,599.999981689454,10|0,0:0|0:0,0:0:0:0:
355,70,46380,6,0,P|426:145|427:11,1,300,6|0,3:0|0:0,0:0:0:0:
284,121,46918,5,10,0:0:0:0:
240,150,47007,1,2,0:0:0:0:
191,139,47097,1,2,0:0:0:0:
123,107,47187,5,2,0:0:0:0:
74,96,47276,1,2,0:0:0:0:
30,125,47366,1,2,0:0:0:0:
50,198,47456,6,0,L|86:175,1,39.9999987792969,4|0,3:0|0:0,0:0:0:0:
115,245,47590,6,0,L|151:268,1,39.9999987792969,2|0,0:0|0:0,0:0:0:0:
226,249,47725,6,0,L|262:226,1,39.9999987792969,2|0,0:0|0:0,0:0:0:0:
291,296,47859,6,0,L|327:319,1,39.9999987792969,2|0,0:0|0:0,0:0:0:0:
393,282,47994,6,0,B|359:216|396:134|468:196|481:87|470:44|436:10,1,283.333338737488,10|0,0:0|0:0,0:0:0:0:
378,11,48263,2,0,P|383:61|429:99,1,100,0|0,0:0|0:0,0:0:0:0:
125,243,48532,6,0,B|128:168|201:116|232:206|298:118|310:75|298:28,1,283.333338737488,4|0,3:0|0:0,0:0:0:0:
247,0,48801,2,0,P|226:45|247:101,1,100,0|0,0:0|0:0,0:0:0:0:
176,303,49070,6,0,B|146:339|84:347|26:309|-3:241|5:163|83:188|146:108|134:43|73:-12|8:7,1,500.000019073487,10|0,0:0|0:0,0:0:0:0:
201,107,49608,6,0,L|504:151,1,300,4|0,3:0|0:0,0:0:0:0:
449,221,50146,6,0,L|226:188,1,225.000008583069,4|0,3:0|0:0,0:0:0:0:
258,272,50684,6,0,L|405:293,1,150,4|0,3:0|0:0,0:0:0:0:
218,352,51223,5,4,3:0:0:0:
218,352,51312,1,4,3:0:0:0:
218,352,51402,1,4,3:0:0:0:
188,367,51492,1,4,3:0:0:0:
146,368,51581,1,4,3:0:0:0:
98,333,51671,1,4,3:0:0:0:
83,252,51761,5,6,0:0:0:0:
19,165,59294,6,0,B|15:258|15:258|49:318,2,150.000005722046,6|6|10,3:0|3:0|0:0,0:0:0:0:
89,363,60012,2,0,L|103:361,1,13.3333333333333,2|2,0:0|0:0,0:0:0:0:
292,269,60281,1,2,0:0:0:0:
231,226,60371,6,0,B|202:209|202:209|84:239,1,139.999995727539,6|2,0:0|0:0,0:0:0:0:
295,347,60819,1,2,0:0:0:0:
357,311,60909,2,0,L|405:281,1,46.6666652425131,10|0,0:0|2:0,0:0:0:0:
393,208,61088,1,2,0:0:0:0:
331,244,61178,2,0,L|283:274,2,46.6666652425131,2|0|2,0:0|2:0|0:0,0:0:0:0:
295,347,61447,5,4,3:0:0:0:
335,170,61712,1,2,0:0:0:0:
294,346,61977,2,0,L|245:341,1,50,10|0,0:0|0:0,0:0:0:0:
335,170,62243,2,0,L|285:164,1,50,2|0,0:0|0:0,0:0:0:0:
454,367,62508,5,4,3:0:0:0:
454,367,62935,1,2,0:0:0:0:
497,302,63020,2,0,L|486:241,1,46.6666652425131,10|0,0:0|0:0,0:0:0:0:
424,216,63191,1,2,0:0:0:0:
380,279,63277,2,0,L|391:340,2,46.6666652425131,2|0|0,0:0|0:0|0:0,0:0:0:0:
454,367,63533,5,4,3:0:0:0:
454,367,64035,1,10,0:0:0:0:
291,73,64453,1,2,0:0:0:0:
335,104,64537,6,0,B|369:122|369:122|493:102,1,139.999995727539,6|2,0:0|0:0,0:0:0:0:
311,184,64948,1,2,0:0:0:0:
266,193,65030,2,0,L|211:201,1,46.6666652425131,10|0,0:0|0:0,0:0:0:0:
137,139,65195,1,2,0:0:0:0:
182,130,65277,2,0,L|236:121,2,46.6666652425131,2|0|2,0:0|0:0|0:0,0:0:0:0:
148,214,65524,5,4,3:0:0:0:
194,52,65765,1,2,0:0:0:0:
148,214,66007,6,0,L|158:272,1,46.6666652425131,10|0,0:0|0:0,0:0:0:0:
176,347,66169,1,2,0:0:0:0:
223,337,66249,1,2,0:0:0:0:
465,348,66491,6,0,B|430:367|430:367|450:253,1,150.000005722046,4|2,3:0|0:0,0:0:0:0:
472,133,66886,1,2,0:0:0:0:
443,162,66965,2,0,L|393:170,1,50.0000019073487,10|0,0:0|0:0,0:0:0:0:
353,154,67123,1,2,0:0:0:0:
324,183,67202,2,0,L|274:191,1,50.0000019073487,2|0,0:0|0:0,0:0:0:0:
67,57,67440,6,0,B|81:28|81:28|171:67,1,119.999996337891,6|0,3:0|0:0,0:0:0:0:
205,134,67675,2,0,B|190:163|190:163|100:124,1,119.999996337891,6|0,3:0|3:0,0:0:0:0:
249,44,67910,5,6,3:0:0:0:
297,39,67989,1,0,3:0:0:0:
277,83,68067,1,0,3:0:0:0:
274,59,68145,1,0,3:0:0:0:
512,251,68302,1,0,3:0:0:0:
478,290,68381,6,0,B|345:313|345:313|322:184,1,266.666666666667,6|0,0:0|2:0,0:0:0:0:
382,93,68773,1,2,0:0:0:0:
382,93,68851,2,0,L|407:233,1,133.333333333333,10|2,0:0|0:0,0:0:0:0:
345,314,69087,2,0,L|321:182,1,133.333333333333,2|2,0:0|0:0,0:0:0:0:
233,114,69322,1,4,3:0:0:0:
247,186,69440,2,0,L|268:312,1,100,0|2,0:0|0:0,0:0:0:0:
297,48,69792,5,10,0:0:0:0:
297,48,70028,1,2,0:0:0:0:
173,209,70263,6,0,B|197:347|197:347|73:374,1,266.666666666667,4|0,3:0|0:0,0:0:0:0:
54,302,70655,1,2,0:0:0:0:
54,302,70734,2,0,L|193:271,1,133.333333333333,10|2,0:0|0:0,0:0:0:0:
73,374,70969,1,2,0:0:0:0:
16,102,71204,6,0,B|149:79|149:79|172:208,1,266.666666666667,6|2,3:0|0:0,0:0:0:0:
172,208,71596,1,2,0:0:0:0:
245,196,71675,2,0,L|233:130,2,66.6666666666667,10|2|2,0:0|0:0|0:0,0:0:0:0:
316,182,71910,2,0,L|310:149,4,33.3333333333333,2|2|2|2|2,0:0|0:0|0:0|0:0|0:0,0:0:0:0:
390,169,72145,6,0,B|367:36|367:36|496:13,1,266.666666666667,4|0,3:0|0:0,0:0:0:0:
474,224,72538,1,2,0:0:0:0:
474,224,72616,2,0,L|450:88,1,133.333333333333,10|2,0:0|0:0,0:0:0:0:
380,256,72851,2,0,L|512:233,1,133.333333333333,2|2,0:0|0:0,0:0:0:0:
399,358,73087,1,4,3:0:0:0:
341,315,73204,2,0,B|321:212,1,100,0|2,0:0|0:0,0:0:0:0:
140,333,73557,6,0,L|225:353,1,66.6666666666667,10|0,0:0|0:0,0:0:0:0:
84,348,73714,1,2,0:0:0:0:
29,359,73792,1,2,0:0:0:0:
139,26,74028,6,0,B|37:44|37:44|67:217,1,266.666666666667,4|0,3:0|0:0,0:0:0:0:
123,107,74420,1,2,0:0:0:0:
123,107,74498,2,0,L|150:251,1,133.333333333333,10|2,0:0|0:0,0:0:0:0:
193,80,74734,2,0,L|220:224,1,133.333333333333,2|0,0:0|0:0,0:0:0:0:
367,197,74969,6,0,B|290:215|290:215|309:302,1,159.999995117188,6|2,3:0|0:0,0:0:0:0:
378,335,75204,2,0,B|455:317|455:317|436:230,1,159.999995117188,6|2,3:0|0:0,0:0:0:0:
291,216,75440,5,2,3:0:0:0:
299,256,75518,1,2,3:0:0:0:
308,295,75596,1,2,3:0:0:0:
378,335,75675,6,0,L|424:324,5,33.3333333333333,2|2|2|2|2|2,3:0|0:0|3:0|0:0|3:0|0:0,0:0:0:0:
437,237,75910,6,0,B|396:65|396:65|236:100,1,333.333333333333,6|0,0:0|0:0,0:0:0:0:
167,186,76302,1,2,0:0:0:0:
177,191,76381,2,0,L|344:153,1,166.666666666667,10|2,0:0|0:0,0:0:0:0:
243,98,76616,2,0,L|80:133,1,166.666666666667,2|2,0:0|0:0,0:0:0:0:
6,147,76851,1,4,3:0:0:0:
38,211,76969,2,0,B|95:197|95:197|78:126,1,125,0|2,0:0|0:0,0:0:0:0:
0,0,77322,5,10,0:0:0:0:
0,0,77557,1,2,0:0:0:0:
156,126,77792,6,0,B|192:288|192:288|362:254,1,333.333333333333,4|0,3:0|0:0,0:0:0:0:
339,174,78185,1,2,0:0:0:0:
330,183,78263,2,0,L|235:202,1,83.3333333333333,10|0,0:0|0:0,0:0:0:0:
228,117,78420,1,2,0:0:0:0:
239,124,78498,2,0,L|320:107,1,83.3333333333333,2|0,0:0|0:0,0:0:0:0:
412,321,78734,6,0,L|161:371,1,250,6|2,3:0|0:0,0:0:0:0:
166,369,79047,1,2,0:0:0:0:
166,369,79126,1,2,0:0:0:0:
167,295,79204,2,0,L|262:276,2,83.3333333333333,10|2|2,0:0|0:0|0:0,0:0:0:0:
174,219,79440,2,0,L|217:210,5,41.6666666666667,2|2|2|2|2|2,0:0|0:0|0:0|0:0|0:0|0:0,0:0:0:0:
180,141,79675,6,0,B|366:103|366:103|403:256,1,333.333333333333,4|0,3:0|0:0,0:0:0:0:
345,361,80067,1,2,0:0:0:0:
350,351,80145,2,0,L|309:185,1,166.666666666667,10|2,0:0|0:0,0:0:0:0:
414,298,80381,2,0,L|373:135,1,166.666666666667,2|2,0:0|0:0,0:0:0:0:
278,367,80616,1,4,3:0:0:0:
260,301,80734,2,0,B|246:238|246:238|169:253,1,125,0|2,0:0|0:0,0:0:0:0:
138,60,81087,6,0,L|231:73,1,83.3333333333333,10|0,0:0|0:0,0:0:0:0:
81,52,81243,1,2,0:0:0:0:
25,44,81322,1,2,0:0:0:0:
256,192,81557,12,0,82420,0:0:0:0:
300,355,82498,6,0,B|212:334|212:334|233:235,1,186.666660970052,6|2,3:0|0:0,0:0:0:0:
314,197,82734,2,0,B|401:217|401:217|380:316,1,186.666660970052,6|2,3:0|0:0,0:0:0:0:
212,331,82969,5,2,3:0:0:0:
222,285,83047,1,2,3:0:0:0:
232,240,83126,1,2,3:0:0:0:
314,197,83204,6,0,L|360:208,5,33.3333333333333,2|2|2|2|2|2,3:0|0:0|3:0|0:0|0:0|0:0,0:0:0:0:
346,204,83440,6,0,B|361:264|417:295|512:243|485:189|451:176|508:128|416:40|320:39|231:121,1,500.000019073487,14|0,0:0|0:0,0:0:0:0:
228,206,83910,2,0,P|87:155|232:116,1,399.999987792969,10|0,0:0|0:0,0:0:0:0:
165,158,84381,5,4,3:0:0:0:
88,293,84538,2,0,P|125:327|158:289,2,93.3333304850261,2|2|0,0:0|0:0|0:0,0:0:0:0:
88,293,84851,2,0,B|20:277|-17:197|-19:93|52:57|122:31|201:76|185:158|145:185,1,419.999987182618,10|0,0:0|0:0,0:0:0:0:
266,280,85322,5,6,3:0:0:0:
294,271,85400,1,2,0:0:0:0:
266,269,85479,1,2,0:0:0:0:
294,259,85557,1,2,0:0:0:0:
412,61,85792,6,0,B|473:37|514:83|514:83|504:153|434:171|352:159|304:53|304:53|326:132|275:192|199:186,1,599.999981689454,10|0,0:0|0:0,0:0:0:0:
146,110,86263,6,0,P|220:166|188:27,1,333.333333333333,6|0,3:0|0:0,0:0:0:0:
218,94,86734,5,10,0:0:0:0:
182,103,86812,1,2,0:0:0:0:
146,110,86890,1,2,0:0:0:0:
97,134,86969,5,2,0:0:0:0:
61,125,87047,1,2,0:0:0:0:
25,118,87126,1,2,0:0:0:0:
20,179,87204,6,0,L|15:140,1,39.9999987792969,4|0,3:0|0:0,0:0:0:0:
44,215,87322,6,0,L|39:176,1,39.9999987792969,2|0,0:0|0:0,0:0:0:0:
68,251,87440,6,0,L|63:212,1,39.9999987792969,2|0,0:0|0:0,0:0:0:0:
92,287,87557,6,0,L|87:248,1,39.9999987792969,2|0,0:0|0:0,0:0:0:0:
126,320,87675,6,0,B|155:257|212:249|257:288|318:303|389:245|378:197,1,283.333338737488,10|0,0:0|0:0,0:0:0:0:
405,164,87910,2,0,P|352:188|327:238,1,100,2|0,0:0|0:0,0:0:0:0:
145,118,88145,6,0,B|201:78|255:100|274:156|319:200|410:185|425:137,1,283.333338737488,4|0,3:0|0:0,0:0:0:0:
464,122,88381,2,0,P|405:116|359:147,1,100,0|0,0:0|0:0,0:0:0:0:
118,42,88616,6,0,B|18:87|35:210|134:259|205:183|272:224|310:300|264:372|198:386,1,500.000019073487,10|0,0:0|0:0,0:0:0:0:
126,320,89087,5,4,3:0:0:0:
126,320,89243,2,0,P|99:235|42:302,2,200,2|0|2,0:0|0:0|0:0,0:0:0:0:
235,321,89557,5,10,0:0:0:0:
235,321,89714,2,0,P|262:236|319:303,2,200,2|0|2,0:0|0:0|0:0,0:0:0:0:
180,188,90028,6,0,P|178:116|301:61,1,213.333333333333,4|0,3:0|0:0,0:0:0:0:
385,21,90263,2,0,P|387:93|264:148,1,213.333333333333,4|0,3:0|0:0,0:0:0:0:
291,57,90498,5,2,0:0:0:0:
286,86,90577,1,2,0:0:0:0:
280,118,90655,1,2,0:0:0:0:
273,151,90734,1,2,0:0:0:0:
90,108,90969,6,0,B|126:59|75:8|75:8|19:20|-3:91|-16:135|31:185|94:224|121:260|115:326|81:356,1,500.000019073487,14|0,0:0|0:0,0:0:0:0:
25,296,91440,2,0,P|136:181|169:348,1,399.999987792969,10|0,0:0|0:0,0:0:0:0:
92,342,91910,5,4,3:0:0:0:
275,222,92067,2,0,P|303:259|259:297,2,93.3333304850261,2|2|0,0:0|0:0|0:0,0:0:0:0:
275,222,92381,2,0,B|249:166|228:88|245:34|321:6|382:40|386:106|381:164|261:187|186:114,1,466.666652425131,10|0,0:0|0:0,0:0:0:0:
91,54,92851,5,6,3:0:0:0:
119,63,92930,1,2,0:0:0:0:
91,65,93008,1,2,0:0:0:0:
119,75,93087,1,2,0:0:0:0:
142,334,93322,6,0,B|107:362|54:347|54:347|25:278|90:217|185:208|269:258|208:361|251:389|384:358|388:273|341:207|277:227,1,599.999981689454,10|0,0:0|0:0,0:0:0:0:
253,327,93792,6,0,P|329:329|249:230,1,266.666666666667,6|0,3:0|0:0,0:0:0:0:
268,217,94263,5,10,0:0:0:0:
277,181,94341,1,2,0:0:0:0:
284,145,94420,1,2,0:0:0:0:
248,110,94498,5,2,0:0:0:0:
212,119,94577,1,2,0:0:0:0:
176,126,94655,1,2,0:0:0:0:
134,161,94734,6,0,L|126:115,1,39.9999987792969,4|0,3:0|0:0,0:0:0:0:
106,194,94851,6,0,L|98:148,1,39.9999987792969,2|0,0:0|0:0,0:0:0:0:
78,227,94969,6,0,L|70:181,1,39.9999987792969,2|0,0:0|0:0,0:0:0:0:
50,260,95087,6,0,L|42:214,1,39.9999987792969,2|0,0:0|0:0,0:0:0:0:
17,296,95204,6,0,B|55:345|145:348|150:242|244:238|299:309,1,283.333338737488,10|0,0:0|0:0,0:0:0:0:
222,347,95440,2,0,P|243:289|291:292,1,100,2|0,0:0|0:0,0:0:0:0:
122,138,95675,6,0,B|130:199|206:247|264:157|347:201|359:290,1,283.333338737488,4|0,3:0|0:0,0:0:0:0:
274,284,95910,2,0,P|321:244|361:270,1,100,0|0,0:0|0:0,0:0:0:0:
426,112,96145,6,0,B|357:125|369:225|449:230|508:199|534:129|534:72|509:40|462:-5|368:-7|307:22,1,450.000017166138,10|0,0:0|0:0,0:0:0:0:
295,74,96616,5,4,3:0:0:0:
295,74,96694,1,2,0:0:0:0:
295,74,96773,1,2,0:0:0:0:
295,74,96851,2,0,L|222:56,2,66.6666666666667,2|2|2,0:0|0:0|0:0,0:0:0:0:
242,156,97087,5,4,3:0:0:0:
242,156,97165,1,2,0:0:0:0:
242,156,97243,1,2,0:0:0:0:
242,156,97322,2,0,L|169:174,2,66.6666666666667,2|2|2,0:0|0:0|0:0,0:0:0:0:
146,92,97557,5,4,3:0:0:0:
146,92,97636,1,2,0:0:0:0:
146,92,97714,1,2,0:0:0:0:
146,92,97792,2,0,L|73:74,2,66.6666666666667,2|2|2,0:0|0:0|0:0,0:0:0:0:
82,175,98028,5,4,3:0:0:0:
82,175,98106,1,2,0:0:0:0:
82,175,98185,1,2,0:0:0:0:
82,175,98263,2,0,L|9:193,2,66.6666666666667,2|2|2,0:0|0:0|0:0,0:0:0:0:
60,264,98498,5,4,3:0:0:0:
64,281,98577,1,2,0:0:0:0:
75,296,98655,1,2,0:0:0:0:
94,308,98734,2,0,L|177:293,2,66.6666666666667,2|2|2,0:0|0:0|0:0,0:0:0:0:
261,246,98969,5,4,3:0:0:0:
257,229,99047,1,2,0:0:0:0:
246,214,99126,1,2,0:0:0:0:
227,202,99204,2,0,L|144:217,2,66.6666666666667,2|2|2,0:0|0:0|0:0,0:0:0:0:
244,326,99440,5,2,0:0:0:0:
256,192,99518,12,6,100381,0:0:0:0:
