osu file format v14

[General]
AudioFilename: audio.mp3
AudioLeadIn: 0
PreviewTime: 34462
Countdown: 0
SampleSet: Soft
StackLeniency: 0.4
Mode: 0
LetterboxInBreaks: 0
WidescreenStoryboard: 1

[Editor]
DistanceSpacing: 0.8
BeatDivisor: 6
GridSize: 8
TimelineZoom: 3.999998

[Metadata]
Title:Kawaii
TitleUnicode:Kawaii
Artist:Thaehan
ArtistUnicode:Thaehan
Creator:Cris-
Version:Lukas' Insane
Source:osu!
Tags:-Sh1n1- Shini [_L_u_k_a_s_] Lukas Minorsonek M2Usonek walaowey High Tempo Beatmap Pack FA Featured Artist Gremio Mappers' Guild MG OMGWTF! Electronic Instrumental Video Game Chiptune
BeatmapID:2135427
BeatmapSetID:1000338

[Difficulty]
HPDrainRate:5
CircleSize:3.6
OverallDifficulty:8
ApproachRate:9
SliderMultiplier:1.4
SliderTickRate:1

[Events]
//Background and Video events
0,0,"Kawaii.jpg",0,0
//Break Periods
2,51961,59771
//Storyboard Layer 0 (Background)
//Storyboard Layer 1 (Fail)
//Storyboard Layer 2 (Pass)
//Storyboard Layer 3 (Foreground)
//Storyboard Layer 4 (Overlay)
//Storyboard Sound Samples

[TimingPoints]
102,269.058295964126,4,2,1,50,1,0
102,-133.333333333333,4,2,1,50,0,0
8711,-100,4,2,1,55,0,0
16245,-100,4,2,1,60,0,0
16693,-66.6666666666667,4,2,1,60,0,0
17321,-83.3333333333333,4,2,1,60,0,0
25931,-83.3333333333333,4,2,1,65,0,0
32388,-83.3333333333333,4,2,1,50,0,0
33465,-83.3333333333333,4,2,1,60,0,0
34541,-100,4,2,1,70,0,0
49608,-133.333333333333,4,2,1,60,0,0
50146,-153.846153846154,4,2,1,50,0,0
50684,-200,4,2,1,40,0,0
51223,-200,4,2,1,35,0,0
51312,-200,4,2,1,40,0,0
51402,-200,4,2,1,45,0,0
51492,-200,4,2,1,50,0,0
51581,-200,4,2,1,55,0,0
51671,-200,4,2,1,60,0,0
51761,-133.333333333333,4,2,1,80,0,0
51904,-133.333333333333,4,2,1,50,0,0
60371,-100,4,2,1,60,0,0
61447,265.486725663717,4,2,1,60,1,0
62508,256.410256410256,4,2,1,62,1,0
63533,251.046025104603,4,2,1,65,1,0
64537,246.913580246914,4,2,1,68,1,0
65524,241.935483870968,4,2,1,71,1,0
66491,237.154150197628,4,2,1,74,1,0
67440,235.294117647059,4,2,1,77,1,0
68381,-83.3333333333333,4,2,1,80,0,1
81557,-133.333333333333,4,2,1,60,0,0
82498,-66.6666666666667,4,2,1,80,0,0
83440,-100,4,2,1,90,0,0
96616,-133.333333333333,4,2,1,90,0,0
97086,-117.647058823529,4,2,1,90,0,0
97557,-100,4,2,1,90,0,0
98028,-83.3333333333333,4,2,1,90,0,0
98498,-66.6666666666667,4,2,1,90,0,0
98969,-58.8235294117647,4,2,1,90,0,0

[Colours]
Combo1 : 97,192,147
Combo2 : 45,189,186
Combo3 : 248,120,123
Combo4 : 113,204,223

[HitObjects]
88,141,102,5,6,0:0:0:0:
75,368,371,2,0,P|128:332|180:330,1,105.000004005432,2|10,0:0|0:0,0:0:0:0:
243,195,909,2,0,P|296:231|348:233,1,105.000004005432,2|4,0:0|3:0,0:0:0:0:
71,356,1447,2,0,P|124:320|176:318,1,105.000004005432,2|10,0:0|0:0,0:0:0:0:
249,180,1985,2,0,P|302:216|354:218,1,105.000004005432,2|4,0:0|3:0,0:0:0:0:
49,40,2523,6,0,L|39:165,1,105.000004005432,2|10,0:0|0:0,0:0:0:0:
163,315,3061,2,0,L|154:210,1,105.000004005432,2|4,0:0|3:0,0:0:0:0:
32,36,3599,2,0,L|22:161,1,105.000004005432,2|10,0:0|0:0,0:0:0:0:
182,319,4137,1,2,0:0:0:0:
300,48,4406,5,6,0:0:0:0:
293,210,4675,2,0,P|359:177|380:176,1,70.0000026702882,2|2,0:0|0:0,0:0:0:0:
382,182,4945,1,10,0:0:0:0:
403,17,5214,2,0,P|459:63|512:65,1,105.000004005432,2|4,0:0|3:0,0:0:0:0:
448,248,5752,1,2,0:0:0:0:
243,122,6021,2,0,P|279:158|292:209,1,105.000004005432,10|2,0:0|0:0,0:0:0:0:
207,356,6559,5,4,3:0:0:0:
82,204,6828,2,0,P|148:171|169:170,1,70.0000026702882,2|2,0:0|0:0,0:0:0:0:
169,181,7097,2,0,P|210:195|295:194,1,105.000004005432,10|2,0:0|0:0,0:0:0:0:
348,111,7635,1,6,3:0:0:0:
221,327,7904,1,6,3:0:0:0:
59,162,8173,2,0,L|40:70,1,70.0000026702882,10|2,0:0|0:0,0:0:0:0:
71,85,8442,2,0,L|90:-7,1,70.0000026702882,2|2,0:0|0:0,0:0:0:0:
121,7,8711,6,0,P|198:18|246:89,1,140,6|2,0:0|0:0,0:0:0:0:
286,150,9160,1,2,0:0:0:0:
321,138,9249,2,0,L|331:23,1,93.3333333333333,10|2,0:0|0:0,0:0:0:0:
334,7,9519,1,2,0:0:0:0:
426,57,9698,2,0,L|471:45,1,46.6666666666667,2|4,0:0|3:0,0:0:0:0:
406,152,10057,1,2,0:0:0:0:
512,276,10326,2,0,L|498:136,1,140,10|2,0:0|0:0,0:0:0:0:
365,359,10864,6,0,P|311:314|235:339,1,140,4|2,3:0|0:0,0:0:0:0:
145,384,11312,1,2,0:0:0:0:
122,353,11402,2,0,L|131:260,1,93.3333333333333,10|2,0:0|0:0,0:0:0:0:
137,223,11671,1,2,0:0:0:0:
243,139,11940,2,0,L|228:0,2,140,4|2|10,3:0|0:0|0:0,0:0:0:0:
345,188,12658,1,2,0:0:0:0:
376,206,12747,2,0,L|366:316,1,93.3333333333333,2|2,0:0|0:0,0:0:0:0:
304,371,13016,6,0,P|225:353|183:299,1,140,6|2,0:0|0:0,0:0:0:0:
134,187,13465,1,2,0:0:0:0:
170,183,13554,2,0,P|187:129|180:68,1,93.3333333333333,10|2,0:0|0:0,0:0:0:0:
172,57,13823,1,2,0:0:0:0:
280,11,14003,2,0,L|289:90,1,46.6666666666667,2|4,0:0|3:0,0:0:0:0:
296,227,14362,1,2,0:0:0:0:
476,69,14631,2,0,P|446:105|435:150,1,93.3333333333333,10|2,0:0|0:0,0:0:0:0:
456,179,14900,1,2,0:0:0:0:
380,321,15169,6,0,L|241:341,1,140,4|2,3:0|0:0,0:0:0:0:
131,307,15617,1,2,0:0:0:0:
151,275,15707,2,0,L|161:160,1,93.3333333333333,10|2,0:0|0:0,0:0:0:0:
168,145,15976,1,2,0:0:0:0:
5,42,16245,2,0,L|144:27,1,140,6|6,3:0|3:0,0:0:0:0:
285,90,16693,1,4,3:0:0:0:
338,72,16783,2,0,L|346:-2,3,70.0000026702882,6|4|4|4,3:0|3:0|3:0|3:0,0:0:0:0:
453,102,17232,5,4,3:0:0:0:
484,70,17321,2,0,B|456:149|508:215|508:215|479:277|502:337,1,279.999991455078,6|2,0:0|0:0,0:0:0:0:
475,373,17859,1,10,0:0:0:0:
377,323,18039,1,2,0:0:0:0:
358,363,18128,1,2,0:0:0:0:
237,377,18308,2,0,P|199:277|273:202,1,223.999993164063,2|2,0:0|0:0,0:0:0:0:
433,163,18936,1,10,0:0:0:0:
433,163,19205,1,2,0:0:0:0:
306,51,19474,6,0,B|192:39|192:39|154:63|154:63|34:48,1,279.999991455078,4|2,3:0|0:0,0:0:0:0:
0,31,20012,1,10,0:0:0:0:
24,136,20191,1,2,0:0:0:0:
49,173,20281,2,0,L|45:228,1,55.9999982910157,2|0,0:0|0:0,0:0:0:0:
33,376,20550,2,0,L|199:352,1,167.999994873047,6|2,3:0|0:0,0:0:0:0:
238,330,20909,2,0,L|233:274,2,55.9999982910157,2|2|10,0:0|0:0|0:0,0:0:0:0:
384,369,21357,1,2,0:0:0:0:
455,199,21626,6,0,P|454:156|369:235,1,279.999991455078,4|2,3:0|0:0,0:0:0:0:
395,263,22164,1,10,0:0:0:0:
285,166,22344,1,2,0:0:0:0:
271,208,22433,1,2,0:0:0:0:
129,298,22613,2,0,L|105:71,1,223.999993164063,2|2,0:0|0:0,0:0:0:0:
294,0,23241,2,0,L|289:111,1,111.999996582031,10|2,0:0|0:0,0:0:0:0:
287,156,23510,1,2,0:0:0:0:
383,339,23779,6,0,B|441:318|414:239|361:223|303:239|237:295|226:337,1,279.999991455078,4|2,3:0|0:0,0:0:0:0:
227,364,24317,1,10,0:0:0:0:
115,285,24496,1,2,0:0:0:0:
142,249,24586,2,0,L|146:180,1,55.9999982910157,2|0,0:0|0:0,0:0:0:0:
44,91,24855,1,6,3:0:0:0:
173,55,25124,1,6,3:0:0:0:
304,27,25393,2,0,L|298:82,2,55.9999982910157,2|2|2,3:0|3:0|3:0,0:0:0:0:
343,6,25662,1,2,3:0:0:0:
439,99,25931,6,0,B|447:203|470:263,1,167.999994873047,6|2,0:0|0:0,0:0:0:0:
403,380,26380,1,2,0:0:0:0:
360,368,26469,1,10,0:0:0:0:
199,384,26649,1,2,0:0:0:0:
156,372,26738,1,2,0:0:0:0:
36,243,26918,2,0,P|135:205|210:279,1,223.999993164063,2|2,0:0|0:0,0:0:0:0:
285,134,27545,1,10,0:0:0:0:
285,134,27815,1,2,0:0:0:0:
11,44,28084,6,0,B|131:29|131:29|183:66|183:66,1,167.999994873047,4|2,3:0|0:0,0:0:0:0:
285,134,28532,1,2,0:0:0:0:
294,90,28622,1,10,0:0:0:0:
439,165,28801,1,2,0:0:0:0:
469,132,28891,2,0,L|473:63,1,55.9999982910157,2|0,0:0|0:0,0:0:0:0:
365,212,29160,2,0,P|292:253|192:236,1,167.999994873047,6|2,3:0|0:0,0:0:0:0:
158,218,29519,2,0,L|153:162,2,55.9999982910157,2|2|10,0:0|0:0|0:0,0:0:0:0:
124,242,29788,2,0,L|119:297,2,55.9999982910157,2|2|2,0:0|0:0|0:0,0:0:0:0:
181,365,30236,6,0,B|241:342|367:333,1,167.999994873047,4|2,3:0|0:0,0:0:0:0:
450,360,30684,1,2,0:0:0:0:
463,317,30774,1,10,0:0:0:0:
386,208,30954,1,2,0:0:0:0:
382,163,31043,1,2,0:0:0:0:
495,71,31223,2,0,P|395:108|320:34,1,223.999993164063,2|2,0:0|0:0,0:0:0:0:
197,165,31850,2,0,P|200:220|202:276,1,111.999996582031,10|2,0:0|0:0,0:0:0:0:
203,321,32119,1,2,0:0:0:0:
24,140,32388,6,0,B|144:125|144:125|182:149|182:149|322:137,1,279.999991455078,2|2,0:0|0:0,0:0:0:0:
341,137,32927,1,2,0:0:0:0:
294,266,33106,1,0,0:0:0:0:
324,299,33196,2,0,L|327:354,1,55.9999982910157
444,369,33465,1,6,3:0:0:0:
453,234,33734,1,6,3:0:0:0:
458,99,34003,2,0,L|372:107,3,55.9999982910157,2|2|2|2,3:0|3:0|3:0|3:0,0:0:0:0:
316,277,34541,6,0,P|234:204|164:269,1,186.666666666667,14|0,0:0|0:0,0:0:0:0:
160,129,35079,2,0,P|77:155|135:28,1,280,10|4,0:0|3:0,0:0:0:0:
227,25,35797,1,2,0:0:0:0:
262,36,35886,2,0,P|257:82|271:135,1,93.3333333333333,0|0,0:0|0:0,0:0:0:0:
292,155,36155,1,10,0:0:0:0:
373,231,36424,2,0,P|393:279|386:334,1,93.3333333333333,0|0,0:0|0:0,0:0:0:0:
376,354,36693,6,0,L|305:346,3,46.6666666666667,6|2|2|2,3:0|0:0|0:0|0:0,0:0:0:0:
257,262,37232,2,0,L|10:276,1,233.333333333333,10|0,0:0|0:0,0:0:0:0:
18,238,37770,2,0,B|26:183|26:183|0:100,1,140,6|0,3:0|0:0,0:0:0:0:
113,26,38308,2,0,L|191:30,2,46.6666666666667,10|2|2,0:0|0:0|0:0,0:0:0:0:
112,63,38577,2,0,L|190:67,2,46.6666666666667,2|2|2,0:0|0:0|0:0,0:0:0:0:
110,100,38846,5,4,3:0:0:0:
110,193,38980,1,2,0:0:0:0:
111,285,39115,1,2,0:0:0:0:
112,377,39249,1,2,0:0:0:0:
202,384,39384,2,0,P|230:364|265:362,1,70,10|0,0:0|0:0,0:0:0:0:
319,297,39653,2,0,P|393:315|401:311,1,70,0|0,0:0|0:0,0:0:0:0:
446,241,39922,2,0,P|382:194|312:200,1,140,4|0,3:0|0:0,0:0:0:0:
112,190,40460,2,0,B|253:198|192:92|363:91,1,280,10|4,0:0|3:0,0:0:0:0:
446,241,41133,6,0,L|453:328,2,70,0|2|0,0:0|0:0|0:0,0:0:0:0:
257,306,41671,2,0,L|251:375,2,70,0|2|0,0:0|0:0|0:0,0:0:0:0:
342,230,42075,2,0,P|273:217|207:193,1,140,4|4,3:0|3:0,0:0:0:0:
207,193,42613,2,0,L|210:146,3,46.6666666666667,2|2|2|2,0:0|0:0|0:0|0:0,0:0:0:0:
222,64,43151,6,0,B|276:80|323:42|323:42|280:88|298:151,1,210,14|0,0:0|0:0,0:0:0:0:
339,212,43689,2,0,B|377:223|437:225|506:168|491:116|427:58|386:122,1,280,10|4,0:0|3:0,0:0:0:0:
418,257,44406,1,2,0:0:0:0:
431,275,44496,2,0,L|420:390,1,93.3333333333333,0|0,0:0|0:0,0:0:0:0:
446,384,44765,1,10,0:0:0:0:
308,319,45034,2,0,P|256:310|215:328,1,93.3333333333333,0|0,0:0|0:0,0:0:0:0:
169,328,45303,6,0,L|177:257,3,46.6666666666667,6|2|2|2,3:0|0:0|0:0|0:0,0:0:0:0:
83,171,45841,2,0,P|170:134|284:215,1,233.333333333333,10|0,0:0|0:0,0:0:0:0:
319,232,46380,2,0,L|457:214,1,140,6|0,3:0|0:0,0:0:0:0:
478,3,46918,2,0,L|476:50,2,46.6666666666667,10|2|2,0:0|0:0|0:0,0:0:0:0:
444,88,47187,2,0,L|441:134,2,46.6666666666667,2|2|2,0:0|0:0|0:0,0:0:0:0:
439,178,47456,5,4,3:0:0:0:
359,180,47590,1,2,0:0:0:0:
441,198,47725,1,2,0:0:0:0:
361,195,47859,1,2,0:0:0:0:
443,216,47994,2,0,L|437:301,1,70,10|0,0:0|0:0,0:0:0:0:
346,358,48263,2,0,L|350:288,1,70,0|0,0:0|0:0,0:0:0:0:
283,225,48532,2,0,B|223:257|223:257|134:242,1,140,4|0,3:0|0:0,0:0:0:0:
10,67,49070,2,0,P|82:18|87:105,1,210,10|0,0:0|0:0,0:0:0:0:
2,172,49608,5,4,3:0:0:0:
284,99,50146,1,4,3:0:0:0:
355,256,50684,1,4,3:0:0:0:
295,351,51223,2,0,L|265:350,6,23.3333333333333,4|4|4|4|4|4|6,3:0|3:0|3:0|3:0|3:0|3:0|0:0,0:0:0:0:
2,384,60371,6,0,P|79:373|121:323,1,140,6|2,0:0|0:0,0:0:0:0:
180,134,60819,1,2,0:0:0:0:
207,159,60909,2,0,L|198:251,1,93.3333333333333,10|2,0:0|0:0,0:0:0:0:
223,279,61178,1,2,0:0:0:0:
314,116,61357,2,0,L|359:104,1,46.6666666666667,2|4,0:0|3:0,0:0:0:0:
409,254,61712,1,2,0:0:0:0:
498,34,61977,2,0,P|481:108|512:174,1,140,10|2,0:0|0:0,0:0:0:0:
450,378,62508,6,0,P|396:333|326:347,1,140,4|2,3:0|0:0,0:0:0:0:
201,373,62935,1,2,0:0:0:0:
172,349,63020,2,0,P|209:289|194:253,1,93.3333333333333,10|2,0:0|0:0,0:0:0:0:
182,241,63277,1,2,0:0:0:0:
244,36,63533,2,0,L|337:41,1,93.3333333333333,4|2,3:0|0:0,0:0:0:0:
363,68,63784,2,0,L|457:63,1,93.3333333333333,2|2,0:0|0:0,0:0:0:0:
493,62,64035,1,10,0:0:0:0:
460,165,64202,1,2,0:0:0:0:
432,190,64286,2,0,L|335:183,1,93.3333333333333,2|2,0:0|0:0,0:0:0:0:
272,130,64537,6,0,P|289:197|286:267,1,140,6|2,0:0|0:0,0:0:0:0:
218,355,64948,1,2,0:0:0:0:
252,370,65030,2,0,P|319:338|377:337,1,93.3333333333333,10|2,0:0|0:0,0:0:0:0:
371,351,65277,1,2,0:0:0:0:
429,294,65442,2,0,L|421:229,1,46.6666666666667,2|4,0:0|3:0,0:0:0:0:
392,77,65765,1,2,0:0:0:0:
243,206,66007,2,0,P|197:224|150:219,1,93.3333333333333,10|2,0:0|0:0,0:0:0:0:
125,196,66249,1,2,0:0:0:0:
256,192,66491,12,6,67910,3:0:0:0:
23,241,68381,6,0,P|83:171|224:263,1,279.999991455078,6|2,0:0|0:0,0:0:0:0:
238,298,68851,1,10,0:0:0:0:
312,192,69008,1,2,0:0:0:0:
304,148,69087,1,2,0:0:0:0:
413,263,69243,2,0,P|313:225|238:299,1,223.999993164063,2|2,0:0|0:0,0:0:0:0:
41,368,69792,1,10,0:0:0:0:
41,368,70028,1,2,0:0:0:0:
88,182,70263,6,0,B|120:114|120:114|141:325,1,279.999991455078,4|2,3:0|0:0,0:0:0:0:
146,362,70733,1,10,0:0:0:0:
285,346,70890,1,2,0:0:0:0:
304,305,70969,2,0,L|308:236,1,55.9999982910157,2|0,0:0|0:0,0:0:0:0:
428,165,71204,2,0,L|255:141,1,167.999994873047,6|2,3:0|0:0,0:0:0:0:
217,150,71518,2,0,L|223:219,2,55.9999982910157,2|2|10,0:0|0:0|0:0,0:0:0:0:
65,68,71910,1,2,0:0:0:0:
0,271,72145,6,0,B|60:248|122:277|122:277|188:225|273:254,1,279.999991455078,4|2,3:0|0:0,0:0:0:0:
303,268,72615,1,10,0:0:0:0:
403,196,72772,1,2,0:0:0:0:
395,152,72850,1,2,0:0:0:0:
490,285,73008,2,0,P|400:329|301:264,1,223.999993164063,2|2,0:0|0:0,0:0:0:0:
123,172,73557,2,0,P|149:236|123:284,1,111.999996582031,10|2,0:0|0:0,0:0:0:0:
113,312,73792,1,2,0:0:0:0:
47,128,74027,6,0,B|167:113|167:113|205:137|205:137|338:124,1,279.999991455078,4|2,3:0|0:0,0:0:0:0:
363,128,74497,1,10,0:0:0:0:
475,7,74654,1,2,0:0:0:0:
492,28,74733,2,0,L|488:83,1,55.9999982910157,2|0,0:0|0:0,0:0:0:0:
482,173,74969,5,6,3:0:0:0:
321,168,75204,1,6,3:0:0:0:
251,300,75439,2,0,L|259:363,3,55.9999982910157,2|2|2|2,3:0|3:0|3:0|3:0,0:0:0:0:
118,260,75910,6,0,B|244:213|244:213|391:243,1,279.999991455078,6|2,0:0|0:0,0:0:0:0:
427,259,76380,1,10,0:0:0:0:
463,177,76537,1,2,0:0:0:0:
454,133,76615,1,2,0:0:0:0:
353,41,76773,2,0,L|118:59,1,223.999993164063,2|2,0:0|0:0,0:0:0:0:
35,154,77321,1,10,0:0:0:0:
35,154,77557,1,2,0:0:0:0:
132,329,77792,6,0,B|120:215|120:215|144:177|144:177|129:57,1,279.999991455078,4|2,3:0|0:0,0:0:0:0:
120,13,78262,1,10,0:0:0:0:
225,99,78419,1,2,0:0:0:0:
263,75,78498,2,0,L|267:6,1,55.9999982910157,2|0,0:0|0:0,0:0:0:0:
393,0,78733,2,0,L|416:166,1,167.999994873047,6|2,3:0|0:0,0:0:0:0:
427,210,79047,2,0,L|482:205,2,55.9999982910157,2|2|10,0:0|0:0|0:0,0:0:0:0:
340,339,79439,1,2,0:0:0:0:
175,334,79674,6,0,B|198:274|169:212|169:212|221:146|192:61,1,279.999991455078,4|2,3:0|0:0,0:0:0:0:
173,26,80144,1,10,0:0:0:0:
51,46,80301,1,2,0:0:0:0:
58,91,80381,1,2,0:0:0:0:
0,245,80537,2,0,P|75:171|172:213,1,223.999993164063,2|2,0:0|0:0,0:0:0:0:
276,314,81086,2,0,P|332:331|396:306,1,111.999996582031,10|2,0:0|0:0,0:0:0:0:
408,279,81322,1,2,0:0:0:0:
419,144,81557,6,0,P|329:101|256:134,1,175.00000667572,2|2,0:0|0:0,0:0:0:0:
247,149,82028,1,2,0:0:0:0:
140,249,82184,1,2,0:0:0:0:
132,221,82263,1,2,0:0:0:0:
175,27,82498,6,0,L|387:7,2,210.000008010865,6|6|2,3:0|3:0|3:0,0:0:0:0:
56,38,83126,1,2,3:0:0:0:
58,63,83204,1,2,3:0:0:0:
96,274,83440,6,0,P|175:214|199:290,1,210,14|0,0:0|0:0,0:0:0:0:
368,324,83910,2,0,P|285:350|324:225,1,280,10|4,0:0|3:0,0:0:0:0:
432,100,84537,1,2,0:0:0:0:
465,116,84616,2,0,L|462:227,1,93.3333333333333,2|0,0:0|0:0,0:0:0:0:
455,246,84851,1,10,0:0:0:0:
313,145,85086,2,0,L|301:29,1,93.3333333333333,2|0,0:0|0:0,0:0:0:0:
269,5,85322,6,0,L|198:-3,3,46.6666666666667,6|2|2|2,3:0|0:0|0:0|0:0,0:0:0:0:
90,133,85792,2,0,B|194:123|194:123|219:229,1,210,10|0,0:0|0:0,0:0:0:0:
168,327,86263,2,0,P|236:336|295:295,1,140,6|0,3:0|0:0,0:0:0:0:
331,64,86733,2,0,L|335:-14,2,46.6666666666667,10|2|2,0:0|0:0|0:0,0:0:0:0:
377,65,86969,2,0,L|381:-13,2,46.6666666666667,2|2|2,0:0|0:0|0:0,0:0:0:0:
417,68,87204,5,4,3:0:0:0:
418,143,87322,1,2,0:0:0:0:
480,194,87439,1,2,0:0:0:0:
480,268,87557,1,2,0:0:0:0:
422,318,87675,2,0,P|348:300|340:304,1,70,10|0,0:0|0:0,0:0:0:0:
242,253,87910,2,0,P|316:235|324:239,1,70,2|0,0:0|0:0,0:0:0:0:
250,351,88145,2,0,P|176:333|101:334,1,140,4|0,3:0|0:0,0:0:0:0:
0,154,88616,2,0,P|-14:224|63:146,1,280,10|4,0:0|3:0,0:0:0:0:
145,42,89204,6,0,L|232:35,2,70,0|2|0,0:0|0:0|0:0,0:0:0:0:
303,136,89675,2,0,L|373:142,2,70,0|2|0,0:0|0:0|0:0,0:0:0:0:
220,143,90028,2,0,P|232:211|256:277,1,140,4|4,3:0|3:0,0:0:0:0:
256,277,90498,2,0,L|318:282,3,46.6666666666667,2|2|2|2,0:0|0:0|0:0|0:0,0:0:0:0:
99,371,90969,6,0,B|106:313|106:313|85:280|85:280|89:164,1,210,14|0,0:0|0:0,0:0:0:0:
12,68,91439,2,0,B|171:72|171:72|186:60|186:60|195:71|195:71|300:73,1,280,10|4,0:0|3:0,0:0:0:0:
418,23,92067,1,2,0:0:0:0:
437,54,92145,2,0,L|434:165,1,93.3333333333333,2|0,0:0|0:0,0:0:0:0:
436,194,92381,1,10,0:0:0:0:
316,334,92616,2,0,L|304:218,1,93.3333333333333,2|0,0:0|0:0,0:0:0:0:
284,209,92851,6,0,L|213:201,3,46.6666666666667,6|2|2|2,3:0|0:0|0:0|0:0,0:0:0:0:
195,349,93322,2,0,P|159:250|98:167,1,210,10|0,0:0|0:0,0:0:0:0:
92,56,93792,2,0,L|230:38,1,140,6|0,3:0|0:0,0:0:0:0:
365,214,94263,2,0,L|363:261,2,46.6666666666667,10|2|2,0:0|0:0|0:0,0:0:0:0:
410,219,94498,2,0,L|407:265,2,46.6666666666667,2|2|2,0:0|0:0|0:0,0:0:0:0:
460,214,94734,5,4,3:0:0:0:
479,140,94851,1,2,0:0:0:0:
477,219,94969,1,2,0:0:0:0:
492,144,95087,1,2,0:0:0:0:
492,221,95204,2,0,L|481:306,1,70,10|0,0:0|0:0,0:0:0:0:
389,315,95439,2,0,L|400:400,1,70,2|0,0:0|0:0,0:0:0:0:
322,274,95675,2,0,B|250:249|250:249|173:257,1,140,4|0,3:0|0:0,0:0:0:0:
17,109,96145,2,0,B|89:134|89:134|166:126,1,140,10|0,0:0|0:0,0:0:0:0:
256,192,96616,12,6,100381,0:0:0:0:
