osu file format v14

[General]
AudioFilename: audio.mp3
AudioLeadIn: 0
PreviewTime: 34462
Countdown: 0
SampleSet: Soft
StackLeniency: 0.3
Mode: 0
LetterboxInBreaks: 0
WidescreenStoryboard: 1

[Editor]
DistanceSpacing: 1
BeatDivisor: 3
GridSize: 4
TimelineZoom: 3.499999

[Metadata]
Title:Kawaii
TitleUnicode:Kawaii
Artist:Thaehan
ArtistUnicode:Thaehan
Creator:Cris-
Version:Advanced
Source:osu!
Tags:-Sh1n1- Shini [_L_u_k_a_s_] Lukas Minorsonek M2Usonek walaowey High Tempo Beatmap Pack FA Featured Artist Gremio Mappers' Guild MG OMGWTF! Electronic Instrumental Video Game Chiptune
BeatmapID:2134431
BeatmapSetID:1000338

[Difficulty]
HPDrainRate:3.5
CircleSize:3.5
OverallDifficulty:5.5
ApproachRate:7.5
SliderMultiplier:1
SliderTickRate:1

[Events]
//Background and Video events
0,0,"Kawaii.jpg",0,0
//Break Periods
//Storyboard Layer 0 (Background)
//Storyboard Layer 1 (Fail)
//Storyboard Layer 2 (Pass)
//Storyboard Layer 3 (Foreground)
//Storyboard Layer 4 (Overlay)
//Storyboard Sound Samples

[TimingPoints]
102,269.058295964126,4,2,1,50,1,0
102,-100,4,2,1,50,0,0
1626,-100,4,2,1,5,0,0
1716,-100,4,2,1,50,0,0
1895,-100,4,2,1,5,0,0
1985,-100,4,2,1,50,0,0
2164,-100,4,2,1,5,0,0
2254,-100,4,2,1,50,0,0
5931,-100,4,2,1,5,0,0
6021,-100,4,2,1,50,0,0
7815,-100,4,2,1,5,0,0
7904,-100,4,2,1,50,0,0
8084,-100,4,2,1,5,0,0
8173,-100,4,2,1,50,0,0
8711,-100,4,2,1,55,0,0
8891,-100,4,2,1,5,0,0
8980,-100,4,2,1,55,0,0
10236,-100,4,2,1,5,0,0
10326,-100,4,2,1,55,0,0
10505,-100,4,2,1,5,0,0
10595,-100,4,2,1,55,0,0
10774,-100,4,2,1,5,0,0
10864,-100,4,2,1,55,0,0
11043,-100,4,2,1,5,0,0
11133,-100,4,2,1,55,0,0
11850,-100,4,2,1,5,0,0
11940,-100,4,2,1,55,0,0
15348,-100,4,2,1,5,0,0
15438,-100,4,2,1,55,0,0
16155,-100,4,2,1,5,0,0
16245,-100,4,2,1,60,0,0
16424,-100,4,2,1,5,0,0
16514,-100,4,2,1,60,0,0
17321,-100,4,2,1,60,0,0
20550,-100,4,2,1,60,0,0
20819,-100,4,2,1,60,0,0
23196,-100,4,2,1,5,0,0
23241,-100,4,2,1,60,0,0
24810,-100,4,2,1,5,0,0
24855,-100,4,2,1,60,0,0
25931,-100,4,2,1,65,0,0
29160,-100,4,2,1,65,0,0
29429,-100,4,2,1,65,0,0
32388,-100,4,2,1,50,0,0
33420,-100,4,2,1,5,0,0
33465,-100,4,2,1,60,0,0
33734,-100,4,2,1,65,0,0
33913,-100,4,2,1,70,0,0
34541,-100,4,2,1,70,0,1
35617,-100,4,2,1,70,0,1
36110,-100,4,2,1,5,0,1
36155,-100,4,2,1,70,0,1
36424,-100,4,2,1,70,0,1
36469,-100,4,2,1,70,0,1
36649,-100,4,2,1,5,0,1
36693,-100,4,2,1,70,0,1
36962,-100,4,2,1,70,0,1
37187,-100,4,2,1,5,0,1
37232,-100,4,2,1,70,0,1
37725,-100,4,2,1,5,0,1
37770,-100,4,2,1,70,0,1
38263,-100,4,2,1,5,0,1
38308,-100,4,2,1,70,0,1
38846,-100,4,2,1,70,0,1
39384,-100,4,2,1,70,0,1
39653,-100,4,2,1,70,0,1
39877,-100,4,2,1,5,0,1
39922,-100,4,2,1,70,0,1
40191,-100,4,2,1,5,0,1
40236,-100,4,2,1,70,0,1
40415,-100,4,2,1,5,0,1
40460,-100,4,2,1,70,0,1
40954,-100,4,2,1,5,0,1
40998,-100,4,2,1,70,0,1
42075,-100,4,2,1,70,0,1
42254,-100,4,2,1,5,0,1
42344,-100,4,2,1,70,0,1
42523,-100,4,2,1,5,0,1
42613,-100,4,2,1,70,0,1
42882,-100,4,2,1,70,0,0
43106,-100,4,2,1,5,0,0
43151,-100,4,2,1,70,0,1
44227,-100,4,2,1,70,0,1
44496,-100,4,2,1,70,0,1
44720,-100,4,2,1,5,0,1
44765,-100,4,2,1,70,0,1
45034,-100,4,2,1,70,0,1
45079,-100,4,2,1,70,0,1
45258,-100,4,2,1,5,0,1
45303,-100,4,2,1,70,0,1
45572,-100,4,2,1,70,0,1
45797,-100,4,2,1,5,0,1
45841,-100,4,2,1,70,0,1
46335,-100,4,2,1,5,0,1
46380,-100,4,2,1,70,0,1
46918,-100,4,2,1,70,0,1
47456,-100,4,2,1,70,0,1
47994,-100,4,2,1,70,0,1
48263,-100,4,2,1,70,0,1
48487,-100,4,2,1,5,0,1
48532,-100,4,2,1,70,0,1
48801,-100,4,2,1,5,0,1
48846,-100,4,2,1,70,0,1
49025,-100,4,2,1,5,0,1
49070,-100,4,2,1,70,0,1
49608,-100,4,2,1,60,0,0
50102,-100,4,2,1,5,0,0
50146,-100,4,2,1,50,0,0
50640,-100,4,2,1,5,0,0
50684,-100,4,2,1,40,0,0
51178,-100,4,2,1,20,0,0
51223,-100,4,2,1,35,0,0
51312,-100,4,2,1,40,0,0
51402,-100,4,2,1,45,0,0
51492,-100,4,2,1,50,0,0
51581,-100,4,2,1,55,0,0
51671,-100,4,2,1,60,0,0
51761,-100,4,2,1,50,0,0
53285,-100,4,2,1,5,0,0
53375,-100,4,2,1,50,0,0
53554,-100,4,2,1,5,0,0
53644,-100,4,2,1,50,0,0
53823,-100,4,2,1,5,0,0
53913,-100,4,2,1,50,0,0
57590,-100,4,2,1,5,0,0
57680,-100,4,2,1,50,0,0
59474,-100,4,2,1,5,0,0
59563,-100,4,2,1,50,0,0
59743,-100,4,2,1,5,0,0
59832,-100,4,2,1,50,0,0
60371,-100,4,2,1,60,0,0
60550,-100,4,2,1,5,0,0
60640,-100,4,2,1,60,0,0
61447,265.486725663717,4,2,1,60,1,0
61889,-100,4,2,1,5,0,0
61977,-100,4,2,1,60,0,0
62154,-100,4,2,1,5,0,0
62243,-100,4,2,1,60,0,0
62420,-100,4,2,1,5,0,0
62508,256.410256410256,4,2,1,62,1,0
62508,-100,4,2,1,62,0,0
62678,-100,4,2,1,5,0,0
62764,-100,4,2,1,62,0,0
63448,-100,4,2,1,5,0,0
63533,251.046025104603,4,2,1,65,1,0
63533,-100,4,2,1,65,0,0
64537,246.913580246914,4,2,1,68,1,0
64537,-100,4,2,1,68,0,0
65524,241.935483870968,4,2,1,71,1,0
65524,-100,4,2,1,71,0,0
66491,237.154150197628,4,2,1,74,1,0
66491,-100,4,2,1,74,0,0
66649,-100,4,2,1,5,0,0
66728,-100,4,2,1,74,0,0
67360,-100,4,2,1,5,0,0
67440,235.294117647059,4,2,1,77,1,0
67440,-100,4,2,1,77,0,0
67596,-100,4,2,1,5,0,0
67675,-100,4,2,1,77,0,0
68381,-100,4,2,1,80,0,0
73518,-100,4,2,1,5,0,0
73557,-100,4,2,1,80,0,0
74930,-100,4,2,1,5,0,0
74969,-100,4,2,1,80,0,0
75910,-100,4,2,1,80,0,0
81557,-100,4,2,1,60,0,0
82459,-100,4,2,1,5,0,0
82498,-100,4,2,1,80,0,0
83440,-100,4,2,1,90,0,1
84381,-100,4,2,1,90,0,1
84655,-100,4,2,1,90,0,1
84812,-100,4,2,1,5,0,1
84851,-100,4,2,1,90,0,1
85047,-100,4,2,1,5,0,1
85087,-100,4,2,1,90,0,1
85283,-100,4,2,1,5,0,1
85322,-100,4,2,1,90,0,1
85557,-100,4,2,1,90,0,1
85753,-100,4,2,1,5,0,1
85792,-100,4,2,1,90,0,1
86224,-100,4,2,1,5,0,1
86263,-100,4,2,1,90,0,1
86694,-100,4,2,1,5,0,1
86734,-100,4,2,1,90,0,1
87204,-100,4,2,1,90,0,1
87675,-100,4,2,1,90,0,1
87871,-100,4,2,1,5,0,1
87910,-100,4,2,1,90,0,1
88106,-100,4,2,1,5,0,1
88145,-100,4,2,1,90,0,1
88381,-100,4,2,1,5,0,1
88420,-100,4,2,1,90,0,1
88577,-100,4,2,1,5,0,1
88616,-100,4,2,1,90,0,1
89047,-100,4,2,1,5,0,1
89087,-100,4,2,1,90,0,1
90028,-100,4,2,1,90,0,1
90185,-100,4,2,1,5,0,1
90263,-100,4,2,1,90,0,1
90420,-100,4,2,1,5,0,1
90498,-100,4,2,1,90,0,1
90734,-100,4,2,1,80,0,0
90930,-100,4,2,1,5,0,0
90969,-100,4,2,1,90,0,1
91910,-100,4,2,1,90,0,1
92185,-100,4,2,1,90,0,1
92341,-100,4,2,1,5,0,1
92381,-100,4,2,1,90,0,1
92577,-100,4,2,1,5,0,1
92616,-100,4,2,1,90,0,1
92812,-100,4,2,1,5,0,1
92851,-100,4,2,1,90,0,1
93087,-100,4,2,1,90,0,1
93283,-100,4,2,1,5,0,1
93322,-100,4,2,1,90,0,1
93753,-100,4,2,1,5,0,1
93792,-100,4,2,1,90,0,1
94224,-100,4,2,1,5,0,1
94263,-100,4,2,1,90,0,1
94734,-100,4,2,1,90,0,1
95204,-100,4,2,1,90,0,1
95400,-100,4,2,1,5,0,1
95440,-100,4,2,1,90,0,1
95636,-100,4,2,1,5,0,1
95675,-100,4,2,1,90,0,1
95871,-100,4,2,1,5,0,1
95910,-100,4,2,1,90,0,1
96106,-100,4,2,1,5,0,1
96145,-100,4,2,1,90,0,1
96381,-100,4,2,1,80,0,1
96577,-100,4,2,1,5,0,1
96616,-100,4,2,1,90,0,0
99440,-100,4,2,1,90,0,0
100145,-100,4,2,1,90,0,0
100341,-100,4,2,1,5,0,0
100381,-100,4,2,1,90,0,0

[Colours]
Combo1 : 97,192,147
Combo2 : 45,189,186
Combo3 : 248,120,123
Combo4 : 113,204,223

[HitObjects]
204,288,102,6,0,P|252:304|296:288,1,100,6|2,0:0|0:0,0:0:0:0:
376,228,640,2,0,P|384:196|376:164,1,66.6666666666667,10|2,0:0|0:0,0:0:0:0:
364,132,909,1,2,0:0:0:0:
296,56,1178,2,0,P|252:40|204:56,1,100,4|2,3:0|0:0,0:0:0:0:
136,132,1716,1,10,0:0:0:0:
204,208,1985,1,2,0:0:0:0:
136,284,2254,6,0,P|120:328|136:376,1,100,4|2,3:0|0:0,0:0:0:0:
224,328,2792,2,0,P|256:320|288:328,1,66.6666666666667,10|2,0:0|0:0,0:0:0:0:
320,340,3061,1,2,0:0:0:0:
412,376,3330,2,0,B|456:280|368:280|412:185,1,200,4|10,3:0|0:0,0:0:0:0:
344,112,4137,1,2,0:0:0:0:
272,184,4406,6,0,P|225:200|179:184,1,100,6|2,0:0|0:0,0:0:0:0:
104,116,4944,2,0,L|38:124,1,66.6666666666667,10|2,0:0|0:0,0:0:0:0:
0,128,5213,1,2,0:0:0:0:
12,228,5483,2,0,L|111:217,1,100,4|2,3:0|0:0,0:0:0:0:
180,292,6020,1,10,0:0:0:0:
232,204,6289,1,2,0:0:0:0:
300,280,6559,6,0,L|399:269,1,100,4|2,3:0|0:0,0:0:0:0:
500,252,7097,2,0,L|492:186,1,66.6666666666667,10|2,0:0|0:0,0:0:0:0:
488,152,7366,1,2,0:0:0:0:
472,52,7635,6,0,L|373:63,1,100,6|6,3:0|3:0,0:0:0:0:
272,80,8173,2,0,L|280:146,1,66.6666666666667,10|2,0:0|0:0,0:0:0:0:
284,184,8442,1,2,0:0:0:0:
332,272,8711,6,0,P|288:288|240:272,1,100,6|2,0:0|0:0,0:0:0:0:
144,240,9249,2,0,P|136:272|144:304,1,66.6666666666667,10|2,0:0|0:0,0:0:0:0:
156,336,9518,1,2,0:0:0:0:
239,271,9787,2,0,P|255:227|239:179,1,100,4|2,3:0|0:0,0:0:0:0:
168,108,10325,1,10,0:0:0:0:
240,36,10594,1,2,0:0:0:0:
312,108,10864,6,0,L|411:97,1,100,4|2,3:0|0:0,0:0:0:0:
424,196,11402,2,0,L|358:204,1,66.6666666666667,10|2,0:0|0:0,0:0:0:0:
320,208,11671,1,2,0:0:0:0:
280,300,11940,2,0,P|240:372|200:300,1,200,4|10,3:0|0:0,0:0:0:0:
240,208,12746,1,2,0:0:0:0:
280,300,13016,6,0,P|328:316|372:300,1,100,6|2,0:0|0:0,0:0:0:0:
452,240,13554,2,0,P|460:208|452:176,1,66.6666666666667,10|2,0:0|0:0,0:0:0:0:
440,144,13823,1,2,0:0:0:0:
372,68,14093,2,0,P|325:51|279:67,1,100,4|2,3:0|0:0,0:0:0:0:
216,144,14631,1,10,0:0:0:0:
148,68,14900,1,2,0:0:0:0:
80,144,15169,6,0,B|60:188|60:188|80:235,1,100,4|2,3:0|0:0,0:0:0:0:
148,312,15707,2,0,P|180:320|212:312,1,66.6666666666667,10|2,0:0|0:0,0:0:0:0:
244,300,15976,1,2,0:0:0:0:
315,371,16245,1,6,3:0:0:0:
388,300,16514,1,6,3:0:0:0:
316,228,16783,2,0,P|308:196|316:164,1,66.6666666666667,6|4,3:0|3:0,0:0:0:0:
328,132,17052,1,4,3:0:0:0:
376,44,17321,6,0,B|280:0|280:88|185:44,1,200,6|10,0:0|0:0,0:0:0:0:
108,112,18128,1,2,0:0:0:0:
184,180,18397,2,0,L|195:279,1,100,4|2,3:0|0:0,0:0:0:0:
296,280,18935,2,0,L|304:214,1,66.6666666666667,10|2,0:0|0:0,0:0:0:0:
308,176,19204,1,2,0:0:0:0:
408,176,19474,6,0,L|419:275,1,100,4|2,3:0|0:0,0:0:0:0:
360,356,20012,1,10,0:0:0:0:
296,280,20281,1,2,0:0:0:0:
228,356,20550,2,0,P|181:372|135:356,1,100,6|2,3:0|0:0,0:0:0:0:
68,280,21088,2,0,B|48:236|48:236|68:189,1,100,10|2,0:0|0:0,0:0:0:0:
136,112,21626,6,0,B|196:132|196:132|260:92|260:92|317:112,1,200,4|10,3:0|0:0,0:0:0:0:
384,188,22433,1,2,0:0:0:0:
316,264,22702,2,0,B|272:284|272:284|225:264,1,100,4|2,3:0|0:0,0:0:0:0:
132,228,23241,2,0,P|124:260|132:292,1,66.6666666666667,10|2,0:0|0:0,0:0:0:0:
144,324,23510,1,2,0:0:0:0:
225,264,23779,6,0,P|241:220|225:172,1,100,4|2,3:0|0:0,0:0:0:0:
192,76,24317,2,0,P|224:68|256:76,1,66.6666666666667,10|2,0:0|0:0,0:0:0:0:
288,88,24586,1,2,0:0:0:0:
359,159,24854,1,6,3:0:0:0:
432,88,25124,1,6,3:0:0:0:
504,160,25393,2,0,B|524:207|524:207|504:251,1,100,2|2,3:0|3:0,0:0:0:0:
432,324,25931,6,0,B|380:324|348:368|348:368|316:324|262:324,1,200,6|10,0:0|0:0,0:0:0:0:
192,252,26738,1,2,0:0:0:0:
260,176,27007,2,0,P|276:132|260:84,1,100,4|2,3:0|0:0,0:0:0:0:
196,4,27545,2,0,P|164:-4|132:4,1,66.6666666666667,10|2,0:0|0:0,0:0:0:0:
100,16,27814,1,2,0:0:0:0:
24,84,28084,6,0,P|7:130|23:176,1,100,4|2,3:0|0:0,0:0:0:0:
100,244,28622,2,0,P|132:252|164:244,1,66.6666666666667,10|2,0:0|0:0,0:0:0:0:
196,232,28891,1,2,0:0:0:0:
280,176,29160,2,0,L|379:165,1,100,6|2,3:0|0:0,0:0:0:0:
392,264,29698,2,0,L|293:275,1,100,10|2,0:0|0:0,0:0:0:0:
304,376,30236,6,0,L|403:365,1,100,4|2,3:0|0:0,0:0:0:0:
392,264,30774,1,10,0:0:0:0:
293,275,31043,1,2,0:0:0:0:
280,176,31312,2,0,L|379:165,1,100,4|2,3:0|0:0,0:0:0:0:
476,196,31851,2,0,P|484:164|476:132,1,66.6666666666667,10|2,0:0|0:0,0:0:0:0:
460,104,32120,1,2,0:0:0:0:
372,56,32388,6,0,L|273:67,1,100,2|2,0:0|0:0,0:0:0:0:
172,84,32927,2,0,L|180:150,1,66.6666666666667,2|2,0:0|0:0,0:0:0:0:
184,188,33196,1,2,0:0:0:0:
200,288,33465,1,6,3:0:0:0:
100,304,33734,1,6,3:0:0:0:
84,204,34003,2,0,L|73:105,1,100,2|2,3:0|3:0,0:0:0:0:
24,16,34541,6,0,B|120:-28|120:60|215:16,1,200,14|10,0:0|0:0,0:0:0:0:
396,104,35617,2,0,P|404:136|396:168,1,66.6666666666667,4|2,3:0|0:0,0:0:0:0:
380,200,35886,2,0,P|372:232|380:264,1,66.6666666666667,0|0,0:0|0:0,0:0:0:0:
396,296,36155,1,10,0:0:0:0:
332,376,36424,1,0,0:0:0:0:
268,296,36693,6,0,P|236:288|204:296,1,66.6666666666667,6|2,3:0|0:0,0:0:0:0:
172,312,36962,2,0,P|140:320|108:312,1,66.6666666666667,2|0,0:0|0:0,0:0:0:0:
76,296,37232,2,0,B|32:200|120:200|76:105,1,200,10|6,0:0|3:0,0:0:0:0:
276,104,38308,2,0,P|268:136|276:168,1,66.6666666666667,10|2,0:0|0:0,0:0:0:0:
300,192,38577,2,0,P|332:200|364:192,1,66.6666666666667,2|2,0:0|0:0,0:0:0:0:
388,168,38846,5,4,3:0:0:0:
448,88,39115,1,2,0:0:0:0:
512,168,39384,2,0,P|520:200|512:232,1,66.6666666666667,10|0,0:0|0:0,0:0:0:0:
496,264,39653,2,0,P|488:296|496:328,1,66.6666666666667,0|0,0:0|0:0,0:0:0:0:
512,360,39922,2,0,L|413:371,1,100,4|0,3:0|0:0,0:0:0:0:
312,384,40460,2,0,B|292:324|292:324|332:260|332:260|312:203,1,200,10|4,0:0|3:0,0:0:0:0:
276,108,41267,6,0,L|210:116,1,66.6666666666667,2|2,0:0|0:0,0:0:0:0:
172,120,41536,1,10,0:0:0:0:
72,132,41806,2,0,L|80:198,1,66.6666666666667,2|2,0:0|0:0,0:0:0:0:
84,236,42075,1,4,3:0:0:0:
184,224,42344,1,4,3:0:0:0:
172,120,42613,2,0,L|164:54,1,66.6666666666667,2|2,0:0|0:0,0:0:0:0:
160,16,42882,1,2,0:0:0:0:
256,48,43151,6,0,B|310:48|342:92|342:92|374:48|426:48,1,200,14|10,0:0|0:0,0:0:0:0:
424,248,44227,2,0,P|392:256|360:248,1,66.6666666666667,4|2,3:0|0:0,0:0:0:0:
328,232,44496,2,0,P|296:224|264:232,1,66.6666666666667,0|0,0:0|0:0,0:0:0:0:
236,248,44765,1,10,0:0:0:0:
156,308,45034,1,0,0:0:0:0:
76,248,45303,6,0,P|68:216|76:184,1,66.6666666666667,6|2,3:0|0:0,0:0:0:0:
92,152,45572,2,0,P|100:120|92:88,1,66.6666666666667,2|0,0:0|0:0,0:0:0:0:
76,56,45841,2,0,B|136:36|136:36|200:76|200:76|257:56,1,200,10|6,0:0|3:0,0:0:0:0:
452,4,46918,2,0,L|460:70,1,66.6666666666667,10|2,0:0|0:0,0:0:0:0:
464,104,47187,2,0,L|456:170,1,66.6666666666667,2|2,0:0|0:0,0:0:0:0:
452,204,47456,5,4,3:0:0:0:
388,283,47725,1,2,0:0:0:0:
324,204,47994,2,0,P|292:196|260:204,1,66.6666666666667,10|0,0:0|0:0,0:0:0:0:
228,220,48263,2,0,P|196:228|164:220,1,66.6666666666667,0|0,0:0|0:0,0:0:0:0:
132,204,48532,2,0,P|116:160|132:112,1,100,4|0,3:0|0:0,0:0:0:0:
164,16,49070,2,0,B|260:-28|260:60|355:16,1,200,10|4,0:0|3:0,0:0:0:0:
460,188,50146,5,4,3:0:0:0:
260,188,50684,1,4,3:0:0:0:
356,15,51223,2,0,L|364:81,1,66.6666666666667,4|4,3:0|3:0,0:0:0:0:
368,115,51492,2,0,L|360:181,1,66.6666666666667,4|4,3:0|3:0,0:0:0:0:
356,216,51761,6,0,P|372:260|356:308,1,100,6|2,0:0|0:0,0:0:0:0:
276,372,52299,2,0,P|244:380|212:372,1,66.6666666666667,10|2,0:0|0:0,0:0:0:0:
180,356,52568,1,2,0:0:0:0:
92,308,52837,2,0,P|76:264|92:216,1,100,4|2,3:0|0:0,0:0:0:0:
156,136,53375,1,10,0:0:0:0:
220,216,53644,1,2,0:0:0:0:
284,136,53913,6,0,L|383:125,1,100,4|2,3:0|0:0,0:0:0:0:
372,24,54451,2,0,L|306:32,1,66.6666666666667,10|2,0:0|0:0,0:0:0:0:
272,36,54720,1,2,0:0:0:0:
192,96,54989,2,0,B|96:140|96:52|1:96,1,200,4|10,3:0|0:0,0:0:0:0:
48,184,55796,1,2,0:0:0:0:
0,272,56065,6,0,P|47:288|93:272,1,100,6|2,0:0|0:0,0:0:0:0:
186,236,56604,2,0,P|194:268|186:300,1,66.6666666666667,10|2,0:0|0:0,0:0:0:0:
174,332,56873,1,2,0:0:0:0:
93,272,57142,2,0,P|77:228|93:180,1,100,4|2,3:0|0:0,0:0:0:0:
157,99,57680,1,10,0:0:0:0:
221,179,57949,1,2,0:0:0:0:
284,100,58218,6,0,L|383:89,1,100,4|2,3:0|0:0,0:0:0:0:
484,72,58756,2,0,L|492:138,1,66.6666666666667,10|2,0:0|0:0,0:0:0:0:
496,176,59025,1,2,0:0:0:0:
508,276,59294,2,0,L|409:287,1,100,6|6,3:0|3:0,0:0:0:0:
308,304,59832,2,0,L|300:238,1,66.6666666666667,10|2,0:0|0:0,0:0:0:0:
296,200,60101,1,2,0:0:0:0:
284,100,60371,6,0,L|185:111,1,100,6|2,0:0|0:0,0:0:0:0:
90,142,60909,2,0,P|82:110|90:78,1,66.6666666666667,10|2,0:0|0:0,0:0:0:0:
102,46,61178,1,2,0:0:0:0:
185,111,61447,2,0,P|201:155|185:203,1,100,4|2,3:0|0:0,0:0:0:0:
113,273,61977,1,10,0:0:0:0:
185,345,62243,1,2,0:0:0:0:
264,276,62508,6,0,L|363:265,1,100,4|2,3:0|0:0,0:0:0:0:
460,248,63020,2,0,L|452:182,1,66.6666666666667,10|2,0:0|0:0,0:0:0:0:
448,144,63277,1,2,0:0:0:0:
436,44,63533,2,0,B|340:0|340:88|245:44,1,200,4|10,3:0|0:0,0:0:0:0:
184,124,64286,1,2,0:0:0:0:
244,208,64537,6,0,L|233:307,1,100,6|2,0:0|0:0,0:0:0:0:
132,308,65030,2,0,L|124:242,1,66.6666666666667,10|2,0:0|0:0,0:0:0:0:
120,204,65277,1,2,0:0:0:0:
184,124,65524,2,0,P|230:108|276:124,1,100,4|2,3:0|0:0,0:0:0:0:
340,204,66007,1,10,0:0:0:0:
404,124,66249,1,2,0:0:0:0:
468,204,66491,6,0,B|488:251|488:251|468:295,1,100,4|2,3:0|0:0,0:0:0:0:
400,372,66965,2,0,P|368:380|336:372,1,66.6666666666667,10|2,0:0|0:0,0:0:0:0:
304,360,67202,1,2,0:0:0:0:
232,288,67440,1,6,3:0:0:0:
160,360,67675,1,6,3:0:0:0:
88,288,67910,2,0,P|80:256|88:224,1,66.6666666666667,6|0,3:0|3:0,0:0:0:0:
100,192,68145,1,0,3:0:0:0:
156,112,68381,6,0,B|216:92|216:92|280:132|280:132|337:112,1,200,6|10,0:0|0:0,0:0:0:0:
400,32,69087,1,2,0:0:0:0:
460,112,69322,2,0,P|476:158|460:204,1,100,4|2,3:0|0:0,0:0:0:0:
400,284,69792,2,0,P|368:292|336:284,1,66.6666666666667,10|2,0:0|0:0,0:0:0:0:
304,272,70027,1,2,0:0:0:0:
228,204,70263,6,0,P|211:157|227:111,1,100,4|2,3:0|0:0,0:0:0:0:
276,24,70734,1,10,0:0:0:0:
176,24,70969,1,2,0:0:0:0:
227,112,71204,2,0,P|274:128|320:112,1,100,6|2,3:0|0:0,0:0:0:0:
369,24,71675,2,0,P|323:8|277:23,1,100,10|2,0:0|0:0,0:0:0:0:
320,112,72145,6,0,B|364:208|276:208|320:303,1,200,4|10,3:0|0:0,0:0:0:0:
400,368,72851,1,2,0:0:0:0:
480,304,73087,2,0,P|496:260|480:212,1,100,4|2,3:0|0:0,0:0:0:0:
400,148,73557,2,0,P|368:140|336:148,1,66.6666666666667,10|2,0:0|0:0,0:0:0:0:
304,160,73792,1,2,0:0:0:0:
216,211,74028,6,0,P|169:228|123:211,1,100,4|2,3:0|0:0,0:0:0:0:
36,160,74498,2,0,P|28:128|36:96,1,66.6666666666667,10|2,0:0|0:0,0:0:0:0:
48,64,74734,1,2,0:0:0:0:
128,0,74969,1,6,3:0:0:0:
204,64,75204,1,6,3:0:0:0:
284,0,75440,2,0,P|330:-16|376:0,1,100,2|2,3:0|3:0,0:0:0:0:
456,64,75910,6,0,B|436:124|436:124|476:188|476:188|456:245,1,200,6|10,0:0|0:0,0:0:0:0:
376,308,76616,1,2,0:0:0:0:
300,244,76851,2,0,L|201:255,1,100,4|2,3:0|0:0,0:0:0:0:
188,156,77322,2,0,L|254:148,1,66.6666666666667,10|2,0:0|0:0,0:0:0:0:
292,144,77557,1,2,0:0:0:0:
280,44,77792,6,0,L|181:55,1,100,4|2,3:0|0:0,0:0:0:0:
80,72,78263,2,0,L|88:138,1,66.6666666666667,10|2,0:0|0:0,0:0:0:0:
92,176,78498,1,2,0:0:0:0:
108,272,78734,2,0,L|207:261,1,100,6|2,3:0|0:0,0:0:0:0:
308,260,79204,2,0,L|407:271,1,100,10|2,0:0|0:0,0:0:0:0:
396,372,79675,6,0,L|297:361,1,100,4|2,3:0|0:0,0:0:0:0:
308,260,80145,1,10,0:0:0:0:
408,271,80381,1,2,0:0:0:0:
420,172,80616,2,0,L|321:161,1,100,4|2,3:0|0:0,0:0:0:0:
220,160,81087,2,0,L|154:168,1,66.6666666666667,10|2,0:0|0:0,0:0:0:0:
116,172,81322,1,2,0:0:0:0:
104,72,81557,6,0,L|203:61,1,100,2|2,0:0|0:0,0:0:0:0:
220,160,82028,2,0,L|228:226,1,66.6666666666667,2|2,0:0|0:0,0:0:0:0:
232,264,82263,1,2,0:0:0:0:
248,364,82498,1,6,3:0:0:0:
348,348,82734,1,6,3:0:0:0:
332,248,82969,2,0,L|321:149,1,100,2|2,3:0|3:0,0:0:0:0:
368,60,83440,6,0,B|272:16|272:104|177:60,1,200,14|10,0:0|0:0,0:0:0:0:
80,236,84381,2,0,P|112:244|144:236,1,66.6666666666667,4|2,3:0|0:0,0:0:0:0:
176,220,84616,2,0,P|208:212|240:220,1,66.6666666666667,2|0,0:0|0:0,0:0:0:0:
272,236,84851,1,10,0:0:0:0:
344,308,85087,1,2,0:0:0:0:
416,236,85322,6,0,P|424:204|416:172,1,66.6666666666667,6|2,3:0|0:0,0:0:0:0:
400,140,85557,2,0,P|392:108|400:76,1,66.6666666666667,2|0,0:0|0:0,0:0:0:0:
416,44,85792,2,0,B|356:24|356:24|292:64|292:64|235:44,1,200,10|6,0:0|3:0,0:0:0:0:
40,0,86734,2,0,L|32:66,1,66.6666666666667,10|2,0:0|0:0,0:0:0:0:
28,100,86969,2,0,L|36:166,1,66.6666666666667,2|2,0:0|0:0,0:0:0:0:
40,200,87204,5,4,3:0:0:0:
104,276,87440,1,2,0:0:0:0:
172,200,87675,2,0,L|238:192,1,66.6666666666667,10|0,0:0|0:0,0:0:0:0:
272,188,87910,2,0,L|338:196,1,66.6666666666667,2|0,0:0|0:0,0:0:0:0:
372,200,88145,2,0,L|383:101,1,100,4|0,3:0|0:0,0:0:0:0:
432,12,88616,6,0,B|336:-32|336:56|241:12,1,200,10|4,0:0|3:0,0:0:0:0:
148,56,89322,2,0,P|140:88|148:120,1,66.6666666666667,2|2,0:0|0:0,0:0:0:0:
164,152,89557,1,10,0:0:0:0:
240,216,89792,2,0,P|272:224|304:216,1,66.6666666666667,2|2,0:0|0:0,0:0:0:0:
336,200,90027,1,4,3:0:0:0:
400,120,90263,1,4,3:0:0:0:
460,200,90498,2,0,L|468:266,1,66.6666666666667,2|2,0:0|0:0,0:0:0:0:
472,300,90733,1,2,0:0:0:0:
400,372,90969,6,0,B|304:416|304:328|209:372,1,200,14|10,0:0|0:0,0:0:0:0:
8,372,91910,2,0,P|0:340|8:308,1,66.6666666666667,4|2,3:0|0:0,0:0:0:0:
24,276,92145,2,0,P|32:244|24:212,1,66.6666666666667,2|0,0:0|0:0,0:0:0:0:
8,180,92380,1,10,0:0:0:0:
72,104,92616,1,2,0:0:0:0:
140,180,92851,6,0,P|172:188|204:180,1,66.6666666666667,6|2,3:0|0:0,0:0:0:0:
236,164,93086,2,0,P|268:156|300:164,1,66.6666666666667,2|0,0:0|0:0,0:0:0:0:
328,180,93321,2,0,B|388:200|388:200|452:160|452:160|509:180,1,200,10|6,0:0|3:0,0:0:0:0:
508,376,94263,2,0,P|476:384|444:376,1,66.6666666666667,10|2,0:0|0:0,0:0:0:0:
412,360,94498,2,0,P|380:352|348:360,1,66.6666666666667,2|2,0:0|0:0,0:0:0:0:
316,376,94734,5,4,3:0:0:0:
256,296,94969,1,2,0:0:0:0:
192,376,95204,2,0,P|160:384|128:376,1,66.6666666666667,10|0,0:0|0:0,0:0:0:0:
96,360,95439,2,0,P|64:352|32:360,1,66.6666666666667,2|0,0:0|0:0,0:0:0:0:
0,376,95675,6,0,B|-20:329|-20:329|0:285,1,100,4|0,3:0|0:0,0:0:0:0:
44,196,96145,1,10,0:0:0:0:
224,284,96616,6,0,B|276:284|308:328|308:328|340:284|394:284,1,200,4|4,3:0|3:0,0:0:0:0:
456,204,97322,1,2,0:0:0:0:
396,124,97557,2,0,P|364:116|332:124,1,66.6666666666667,4|2,3:0|0:0,0:0:0:0:
300,140,97792,2,0,P|268:148|236:140,1,66.6666666666667,2|2,0:0|0:0,0:0:0:0:
204,124,98028,1,4,3:0:0:0:
144,204,98263,1,2,0:0:0:0:
203,284,98498,6,0,P|235:292|267:284,1,66.6666666666667,4|2,3:0|0:0,0:0:0:0:
299,268,98733,2,0,P|331:260|363:268,1,66.6666666666667,2|2,0:0|0:0,0:0:0:0:
395,284,98969,1,4,3:0:0:0:
456,204,99204,1,2,0:0:0:0:
396,124,99440,2,0,P|364:116|332:124,1,66.6666666666667,2|2,0:0|0:0,0:0:0:0:
300,140,99675,2,0,P|268:148|236:140,1,66.6666666666667,2|2,0:0|0:0,0:0:0:0:
204,124,99910,2,0,B|108:80|108:168|13:124,1,200,2|6,0:0|0:0,0:0:0:0:
