osu file format v14

[General]
AudioFilename: audio.mp3
AudioLeadIn: 0
PreviewTime: 34462
Countdown: 0
SampleSet: Soft
StackLeniency: 0.3
Mode: 0
LetterboxInBreaks: 0
WidescreenStoryboard: 0

[Editor]
DistanceSpacing: 0.6
BeatDivisor: 6
GridSize: 4
TimelineZoom: 3.999998

[Metadata]
Title:Kawaii
TitleUnicode:Kawaii
Artist:Thaehan
ArtistUnicode:Thaehan
Creator:Cris-
Version:\(*>w<)/
Source:osu!
Tags:-Sh1n1- Shini [_L_u_k_a_s_] Lukas Minorsonek M2Usonek walaowey High Tempo Beatmap Pack FA Featured Artist Gremio Mappers' Guild MG OMGWTF! Electronic Instrumental Video Game Chiptune
BeatmapID:2093687
BeatmapSetID:1000338

[Difficulty]
HPDrainRate:5
CircleSize:4.1
OverallDifficulty:8.5
ApproachRate:9.7
SliderMultiplier:1.8
SliderTickRate:1

[Events]
//Background and Video events
0,0,"Kawaii.jpg",0,0
//Break Periods
//Storyboard Layer 0 (Background)
//Storyboard Layer 1 (Fail)
//Storyboard Layer 2 (Pass)
//Storyboard Layer 3 (Foreground)
//Storyboard Layer 4 (Overlay)
//Storyboard Sound Samples

[TimingPoints]
102,269.058295964126,4,2,1,50,1,0
102,-111.111111111111,4,2,1,50,0,0
1626,-111.111111111111,4,2,1,5,0,0
1716,-111.111111111111,4,2,1,50,0,0
1895,-111.111111111111,4,2,1,5,0,0
1985,-111.111111111111,4,2,1,50,0,0
2164,-111.111111111111,4,2,1,5,0,0
2254,-111.111111111111,4,2,1,50,0,0
5931,-111.111111111111,4,2,1,5,0,0
6021,-111.111111111111,4,2,1,50,0,0
7815,-111.111111111111,4,2,1,5,0,0
7904,-111.111111111111,4,2,1,50,0,0
8084,-111.111111111111,4,2,1,5,0,0
8173,-111.111111111111,4,2,1,50,0,0
8711,-100,4,2,1,55,0,0
8891,-100,4,2,1,5,0,0
8980,-100,4,2,1,55,0,0
10236,-100,4,2,1,5,0,0
10326,-100,4,2,1,55,0,0
10505,-100,4,2,1,5,0,0
10595,-100,4,2,1,55,0,0
10774,-100,4,2,1,5,0,0
10864,-100,4,2,1,55,0,0
11043,-100,4,2,1,5,0,0
11133,-100,4,2,1,55,0,0
11850,-100,4,2,1,5,0,0
11940,-100,4,2,1,55,0,0
15348,-100,4,2,1,5,0,0
15438,-100,4,2,1,55,0,0
16155,-100,4,2,1,5,0,0
16245,-90.9090909090909,4,2,1,60,0,0
16424,-90.9090909090909,4,2,1,5,0,0
16514,-90.9090909090909,4,2,1,60,0,0
17321,-83.3333333333333,4,2,1,60,0,0
20550,-66.6666666666667,4,2,1,60,0,0
20819,-83.3333333333333,4,2,1,60,0,0
23196,-83.3333333333333,4,2,1,5,0,0
23241,-83.3333333333333,4,2,1,60,0,0
24810,-83.3333333333333,4,2,1,5,0,0
24855,-66.6666666666667,4,2,1,60,0,0
25931,-76.9230769230769,4,2,1,65,0,0
29160,-62.5,4,2,1,65,0,0
29429,-76.9230769230769,4,2,1,65,0,0
32388,-100,4,2,1,50,0,0
33420,-100,4,2,1,5,0,0
33465,-76.9230769230769,4,2,1,60,0,0
33734,-62.5,4,2,1,65,0,0
33913,-52.6315789473684,4,2,1,70,0,0
34541,-83.3333333333333,4,2,1,70,0,1
35617,-66.6666666666667,4,2,1,70,0,1
36110,-66.6666666666667,4,2,1,5,0,1
36155,-76.9230769230769,4,2,1,70,0,1
36424,-76.9230769230769,4,2,1,5,0,1
36469,-52.6315789473684,4,2,1,70,0,1
36649,-52.6315789473684,4,2,1,5,0,1
36693,-52.6315789473684,4,2,1,70,0,1
36962,-149.253731343284,4,2,1,70,0,1
37187,-149.253731343284,4,2,1,5,0,1
37232,-83.3333333333333,4,2,1,70,0,1
37725,-83.3333333333333,4,2,1,5,0,1
37770,-100,4,2,1,70,0,1
38263,-100,4,2,1,5,0,1
38308,-66.6666666666667,4,2,1,70,0,1
38846,-200,4,2,1,70,0,1
39384,-149.253731343284,4,2,1,70,0,1
39653,-62.5,4,2,1,70,0,1
39877,-62.5,4,2,1,5,0,1
39922,-100,4,2,1,70,0,1
40191,-100,4,2,1,5,0,1
40236,-100,4,2,1,70,0,1
40415,-100,4,2,1,5,0,1
40460,-83.3333333333333,4,2,1,70,0,1
40954,-83.3333333333333,4,2,1,5,0,1
40998,-83.3333333333333,4,2,1,70,0,1
42075,-83.3333333333333,4,2,1,70,0,1
42254,-83.3333333333333,4,2,1,5,0,1
42344,-83.3333333333333,4,2,1,70,0,1
42523,-83.3333333333333,4,2,1,5,0,1
42613,-83.3333333333333,4,2,1,70,0,1
42882,-166.666666666667,4,2,1,70,0,0
43106,-166.666666666667,4,2,1,5,0,0
43151,-83.3333333333333,4,2,1,70,0,1
44227,-66.6666666666667,4,2,1,70,0,1
44496,-71.4285714285714,4,2,1,70,0,1
44720,-71.4285714285714,4,2,1,5,0,1
44765,-74.0740740740741,4,2,1,70,0,1
45034,-74.0740740740741,4,2,1,5,0,1
45079,-35.7142857142857,4,2,1,70,0,1
45258,-35.7142857142857,4,2,1,5,0,1
45303,-35.7142857142857,4,2,1,70,0,1
45572,-142.857142857143,4,2,1,70,0,1
45797,-142.857142857143,4,2,1,5,0,1
45841,-83.3333333333333,4,2,1,70,0,1
46335,-83.3333333333333,4,2,1,5,0,1
46380,-100,4,2,1,70,0,1
46918,-66.6666666666667,4,2,1,70,0,1
47456,-200,4,2,1,70,0,1
47994,-153.846153846154,4,2,1,70,0,1
48263,-62.5,4,2,1,70,0,1
48487,-62.5,4,2,1,5,0,1
48532,-100,4,2,1,70,0,1
48801,-100,4,2,1,5,0,1
48846,-100,4,2,1,70,0,1
49025,-100,4,2,1,5,0,1
49070,-83.3333333333333,4,2,1,70,0,1
49608,-133.333333333333,4,2,1,60,0,0
50102,-133.333333333333,4,2,1,5,0,0
50146,-133.333333333333,4,2,1,50,0,0
50640,-133.333333333333,4,2,1,5,0,0
50684,-133.333333333333,4,2,1,40,0,0
51178,-133.333333333333,4,2,1,20,0,0
51223,-133.333333333333,4,2,1,35,0,0
51312,-133.333333333333,4,2,1,40,0,0
51402,-133.333333333333,4,2,1,45,0,0
51492,-133.333333333333,4,2,1,50,0,0
51581,-133.333333333333,4,2,1,55,0,0
51671,-133.333333333333,4,2,1,60,0,0
51761,-111.111111111111,4,2,1,50,0,0
53285,-111.111111111111,4,2,1,5,0,0
53375,-111.111111111111,4,2,1,50,0,0
53554,-111.111111111111,4,2,1,5,0,0
53644,-111.111111111111,4,2,1,50,0,0
53823,-111.111111111111,4,2,1,5,0,0
53913,-111.111111111111,4,2,1,50,0,0
57590,-111.111111111111,4,2,1,5,0,0
57680,-111.111111111111,4,2,1,50,0,0
59474,-111.111111111111,4,2,1,5,0,0
59563,-111.111111111111,4,2,1,50,0,0
59743,-111.111111111111,4,2,1,5,0,0
59832,-111.111111111111,4,2,1,50,0,0
60371,-100,4,2,1,60,0,0
60550,-100,4,2,1,5,0,0
60640,-100,4,2,1,60,0,0
61447,265.486725663717,4,2,1,60,1,0
61889,-100,4,2,1,5,0,0
61977,-100,4,2,1,60,0,0
62154,-100,4,2,1,5,0,0
62243,-100,4,2,1,60,0,0
62420,-100,4,2,1,5,0,0
62508,256.410256410256,4,2,1,62,1,0
62508,-90.9090909090909,4,2,1,62,0,0
62678,-90.9090909090909,4,2,1,5,0,0
62764,-90.9090909090909,4,2,1,62,0,0
63448,-90.9090909090909,4,2,1,5,0,0
63533,251.046025104603,4,2,1,65,1,0
63533,-83.3333333333333,4,2,1,65,0,0
64537,246.913580246914,4,2,1,68,1,0
64537,-76.9230769230769,4,2,1,68,0,0
65524,241.935483870968,4,2,1,71,1,0
65524,-71.4285714285714,4,2,1,71,0,0
66491,237.154150197628,4,2,1,74,1,0
66491,-66.6666666666667,4,2,1,74,0,0
66649,-66.6666666666667,4,2,1,5,0,0
66728,-66.6666666666667,4,2,1,74,0,0
67360,-66.6666666666667,4,2,1,5,0,0
67440,235.294117647059,4,2,1,77,1,0
67440,-62.5,4,2,1,77,0,0
67596,-62.5,4,2,1,5,0,0
67675,-62.5,4,2,1,77,0,0
68381,-76.9230769230769,4,2,1,80,0,0
73518,-76.9230769230769,4,2,1,5,0,0
73557,-76.9230769230769,4,2,1,80,0,0
74930,-76.9230769230769,4,2,1,5,0,0
74969,-76.9230769230769,4,2,1,80,0,0
75910,-71.4285714285714,4,2,1,80,0,0
81557,-100,4,2,1,60,0,0
82459,-100,4,2,1,5,0,0
82498,-71.4285714285714,4,2,1,80,0,0
83440,-62.5,4,2,1,90,0,1
84381,-76.9230769230769,4,2,1,90,0,1
84655,-62.111801242236,4,2,1,90,0,1
84812,-62.111801242236,4,2,1,5,0,1
84851,-76.9230769230769,4,2,1,90,0,1
85047,-76.9230769230769,4,2,1,5,0,1
85087,-49.2610837438424,4,2,1,90,0,1
85283,-49.2610837438424,4,2,1,5,0,1
85322,-76.9230769230769,4,2,1,90,0,1
85557,-142.857142857143,4,2,1,90,0,1
85753,-142.857142857143,4,2,1,5,0,1
85792,-76.9230769230769,4,2,1,90,0,1
86224,-76.9230769230769,4,2,1,5,0,1
86263,-133.333333333333,4,2,1,90,0,1
86694,-133.333333333333,4,2,1,5,0,1
86734,-76.9230769230769,4,2,1,90,0,1
87204,-200,4,2,1,90,0,1
87675,-90.9090909090909,4,2,1,90,0,1
87871,-90.9090909090909,4,2,1,5,0,1
87910,-90.9090909090908,4,2,1,90,0,1
88106,-90.9090909090908,4,2,1,5,0,1
88145,-76.9230769230769,4,2,1,90,0,1
88381,-76.9230769230769,4,2,1,5,0,1
88420,-80.6451612903226,4,2,1,90,0,1
88577,-80.6451612903226,4,2,1,5,0,1
88616,-109.89010989011,4,2,1,90,0,1
89047,-109.89010989011,4,2,1,5,0,1
89087,-100,4,2,1,90,0,1
90028,-83.3333333333333,4,2,1,90,0,1
90185,-83.3333333333333,4,2,1,5,0,1
90263,-83.3333333333333,4,2,1,90,0,1
90420,-83.3333333333333,4,2,1,5,0,1
90498,-100,4,2,1,90,0,1
90734,-113.636363636364,4,2,1,80,0,0
90930,-113.636363636364,4,2,1,5,0,0
90969,-62.5,4,2,1,90,0,1
91910,-76.9230769230769,4,2,1,90,0,1
92185,-85.4700854700855,4,2,1,90,0,1
92341,-85.4700854700855,4,2,1,5,0,1
92381,-76.9230769230769,4,2,1,90,0,1
92577,-76.9230769230769,4,2,1,5,0,1
92616,-62.5,4,2,1,90,0,1
92812,-62.5,4,2,1,5,0,1
92851,-76.9230769230769,4,2,1,90,0,1
93087,-133.333333333333,4,2,1,90,0,1
93283,-133.333333333333,4,2,1,5,0,1
93322,-76.9230769230769,4,2,1,90,0,1
93753,-76.9230769230769,4,2,1,5,0,1
93792,-76.9230769230769,4,2,1,90,0,1
94224,-76.9230769230769,4,2,1,5,0,1
94263,-76.9230769230769,4,2,1,90,0,1
94734,-200,4,2,1,90,0,1
95204,-125,4,2,1,90,0,1
95400,-125,4,2,1,5,0,1
95440,-90.9090909090909,4,2,1,90,0,1
95636,-90.9090909090909,4,2,1,5,0,1
95675,-76.9230769230769,4,2,1,90,0,1
95871,-76.9230769230769,4,2,1,5,0,1
95910,-83.3333333333333,4,2,1,90,0,1
96106,-83.3333333333333,4,2,1,5,0,1
96145,-136.986301369863,4,2,1,90,0,1
96381,-136.986301369863,4,2,1,80,0,1
96577,-136.986301369863,4,2,1,5,0,1
96616,-66.6666666666667,4,2,1,90,0,0
99440,-83.3333333333333,4,2,1,90,0,0
100145,-208.333333333333,4,2,1,90,0,0
100341,-208.333333333333,4,2,1,5,0,0
100381,-62.5,4,2,1,90,0,0

[Colours]
Combo1 : 97,192,147
Combo2 : 45,189,186
Combo3 : 248,120,123
Combo4 : 113,204,223

[HitObjects]
56,200,102,6,0,B|132:164|132:236|212:200,1,161.999995056153,6|2,0:0|0:0,0:0:0:0:
324,96,550,1,2,0:0:0:0:
388,148,640,2,0,P|404:196|389:249,1,107.999996704102,10|2,0:0|0:0,0:0:0:0:
324,301,909,2,0,P|308:250|324:200,1,107.999996704102,2|2,0:0|0:0,0:0:0:0:
389,250,1178,5,4,3:0:0:0:
240,372,1447,2,0,L|133:360,1,107.999996704102,2|0,0:0|0:0,0:0:0:0:
89,272,1716,2,0,L|196:284,1,107.999996704102,10|0,0:0|0:0,0:0:0:0:
256,204,1985,2,0,L|149:192,1,107.999996704102,2|0,0:0|0:0,0:0:0:0:
104,104,2254,6,0,P|48:92|104:52,1,161.999995056153,4|2,3:0|0:0,0:0:0:0:
328,104,2702,1,2,0:0:0:0:
336,24,2792,1,10,0:0:0:0:
256,204,2971,1,2,0:0:0:0:
248,284,3061,1,2,0:0:0:0:
460,220,3330,6,0,B|480:168|480:168|460:120,1,107.999996704102,4|2,3:0|0:0,0:0:0:0:
408,288,3599,2,0,B|460:308|460:308|508:288,1,107.999996704102,2|2,0:0|0:0,0:0:0:0:
340,236,3868,2,0,B|320:288|320:288|340:336,1,107.999996704102,10|2,0:0|0:0,0:0:0:0:
392,168,4137,2,0,B|340:148|340:148|292:168,1,107.999996704102,2|2,0:0|0:0,0:0:0:0:
460,220,4406,6,0,B|488:164|460:120|460:120|468:96|468:96|460:66,1,161.999995056153,6|2,0:0|0:0,0:0:0:0:
292,168,4855,1,2,0:0:0:0:
340,236,4945,2,0,P|289:252|239:236,1,107.999996704102,10|2,0:0|0:0,0:0:0:0:
240,100,5214,2,0,P|291:84|341:100,1,107.999996704102,2|2,0:0|0:0,0:0:0:0:
292,168,5483,5,4,3:0:0:0:
92,100,5752,2,0,L|80:207,1,107.999996704102,2|0,0:0|0:0,0:0:0:0:
64,296,6021,1,10,0:0:0:0:
244,384,6200,1,2,0:0:0:0:
252,304,6290,1,2,0:0:0:0:
63,355,6559,6,0,P|5:329|64:296,1,161.999995056153,4|2,3:0|0:0,0:0:0:0:
244,384,7007,1,2,0:0:0:0:
164,376,7097,1,10,0:0:0:0:
184,196,7276,1,2,0:0:0:0:
264,204,7366,1,2,0:0:0:0:
64,296,7635,6,0,L|76:189,1,107.999996704102,6|0,3:0|0:0,0:0:0:0:
184,196,7904,2,0,L|172:303,1,107.999996704102,6|0,3:0|0:0,0:0:0:0:
76,189,8173,1,10,0:0:0:0:
272,124,8353,1,2,0:0:0:0:
264,204,8442,1,2,0:0:0:0:
444,299,8622,1,2,0:0:0:0:
456,220,8711,6,0,L|469:101,1,120,6|0,0:0|0:0,0:0:0:0:
477,20,8980,1,2,0:0:0:0:
272,124,9160,1,2,0:0:0:0:
200,156,9249,2,0,P|144:176|90:156,1,120,10|2,0:0|0:0,0:0:0:0:
88,60,9519,2,0,P|144:40|198:60,1,120,2|2,0:0|0:0,0:0:0:0:
90,156,9788,5,4,3:0:0:0:
251,323,10057,2,0,L|264:204,1,120,2|0,0:0|0:0,0:0:0:0:
356,336,10326,2,0,L|369:217,1,120,10|0,0:0|0:0,0:0:0:0:
461,349,10595,2,0,L|474:230,1,120,2|0,0:0|0:0,0:0:0:0:
251,323,10864,6,0,P|195:343|141:323,1,120,4|0,3:0|0:0,0:0:0:0:
196,260,11133,1,2,0:0:0:0:
381,141,11312,1,2,0:0:0:0:
369,217,11402,2,0,L|356:336,1,120,10|2,0:0|0:0,0:0:0:0:
264,203,11671,2,0,L|277:84,1,120,2|0,0:0|0:0,0:0:0:0:
474,229,11940,6,0,P|463:272|447:230,1,120,4|2,3:0|0:0,0:0:0:0:
476,108,12209,2,0,P|465:64|449:106,1,120,2|2,0:0|0:0,0:0:0:0:
356,228,12478,2,0,P|345:271|329:229,1,120,10|2,0:0|0:0,0:0:0:0:
358,107,12747,2,0,P|347:63|331:105,1,120,2|2,0:0|0:0,0:0:0:0:
240,228,13016,6,0,P|184:248|130:228,1,120,6|0,0:0|0:0,0:0:0:0:
185,165,13285,1,2,0:0:0:0:
304,312,13465,1,2,0:0:0:0:
240,356,13554,2,0,P|184:376|130:356,1,120,10|2,0:0|0:0,0:0:0:0:
304,312,13823,2,0,P|360:292|414:312,1,120,2|2,0:0|0:0,0:0:0:0:
240,356,14093,5,4,3:0:0:0:
304,168,14362,2,0,L|423:181,1,120,2|0,0:0|0:0,0:0:0:0:
499,193,14631,1,10,0:0:0:0:
414,312,14810,1,2,0:0:0:0:
340,300,14900,2,0,L|221:287,1,120,2|0,0:0|0:0,0:0:0:0:
157,231,15169,6,0,P|137:287|157:341,1,120,4|0,3:0|0:0,0:0:0:0:
221,287,15438,1,2,0:0:0:0:
98,171,15617,1,2,0:0:0:0:
38,231,15707,2,0,P|18:287|38:341,1,120,10|2,0:0|0:0,0:0:0:0:
98,171,15976,2,0,P|118:115|98:61,1,120,2|0,0:0|0:0,0:0:0:0:
38,231,16245,6,0,P|97:254|157:231,1,132.00000402832,6|0,3:0|0:0,0:0:0:0:
98,171,16514,1,6,3:0:0:0:
281,109,16693,2,0,L|281:76,2,33.0000010070801,4|4|6,3:0|3:0|3:0,0:0:0:0:
342,171,16873,1,4,3:0:0:0:
282,232,16962,1,4,3:0:0:0:
218,171,17052,2,0,P|158:147|98:171,1,132.00000402832,4|4,3:0|3:0,0:0:0:0:
92,287,17321,6,0,B|157:319|157:319|220:287,1,143.999995605469,6|0,0:0|0:0,0:0:0:0:
34,224,17590,2,0,B|2:289|2:289|34:352,1,143.999995605469,2|2,0:0|0:0,0:0:0:0:
221,286,17859,2,0,L|229:215,1,71.9999978027344,10|0,0:0|0:0,0:0:0:0:
50,80,18039,1,2,0:0:0:0:
42,152,18128,2,0,L|34:223,1,71.9999978027344,2|0,0:0|0:0,0:0:0:0:
236,140,18308,1,2,0:0:0:0:
244,68,18397,6,0,B|138:55|138:55|154:63|166:79,1,143.999995605469,4|0,3:0|0:0,0:0:0:0:
320,104,18667,2,0,P|328:68|320:35,1,71.9999978027344,2|0,0:0|0:0,0:0:0:0:
130,155,18936,2,0,P|122:191|130:224,1,71.9999978027344,10|0,0:0|0:0,0:0:0:0:
166,79,19115,1,2,0:0:0:0:
166,79,19205,2,0,P|130:71|97:79,1,71.9999978027344,2|0,0:0|0:0,0:0:0:0:
222,143,19384,1,2,0:0:0:0:
222,143,19474,6,0,P|250:75|222:15,1,143.999995605469,4|0,3:0|0:0,0:0:0:0:
158,199,19743,2,0,P|226:227|286:199,1,143.999995605469,2|2,0:0|0:0,0:0:0:0:
222,143,20012,1,10,0:0:0:0:
188,308,20191,1,2,0:0:0:0:
188,308,20281,2,0,P|224:316|257:308,1,71.9999978027344,2|0,0:0|0:0,0:0:0:0:
16,200,20550,6,0,B|-4:244|16:280|16:280|8:292|8:292|28:328|8:371,1,180.000006866455,6|0,3:0|0:0,0:0:0:0:
88,240,20819,5,2,0:0:0:0:
158,199,20909,1,2,0:0:0:0:
228,240,20998,1,2,0:0:0:0:
228,320,21088,5,10,0:0:0:0:
158,361,21178,1,2,0:0:0:0:
88,320,21267,1,2,0:0:0:0:
88,240,21357,6,0,L|84:204,1,35.9999989013672,2|2,0:0|0:0,0:0:0:0:
100,236,21447,6,0,L|96:200,1,35.9999989013672,2|2,0:0|0:0,0:0:0:0:
112,232,21536,6,0,L|108:196,1,35.9999989013672,2|2,0:0|0:0,0:0:0:0:
124,228,21626,6,0,B|108:85,1,143.999995605469,4|0,3:0|0:0,0:0:0:0:
204,8,21895,2,0,B|220:151,1,143.999995605469,2|2,0:0|0:0,0:0:0:0:
108,85,22164,2,0,L|100:14,1,71.9999978027344,10|0,0:0|0:0,0:0:0:0:
212,80,22344,1,2,0:0:0:0:
220,151,22433,2,0,L|228:222,1,71.9999978027344,2|0,0:0|0:0,0:0:0:0:
340,292,22613,1,2,0:0:0:0:
332,217,22702,6,0,B|316:74,1,143.999995605469,4|0,3:0|0:0,0:0:0:0:
228,222,22971,2,0,B|140:182|140:262|56:222,1,179.999994506836,2|0,0:0|0:0,0:0:0:0:
161,328,23241,2,0,P|212:314|161:299,1,143.999995605469,10|2,0:0|0:0,0:0:0:0:
120,144,23510,2,0,P|72:144|120:116,1,143.999995605469,2|2,0:0|0:0,0:0:0:0:
292,156,23779,6,0,P|320:216|292:284,1,143.999995605469,4|0,3:0|0:0,0:0:0:0:
228,92,24048,2,0,P|288:64|356:92,1,143.999995605469,2|2,0:0|0:0,0:0:0:0:
228,222,24317,2,0,P|192:230|159:222,1,71.9999978027344,10|0,0:0|0:0,0:0:0:0:
292,156,24496,1,2,0:0:0:0:
292,156,24586,2,0,B|329:186|329:254|292:284|292:284|296:264|292:248,1,179.999994506836,2|0,0:0|0:0,0:0:0:0:
228,92,24855,6,0,L|236:3,1,90.0000034332277,6|2,3:0|0:0,0:0:0:0:
348,2,25034,1,2,0:0:0:0:
348,2,25124,2,0,L|356:91,1,90.0000034332277,6|2,3:0|0:0,0:0:0:0:
292,156,25303,5,2,0:0:0:0:
228,222,25393,1,2,3:0:0:0:
164,160,25483,1,2,3:0:0:0:
228,92,25572,1,2,3:0:0:0:
292,156,25662,6,0,L|336:152,1,45.0000017166138,2|2,3:0|0:0,0:0:0:0:
296,168,25752,6,0,L|340:164,1,45.0000017166138,2|2,3:0|0:0,0:0:0:0:
300,180,25841,6,0,L|344:176,1,45.0000017166138,2|2,3:0|0:0,0:0:0:0:
304,192,25931,6,0,B|428:180|428:180|408:204,1,155.999992858887,6|0,0:0|0:0,0:0:0:0:
320,296,26200,2,0,B|300:320|300:320|424:308,1,155.999992858887,2|2,0:0|0:0,0:0:0:0:
304,192,26469,2,0,L|227:200,1,77.9999964294435,10|0,0:0|0:0,0:0:0:0:
166,312,26649,1,2,0:0:0:0:
242,304,26738,2,0,L|319:296,1,77.9999964294435,2|0,0:0|0:0,0:0:0:0:
227,200,26918,1,2,0:0:0:0:
148,208,27007,6,0,B|92:240|32:208|32:208|48:204|63:195,1,155.999992858887,4|0,3:0|0:0,0:0:0:0:
219,123,27276,2,0,L|227:200,1,77.9999964294435,2|0,0:0|0:0,0:0:0:0:
28,44,27545,2,0,P|64:36|103:44,1,77.9999964294435,10|0,0:0|0:0,0:0:0:0:
64,195,27725,1,2,0:0:0:0:
64,195,27815,2,0,P|55:157|64:119,1,77.9999964294435,2|0,0:0|0:0,0:0:0:0:
130,245,27994,1,2,0:0:0:0:
130,245,28084,6,0,P|63:279|-3:245,1,155.999992858887,4|0,3:0|0:0,0:0:0:0:
179,179,28353,2,0,P|213:246|179:312,1,155.999992858887,2|2,0:0|0:0,0:0:0:0:
140,104,28622,2,0,P|178:95|216:104,1,77.9999964294435,10|0,0:0|0:0,0:0:0:0:
64,142,28801,1,2,0:0:0:0:
64,142,28891,2,0,P|55:104|64:66,1,77.9999964294435,2|0,0:0|0:0,0:0:0:0:
324,132,29160,6,0,P|324:196|292:132,1,192,6|0,3:0|0:0,0:0:0:0:
308,52,29429,5,2,0:0:0:0:
384,36,29519,1,2,0:0:0:0:
460,20,29608,1,2,0:0:0:0:
476,100,29698,5,10,0:0:0:0:
400,116,29788,1,2,0:0:0:0:
324,132,29877,1,2,0:0:0:0:
340,212,29967,6,0,L|380:208,1,38.9999982147218,2|2,0:0|0:0,0:0:0:0:
344,224,30057,6,0,L|384:220,1,38.9999982147218,2|2,0:0|0:0,0:0:0:0:
348,236,30146,6,0,L|388:232,1,38.9999982147218,2|2,0:0|0:0,0:0:0:0:
352,248,30236,6,0,B|476:236|476:236|456:260,1,155.999992858887,4|0,3:0|0:0,0:0:0:0:
368,352,30505,2,0,B|348:376|348:376|472:364,1,155.999992858887,2|2,0:0|0:0,0:0:0:0:
352,248,30774,2,0,L|275:256,1,77.9999964294435,10|0,0:0|0:0,0:0:0:0:
290,360,30954,1,2,0:0:0:0:
290,360,31043,2,0,L|367:352,1,77.9999964294435,2|0,0:0|0:0,0:0:0:0:
336,144,31223,1,2,0:0:0:0:
336,144,31312,6,0,L|181:160,1,155.999992858887,4|0,3:0|0:0,0:0:0:0:
384,212,31581,2,0,P|416:148|384:76,1,155.999992858887,2|0,0:0|0:0,0:0:0:0:
181,160,31850,2,0,L|336:144,1,155.999992858887,10|2,0:0|0:0,0:0:0:0:
132,228,32119,2,0,P|100:164|132:92,1,155.999992858887,2|2,0:0|0:0,0:0:0:0:
187,290,32388,6,0,P|127:310|77:290,1,120,2|0,0:0|0:0,0:0:0:0:
248,235,32658,2,0,P|268:295|248:345,1,120,2|2,0:0|0:0,0:0:0:0:
216,156,32927,2,0,P|248:152|275:156,1,60,2|0,0:0|0:0,0:0:0:0:
460,232,33106,1,2,0:0:0:0:
460,232,33196,2,0,B|500:285|460:342|460:342|460:328|452:312,1,150,2|0,0:0|0:0,0:0:0:0:
424,152,33465,6,0,P|464:144|499:152,1,77.9999964294435,6|2,3:0|0:0,0:0:0:0:
340,227,33644,1,2,0:0:0:0:
248,235,33734,2,0,L|152:243,1,96,6|2,3:0|0:0,0:0:0:0:
332,135,33913,5,2,0:0:0:0:
340,227,34003,1,2,3:0:0:0:
248,235,34093,1,2,3:0:0:0:
240,143,34182,1,2,3:0:0:0:
332,135,34272,6,0,L|329:79,1,56.9999984779358,2|2,3:0|0:0,0:0:0:0:
348,132,34362,6,0,L|345:76,1,56.9999984779358,2|2,3:0|0:0,0:0:0:0:
364,129,34451,6,0,L|361:73,1,56.9999984779358,2|2,0:0|0:0,0:0:0:0:
380,124,34541,6,0,B|444:132|488:196|504:240|496:296|432:324|372:296|372:220|420:184,1,359.999989013672,14|0,0:0|0:0,0:0:0:0:
512,328,35079,6,0,B|436:392|356:328|356:328|340:336|340:336|260:272|186:337,1,359.999989013672,10|0,0:0|0:0,0:0:0:0:
120,384,35617,5,4,3:0:0:0:
254,178,35797,6,0,P|286:192|253:206,1,90.0000034332277,2|0,0:0|0:0,0:0:0:0:
190,134,35931,6,0,P|270:94|343:134,1,180.000006866455,2|0,0:0|0:0,0:0:0:0:
360,232,36155,6,0,P|268:292|175:232,1,233.999989288331,10|0,0:0|0:0,0:0:0:0:
164,331,36469,6,0,P|270:367|376:331,1,227.999993911743,2|0,0:0|0:0,0:0:0:0:
475,316,36693,5,6,3:0:0:0:
460,217,36783,1,2,0:0:0:0:
360,232,36873,1,2,0:0:0:0:
376,331,36962,2,0,L|475:316,1,100.499995246125,2|0,0:0|0:0,0:0:0:0:
360,232,37232,6,0,B|214:172|214:292|162:328|78:296|78:200|150:172|206:232,1,395.999987915039,10|0,0:0|0:0,0:0:0:0:
140,352,37770,6,0,P|40:232|140:128,1,330,6|0,3:0|0:0,0:0:0:0:
206,232,38308,5,10,0:0:0:0:
180,276,38397,1,2,0:0:0:0:
150,232,38487,1,2,0:0:0:0:
230,226,38577,5,2,0:0:0:0:
179,296,38667,1,2,0:0:0:0:
128,226,38756,1,2,0:0:0:0:
230,226,38846,6,0,L|246:222,1,15,4|0,3:0|0:0,0:0:0:0:
340,226,38980,6,0,L|326:223,1,15,2|0,0:0|0:0,0:0:0:0:
228,138,39115,6,0,L|242:141,1,15,2|0,0:0|0:0,0:0:0:0:
340,138,39249,6,0,L|325:141,1,15,2|0,0:0|0:0,0:0:0:0:
230,226,39384,6,0,B|285:201|285:201|340:226,1,120.599994295349,10|0,0:0|0:0,0:0:0:0:
268,354,39698,6,0,P|280:286|304:354,1,192,2|0,0:0|0:0,0:0:0:0:
230,226,39922,5,4,3:0:0:0:
384,88,40057,2,0,P|396:132|384:173,1,90,2|0,0:0|0:0,0:0:0:0:
328,20,40236,2,0,P|384:0|438:20,1,120,2|0,0:0|0:0,0:0:0:0:
308,132,40460,6,0,B|162:192|162:72|110:36|26:68|26:164|98:192|154:132,1,395.999987915039,10|0,0:0|0:0,0:0:0:0:
248,28,40998,5,4,3:0:0:0:
308,132,41178,5,2,0:0:0:0:
308,132,41267,1,2,0:0:0:0:
248,236,41447,5,2,0:0:0:0:
248,236,41536,1,10,0:0:0:0:
188,132,41716,5,2,0:0:0:0:
188,132,41806,1,2,0:0:0:0:
248,28,41985,5,2,0:0:0:0:
248,28,42075,2,0,B|312:-4|312:-4|376:28,1,143.999995605469,4|0,3:0|0:0,0:0:0:0:
248,28,42344,2,0,B|184:60|184:60|120:28,1,143.999995605469,4|0,3:0|0:0,0:0:0:0:
377,28,42613,5,2,0:0:0:0:
312,88,42702,1,2,0:0:0:0:
248,28,42792,1,2,0:0:0:0:
377,28,42882,2,0,B|421:16|421:16|463:28,1,89.9999972534181,2|0,0:0|0:0,0:0:0:0:
312,88,43151,6,0,B|232:116|232:268|312:300|312:300|288:248|312:203,1,359.999989013672,14|0,0:0|0:0,0:0:0:0:
388,352,43689,6,0,B|312:416|232:352|232:352|216:360|216:360|136:296|62:361,1,359.999989013672,10|0,0:0|0:0,0:0:0:0:
62,360,44227,5,4,3:0:0:0:
312,203,44406,6,0,L|304:292,1,90.0000034332277,2|0,0:0|0:0,0:0:0:0:
320,125,44541,6,0,L|304:293,1,167.999994873047,2|0,0:0|0:0,0:0:0:0:
328,50,44765,6,0,L|304:292,1,243.000000926971,10|0,0:0|0:0,0:0:0:0:
296,384,45079,6,0,L|328:50,1,335.999989746094,2|0,0:0|0:0,0:0:0:0:
432,61,45303,5,6,3:0:0:0:
422,158,45393,1,2,0:0:0:0:
319,146,45483,1,2,0:0:0:0:
328,49,45572,2,0,L|432:61,1,104.999996795654,2|0,0:0|0:0,0:0:0:0:
319,146,45841,6,0,B|227:213|139:137|139:137|227:61|319:129,1,395.999987915039,10|0,0:0|0:0,0:0:0:0:
152,243,46380,6,0,B|76:215|52:139|52:139|76:59|152:35,1,300,6|0,3:0|0:0,0:0:0:0:
319,129,46918,5,10,0:0:0:0:
319,164,47007,1,2,0:0:0:0:
319,200,47097,1,2,0:0:0:0:
373,255,47187,5,2,0:0:0:0:
319,312,47276,1,2,0:0:0:0:
262,255,47366,1,2,0:0:0:0:
319,200,47456,6,0,L|319:216,1,15,4|0,3:0|0:0,0:0:0:0:
319,312,47590,6,0,L|319:297,1,15,2|0,0:0|0:0,0:0:0:0:
210,200,47725,6,0,L|210:215,1,15,2|0,0:0|0:0,0:0:0:0:
210,312,47859,6,0,L|210:298,1,15,2|0,0:0|0:0,0:0:0:0:
319,200,47994,6,0,B|265:178|265:178|211:200,1,116.999994644165,10|0,0:0|0:0,0:0:0:0:
176,128,48308,6,0,B|264:92|264:92|355:128,1,192,2|0,0:0|0:0,0:0:0:0:
319,200,48532,5,4,3:0:0:0:
100,172,48667,2,0,P|88:128|100:87,1,90,2|0,0:0|0:0,0:0:0:0:
156,240,48846,2,0,P|100:260|46:240,1,120,2|0,0:0|0:0,0:0:0:0:
176,128,49070,6,0,B|322:68|322:188|374:224|458:192|458:96|386:68|330:128,1,395.999987915039,10|0,0:0|0:0,0:0:0:0:
275,250,49608,6,0,P|190:234|276:224,1,247.500009441376,4|0,3:0|0:0,0:0:0:0:
180,336,50146,6,0,P|120:224|180:135,1,247.500009441376,4|0,3:0|0:0,0:0:0:0:
288,136,50684,6,0,P|348:248|288:337,1,247.500009441376,4|0,3:0|0:0,0:0:0:0:
180,336,51223,5,4,3:0:0:0:
168,328,51312,5,4,3:0:0:0:
148,312,51402,5,4,3:0:0:0:
128,276,51492,5,4,3:0:0:0:
120,224,51581,5,4,3:0:0:0:
148,160,51671,5,4,3:0:0:0:
216,116,51761,6,0,B|292:80|292:152|372:116,1,161.999995056153,6|2,0:0|0:0,0:0:0:0:
256,293,52209,1,2,0:0:0:0:
256,293,52299,2,0,P|240:242|256:192,1,107.999996704102,10|2,0:0|0:0,0:0:0:0:
308,364,52568,2,0,P|257:380|207:364,1,107.999996704102,2|2,0:0|0:0,0:0:0:0:
328,244,52837,5,4,3:0:0:0:
500,364,53106,2,0,L|512:257,1,107.999996704102,2|0,0:0|0:0,0:0:0:0:
408,356,53375,2,0,L|420:249,1,107.999996704102,10|0,0:0|0:0,0:0:0:0:
316,351,53644,2,0,L|328:244,1,107.999996704102,2|0,0:0|0:0,0:0:0:0:
224,346,53913,6,0,B|168:382|108:346|108:346|128:346|144:334,1,161.999995056153,4|2,3:0|0:0,0:0:0:0:
336,164,54362,1,2,0:0:0:0:
328,244,54451,1,10,0:0:0:0:
144,160,54631,1,2,0:0:0:0:
152,80,54720,1,2,0:0:0:0:
328,244,54989,6,0,L|316:351,1,107.999996704102,4|2,3:0|0:0,0:0:0:0:
221,232,55258,2,0,L|328:244,1,107.999996704102,2|2,0:0|0:0,0:0:0:0:
209,339,55528,2,0,L|221:232,1,107.999996704102,10|2,0:0|0:0,0:0:0:0:
316,351,55797,2,0,L|209:339,1,107.999996704102,2|2,0:0|0:0,0:0:0:0:
412,252,56066,6,0,P|468:264|412:304,1,161.999995056153,6|2,0:0|0:0,0:0:0:0:
321,132,56514,1,2,0:0:0:0:
389,100,56604,2,0,B|441:80|441:80|489:100,1,107.999996704102,10|2,0:0|0:0,0:0:0:0:
321,132,56873,2,0,B|269:152|269:152|221:132,1,107.999996704102,2|2,0:0|0:0,0:0:0:0:
389,100,57142,5,4,3:0:0:0:
156,183,57411,2,0,P|140:132|156:82,1,107.999996704102,2|0,0:0|0:0,0:0:0:0:
221,132,57680,1,10,0:0:0:0:
153,324,57859,1,2,0:0:0:0:
73,316,57949,1,2,0:0:0:0:
321,248,58218,6,0,B|357:304|321:364|321:364|321:344|309:328,1,161.999995056153,4|2,3:0|0:0,0:0:0:0:
221,132,58667,1,2,0:0:0:0:
301,124,58756,1,10,0:0:0:0:
401,240,58936,1,2,0:0:0:0:
321,248,59025,1,2,0:0:0:0:
114,144,59294,6,0,L|221:132,1,107.999996704102,6|0,3:0|0:0,0:0:0:0:
329,120,59563,2,0,L|222:132,1,107.999996704102,6|0,3:0|0:0,0:0:0:0:
114,144,59832,1,10,0:0:0:0:
317,44,60012,1,2,0:0:0:0:
329,120,60102,1,2,0:0:0:0:
102,65,60281,1,2,0:0:0:0:
114,144,60371,6,0,L|127:263,1,120,6|0,0:0|0:0,0:0:0:0:
137,340,60640,1,2,0:0:0:0:
0,144,60819,1,2,0:0:0:0:
0,144,60909,2,0,B|44:136|44:136|72:152|72:152|114:144,1,120,10|2,0:0|0:0,0:0:0:0:
229,144,61178,2,0,B|185:152|185:152|157:136|157:136|115:144,1,120,2|2,0:0|0:0,0:0:0:0:
12,232,61447,5,4,3:0:0:0:
164,376,61712,2,0,L|224:272,1,120,2|0,0:0|0:0,0:0:0:0:
103,272,61977,2,0,L|164:376,1,120,10|0,0:0|0:0,0:0:0:0:
224,272,62243,2,0,L|104:272,1,120,2|0,0:0|0:0,0:0:0:0:
288,332,62508,6,0,P|312:272|288:213,1,132.00000402832,4|0,3:0|0:0,0:0:0:0:
224,272,62764,1,2,0:0:0:0:
387,128,62935,1,2,0:0:0:0:
387,128,63020,2,0,B|327:100|327:100|267:128,1,132.00000402832,10|2,0:0|0:0,0:0:0:0:
387,128,63277,2,0,B|447:156|447:156|507:128,1,132.00000402832,2|0,0:0|0:0,0:0:0:0:
288,213,63533,6,0,B|255:264|271:315|288:338|311:321|294:299,1,143.999995605469,4|2,3:0|0:0,0:0:0:0:
288,213,63784,2,0,B|236:180|185:196|162:213|179:236|201:219,1,143.999995605469,2|2,0:0|0:0,0:0:0:0:
288,213,64035,2,0,B|320:161|304:110|287:87|264:104|281:126,1,143.999995605469,10|2,0:0|0:0,0:0:0:0:
288,213,64286,2,0,B|339:245|390:229|413:212|396:189|374:206,1,143.999995605469,2|2,0:0|0:0,0:0:0:0:
220,324,64537,6,0,P|164:340|220:352,1,155.999992858887,6|2,0:0|0:0,0:0:0:0:
308,340,64783,1,2,0:0:0:0:
200,162,64948,1,2,0:0:0:0:
200,162,65030,2,0,B|140:130|88:162|88:162|108:170|120:182,1,155.999992858887,10|2,0:0|0:0,0:0:0:0:
200,162,65277,2,0,B|260:194|312:162|312:162|292:154|280:142,1,155.999992858887,2|2,0:0|0:0,0:0:0:0:
120,182,65524,5,4,3:0:0:0:
308,340,65765,2,0,P|376:380|446:340,1,167.999994873047,2|0,0:0|0:0,0:0:0:0:
375,219,66007,2,0,P|306:259|308:340,1,167.999994873047,10|2,0:0|0:0,0:0:0:0:
446,339,66249,2,0,P|445:258|376:219,1,167.999994873047,2|0,0:0|0:0,0:0:0:0:
200,132,66491,6,0,B|160:192|200:260|200:260|204:236|216:220,1,180.000006866455,4|0,3:0|0:0,0:0:0:0:
320,132,66728,1,2,0:0:0:0:
156,20,66886,1,2,0:0:0:0:
156,20,66965,2,0,B|136:16|112:36|112:36|136:56|160:52|160:16|237:36,1,180.000006866455,10|2,0:0|0:0,0:0:0:0:
319,52,67202,2,0,B|339:56|363:36|363:36|339:16|315:20|315:56|238:36,1,180.000006866455,2|0,0:0|0:0,0:0:0:0:
144,219,67440,6,0,P|180:288|215:219,1,192,6|0,3:0|0:0,0:0:0:0:
180,144,67675,1,6,3:0:0:0:
203,356,67832,2,0,P|180:359|156:356,2,48,0|0|6,3:0|3:0|3:0,0:0:0:0:
276,308,67989,1,0,3:0:0:0:
348,356,68067,1,0,3:0:0:0:
420,308,68145,2,0,P|436:264|420:220,1,96,0|0,3:0|0:0,0:0:0:0:
348,168,68302,1,0,3:0:0:0:
276,216,68381,6,0,B|207:252|207:252|138:216,1,155.999992858887,6|0,0:0|0:0,0:0:0:0:
348,168,68616,2,0,B|417:132|417:132|486:168,1,155.999992858887,2|2,0:0|0:0,0:0:0:0:
284,293,68851,2,0,L|276:216,1,77.9999964294435,10|0,0:0|0:0,0:0:0:0:
340,90,69008,1,2,0:0:0:0:
340,90,69087,2,0,L|348:167,1,77.9999964294435,2|0,0:0|0:0,0:0:0:0:
272,40,69243,1,2,0:0:0:0:
272,40,69322,6,0,P|340:8|408:40,1,155.999992858887,4|0,3:0|0:0,0:0:0:0:
196,76,69557,2,0,P|188:36|196:1,1,77.9999964294435,2|0,0:0|0:0,0:0:0:0:
348,167,69792,2,0,L|271:175,1,77.9999964294435,10|0,0:0|0:0,0:0:0:0:
112,192,69949,1,2,0:0:0:0:
112,192,70028,2,0,L|189:184,1,77.9999964294435,2|0,0:0|0:0,0:0:0:0:
341,250,70185,1,2,0:0:0:0:
341,250,70263,6,0,B|349:266|349:282|349:282|385:226|349:167,1,155.999992858887,4|0,3:0|0:0,0:0:0:0:
356,83,70498,2,0,B|348:67|348:51|348:51|312:107|348:166,1,155.999992858887,2|2,0:0|0:0,0:0:0:0:
348,166,70734,1,10,0:0:0:0:
504,252,70890,1,2,0:0:0:0:
504,252,70969,2,0,L|512:175,1,77.9999964294435,2|0,0:0|0:0,0:0:0:0:
306,250,71204,6,0,P|324:306|341:249,1,155.999992858887,6|0,3:0|0:0,0:0:0:0:
252,192,71440,5,2,0:0:0:0:
196,248,71518,1,2,0:0:0:0:
140,192,71596,1,2,0:0:0:0:
196,136,71675,5,10,0:0:0:0:
140,80,71753,1,2,0:0:0:0:
84,136,71832,1,2,0:0:0:0:
28,80,71910,6,0,L|56:52,1,38.9999982147218,2|2,0:0|0:0,0:0:0:0:
20,72,71989,6,0,L|48:44,1,38.9999982147218,2|2,0:0|0:0,0:0:0:0:
12,64,72067,6,0,L|40:36,1,38.9999982147218,2|2,0:0|0:0,0:0:0:0:
4,56,72145,6,0,B|44:20|44:20|88:48|140:20,1,155.999992858887,4|0,3:0|0:0,0:0:0:0:
278,56,72381,2,0,B|238:20|238:20|194:48|142:20,1,155.999992858887,2|2,0:0|0:0,0:0:0:0:
141,20,72616,2,0,L|141:97,1,77.9999964294435,10|0,0:0|0:0,0:0:0:0:
278,134,72773,1,2,0:0:0:0:
278,134,72851,2,0,L|278:57,1,77.9999964294435,2|0,0:0|0:0,0:0:0:0:
238,208,73008,1,2,0:0:0:0:
238,208,73087,6,0,B|314:240|314:176|388:208,1,155.999992858887,4|0,3:0|0:0,0:0:0:0:
140,184,73322,2,0,B|92:248|148:316|148:316|148:292|164:268,1,194.999991073609,2|0,0:0|0:0,0:0:0:0:
207,135,73557,2,0,P|139:101|73:135,1,155.999992858887,10|2,0:0|0:0,0:0:0:0:
5,184,73792,2,0,P|72:218|140:184,1,155.999992858887,2|2,0:0|0:0,0:0:0:0:
341,134,74028,6,0,P|274:100|207:135,1,155.999992858887,4|0,3:0|0:0,0:0:0:0:
274,183,74263,2,0,P|341:218|409:184,1,155.999992858887,2|2,0:0|0:0,0:0:0:0:
476,132,74498,2,0,L|468:55,1,77.9999964294435,10|0,0:0|0:0,0:0:0:0:
408,185,74655,1,2,0:0:0:0:
408,185,74734,2,0,B|424:249|424:249|392:305|392:305|408:367,1,194.999991073609,2|0,0:0|0:0,0:0:0:0:
259,244,74969,6,0,L|336:236,1,77.9999964294435,6|2,3:0|0:0,0:0:0:0:
486,359,75126,1,2,0:0:0:0:
486,359,75204,2,0,L|409:367,1,77.9999964294435,6|2,3:0|0:0,0:0:0:0:
329,375,75361,5,2,0:0:0:0:
320,296,75440,1,2,3:0:0:0:
399,288,75518,1,2,3:0:0:0:
408,367,75596,1,2,3:0:0:0:
329,375,75675,6,0,L|289:379,1,38.9999982147218,2|2,3:0|0:0,0:0:0:0:
325,363,75753,6,0,L|285:367,1,38.9999982147218,2|2,3:0|0:0,0:0:0:0:
320,352,75832,6,0,L|280:356,1,38.9999982147218,2|2,3:0|0:0,0:0:0:0:
315,341,75910,6,0,L|148:357,1,167.999994873047,6|0,0:0|0:0,0:0:0:0:
32,268,76145,2,0,B|164:256|164:256|138:279,1,167.999994873047,2|2,0:0|0:0,0:0:0:0:
40,351,76381,2,0,L|32:268,1,83.9999974365235,10|0,0:0|0:0,0:0:0:0:
20,140,76538,1,2,0:0:0:0:
20,140,76616,2,0,L|103:132,1,83.9999974365235,2|0,0:0|0:0,0:0:0:0:
256,192,76773,1,2,0:0:0:0:
256,192,76851,6,0,B|288:248|256:312|256:312|256:292|244:272,1,167.999994873047,4|0,3:0|0:0,0:0:0:0:
216,120,77087,2,0,P|256:108|295:120,1,83.9999974365235,2|0,0:0|0:0,0:0:0:0:
424,272,77322,2,0,P|384:284|345:272,1,83.9999974365235,10|0,0:0|0:0,0:0:0:0:
496,232,77479,1,2,0:0:0:0:
496,232,77557,2,0,P|508:272|496:311,1,83.9999974365235,2|0,0:0|0:0,0:0:0:0:
384,200,77714,1,2,0:0:0:0:
384,200,77792,6,0,B|368:148|368:148|400:96|400:96|384:46,1,167.999994873047,4|0,3:0|0:0,0:0:0:0:
220,48,78028,2,0,B|204:100|204:100|236:152|236:152|220:202,1,167.999994873047,2|2,0:0|0:0,0:0:0:0:
304,56,78263,2,0,L|221:48,1,83.9999974365235,10|0,0:0|0:0,0:0:0:0:
137,194,78420,1,2,0:0:0:0:
137,194,78498,2,0,L|220:202,1,83.9999974365235,2|0,0:0|0:0,0:0:0:0:
384,361,78734,6,0,B|420:281|348:281|384:200,1,167.999994873047,6|0,3:0|0:0,0:0:0:0:
512,199,78969,5,2,0:0:0:0:
448,243,79047,1,2,0:0:0:0:
384,199,79126,1,2,0:0:0:0:
384,124,79204,5,10,0:0:0:0:
448,80,79282,1,2,0:0:0:0:
512,124,79361,1,2,0:0:0:0:
512,199,79440,6,0,L|508:240,1,41.9999987182618,2|2,0:0|0:0,0:0:0:0:
500,200,79518,6,0,L|496:244,1,41.9999987182618,2|2,0:0|0:0,0:0:0:0:
484,204,79596,6,0,L|480:248,1,41.9999987182618,2|2,0:0|0:0,0:0:0:0:
472,204,79675,6,0,B|460:336|460:336|442:306,1,167.999994873047,4|0,3:0|0:0,0:0:0:0:
304,204,79910,2,0,B|315:336|315:336|333:306,1,167.999994873047,2|2,0:0|0:0,0:0:0:0:
344,132,80145,2,0,P|304:119|264:132,1,83.9999974365235,10|0,0:0|0:0,0:0:0:0:
416,172,80302,1,2,0:0:0:0:
416,172,80381,2,0,P|428:132|416:93,1,83.9999974365235,2|0,0:0|0:0,0:0:0:0:
192,92,80538,1,2,0:0:0:0:
192,92,80616,6,0,B|176:144|176:144|208:196|208:196|192:246,1,167.999994873047,4|0,3:0|0:0,0:0:0:0:
72,364,80851,2,0,B|88:312|88:312|56:260|56:260|72:210,1,167.999994873047,2|0,0:0|0:0,0:0:0:0:
204,328,81087,2,0,P|194:388|178:330,1,167.999994873047,10|2,0:0|0:0,0:0:0:0:
344,212,81322,2,0,P|328:152|316:212,1,167.999994873047,2|2,0:0|0:0,0:0:0:0:
450,330,81557,6,0,P|470:270|450:220,1,120,2|0,0:0|0:0,0:0:0:0:
275,274,81792,2,0,P|330:294|385:273,1,120,2|2,0:0|0:0,0:0:0:0:
452,136,82028,2,0,L|393:128,1,60,2|0,0:0|0:0,0:0:0:0:
254,184,82185,1,2,0:0:0:0:
254,184,82263,2,0,B|226:196|226:196|344:212,1,150,2|0,0:0|0:0,0:0:0:0:
452,136,82498,6,0,L|369:124,1,83.9999974365235,6|2,3:0|0:0,0:0:0:0:
256,28,82655,1,2,0:0:0:0:
256,28,82734,2,0,L|339:40,1,83.9999974365235,6|2,3:0|0:0,0:0:0:0:
244,111,82890,1,2,0:0:0:0:
161,99,82969,1,2,3:0:0:0:
174,15,83047,1,2,3:0:0:0:
256,28,83126,1,2,3:0:0:0:
244,111,83204,6,0,L|240:154,1,41.9999987182618,2|2,3:0|0:0,0:0:0:0:
260,114,83283,6,0,L|256:158,1,41.9999987182618,2|2,3:0|0:0,0:0:0:0:
276,117,83361,6,0,L|272:158,1,41.9999987182618,2|2,0:0|0:0,0:0:0:0:
296,120,83440,6,0,B|344:96|400:120|400:120|456:168|456:228|400:252|344:228|344:168|400:120|400:120|456:96|505:120,1,480,14|0,0:0|0:0,0:0:0:0:
500,276,83910,6,0,B|396:372|300:276|300:276|276:288|276:288|184:192|79:288,1,480,10|0,0:0|0:0,0:0:0:0:
78,288,84381,5,4,3:0:0:0:
440,208,84538,6,0,P|451:171|439:135,1,77.9999964294435,2|2,0:0|0:0,0:0:0:0:
341,208,84655,6,0,P|416:227|439:134,1,193.2000002948,2|0,0:0|0:0,0:0:0:0:
344,133,84851,6,0,P|353:220|440:207,1,194.999991073609,10|0,0:0|0:0,0:0:0:0:
439,135,85087,6,0,P|359:120|440:208,1,304.499989081192,2|0,0:0|0:0,0:0:0:0:
511,177,85322,5,6,3:0:0:0:
511,100,85400,1,2,0:0:0:0:
439,135,85479,1,2,0:0:0:0:
440,208,85557,2,0,B|436:240|436:240|444:260|444:260|436:280|436:280|440:309,1,104.999996795654,2|0,0:0|0:0,0:0:0:0:
341,208,85792,6,0,B|237:156|237:272|197:308|89:280|89:164|197:116|280:260,1,428.999980361939,10|0,0:0|0:0,0:0:0:0:
133,318,86263,6,0,P|69:210|133:122,1,247.500009441376,6|0,3:0|0:0,0:0:0:0:
185,218,86734,5,10,0:0:0:0:
213,226,86812,1,2,0:0:0:0:
245,218,86890,1,2,0:0:0:0:
302,161,86969,5,2,0:0:0:0:
356,218,87047,1,2,0:0:0:0:
302,275,87126,1,2,0:0:0:0:
245,218,87204,6,0,L|229:218,1,15,4|0,3:0|0:0,0:0:0:0:
302,161,87322,6,0,L|302:145,1,15,2|0,0:0|0:0,0:0:0:0:
356,218,87440,6,0,L|372:218,1,15,2|0,0:0|0:0,0:0:0:0:
302,275,87557,6,0,L|302:291,1,15,2|0,0:0|0:0,0:0:0:0:
245,218,87675,6,0,B|209:198|173:218|173:218|161:210|161:210|125:230|89:210,1,165.000005035401,10|0,0:0|0:0,0:0:0:0:
209,286,87910,6,0,P|209:342|181:286,1,165.000005035401,2|0,0:0|0:0,0:0:0:0:
179,287,88145,5,4,3:0:0:0:
124,144,88263,2,0,P|104:92|124:37,1,116.999994644165,2|0,0:0|0:0,0:0:0:0:
188,90,88420,2,0,B|260:58|260:122|332:90,1,150,2|0,0:0|0:0,0:0:0:0:
476,89,88616,6,0,B|404:57|404:121|332:90|332:90|260:122|260:58|188:90,1,300.300010080872,10|0,0:0|0:0,0:0:0:0:
224,158,89087,5,4,3:0:0:0:
439,158,89243,5,2,0:0:0:0:
439,158,89322,1,2,0:0:0:0:
276,250,89479,5,2,0:0:0:0:
276,250,89557,1,10,0:0:0:0:
384,250,89714,5,2,0:0:0:0:
384,250,89792,1,2,0:0:0:0:
329,342,89949,5,2,0:0:0:0:
329,342,90028,2,0,B|278:374|227:358|204:341|221:318|243:335,1,143.999995605469,4|0,3:0|0:0,0:0:0:0:
329,342,90263,2,0,B|380:310|431:326|454:343|437:366|415:349,1,143.999995605469,4|0,3:0|0:0,0:0:0:0:
276,250,90498,5,2,0:0:0:0:
328,190,90577,1,2,0:0:0:0:
384,250,90655,1,2,0:0:0:0:
440,190,90734,2,0,P|464:134|440:71,1,132.00000402832,2|0,0:0|0:0,0:0:0:0:
384,130,90969,6,0,B|309:264|161:200|125:132|125:52|169:13|229:9|264:30|277:73,1,480,14|0,0:0|0:0,0:0:0:0:
344,262,91440,6,0,B|152:322|152:182|84:146|0:198|0:294|84:326|152:262,1,480,10|0,0:0|0:0,0:0:0:0:
152,261,91910,5,4,3:0:0:0:
277,149,92067,6,0,P|285:113|277:74,1,77.9999964294435,2|2,0:0|0:0,0:0:0:0:
344,44,92185,6,0,P|360:116|344:179,1,140.400000535583,2|0,0:0|0:0,0:0:0:0:
412,206,92381,6,0,P|436:112|412:18,1,194.999991073609,10|0,0:0|0:0,0:0:0:0:
484,0,92616,6,0,P|512:110|484:226,1,240,2|0,0:0|0:0,0:0:0:0:
390,281,92851,5,6,3:0:0:0:
412,206,92930,1,2,0:0:0:0:
482,230,93008,1,2,0:0:0:0:
464,303,93086,2,0,P|390:358|315:305,1,194.999991073609,2|0,0:0|0:0,0:0:0:0:
172,202,93322,6,0,B|132:186|79:234|91:310|191:338|264:278|264:202|264:202|320:242|376:202,1,428.999980361939,10|0,0:0|0:0,0:0:0:0:
376,126,93792,6,0,B|320:86|264:126|264:126|264:50|191:-10|91:18|79:94|132:142|172:126,1,428.999980361939,6|0,3:0|0:0,0:0:0:0:
280,116,94263,5,10,0:0:0:0:
320,106,94341,1,2,0:0:0:0:
360,116,94420,1,2,0:0:0:0:
376,202,94498,5,2,0:0:0:0:
320,258,94576,1,2,0:0:0:0:
264,202,94655,1,2,0:0:0:0:
360,116,94734,6,0,L|376:120,1,15,4|0,3:0|0:0,0:0:0:0:
280,116,94851,6,0,L|264:120,1,15,2|0,0:0|0:0,0:0:0:0:
361,33,94969,6,0,L|377:29,1,15,2|0,0:0|0:0,0:0:0:0:
281,32,95087,6,0,L|265:28,1,15,2|0,0:0|0:0,0:0:0:0:
266,119,95204,6,0,B|319:93|319:93|374:119,1,120,10|0,0:0|0:0,0:0:0:0:
392,218,95440,6,0,B|320:258|320:258|248:218,1,165.000005035401,2|0,0:0|0:0,0:0:0:0:
247,217,95674,5,4,3:0:0:0:
108,128,95792,2,0,P|96:92|108:56,1,77.9999964294435,2|0,0:0|0:0,0:0:0:0:
181,169,95910,2,0,P|108:213|34:169,1,179.999994506836
249,116,96145,6,0,B|281:168|249:220|249:220|261:236|261:236|229:284|261:340,1,240.900006616516,10|0,0:0|0:0,0:0:0:0:
329,288,96616,6,0,P|373:276|414:288,5,90.0000034332277,4|2|2|2|2|2,3:0|0:0|0:0|0:0|0:0|0:0,0:0:0:0:
261,236,97087,6,0,P|217:224|176:236,5,90.0000034332277,4|2|2|2|2|2,3:0|0:0|0:0|0:0|0:0|0:0,0:0:0:0:
329,184,97557,5,4,3:0:0:0:
329,184,97636,2,0,L|321:95,1,90.0000034332277,2|2,0:0|0:0,0:0:0:0:
488,16,97792,1,2,0:0:0:0:
488,16,97871,2,0,L|496:105,1,90.0000034332277,2|2,0:0|0:0,0:0:0:0:
313,190,98028,5,4,3:0:0:0:
313,190,98106,2,0,L|305:101,1,90.0000034332277,2|2,0:0|0:0,0:0:0:0:
504,10,98263,1,2,0:0:0:0:
504,10,98341,2,0,L|512:99,1,90.0000034332277,2|2,0:0|0:0,0:0:0:0:
276,196,98498,5,4,3:0:0:0:
248,210,98577,1,2,0:0:0:0:
207,210,98655,1,2,0:0:0:0:
169,195,98734,1,2,0:0:0:0:
131,176,98812,1,2,0:0:0:0:
90,176,98890,1,2,0:0:0:0:
40,196,98969,5,4,3:0:0:0:
22,250,99047,1,2,0:0:0:0:
33,308,99126,1,2,0:0:0:0:
84,341,99204,1,2,0:0:0:0:
142,336,99283,1,2,0:0:0:0:
186,299,99361,1,2,0:0:0:0:
198,241,99440,6,0,L|190:169,2,71.9999978027344,2|2|2,0:0|0:0|0:0,0:0:0:0:
279,229,99675,6,0,L|271:157,2,71.9999978027344,2|2|2,0:0|0:0|0:0,0:0:0:0:
364,216,99910,5,2,0:0:0:0:
360,180,99989,1,2,0:0:0:0:
356,144,100067,1,2,0:0:0:0:
440,132,100145,6,0,L|448:204,1,71.9999978027344,2|0,0:0|0:0,0:0:0:0:
448,203,100381,5,6,0:0:0:0:
