osu file format v14

[General]
AudioFilename: audio.mp3
AudioLeadIn: 0
PreviewTime: 34529
Countdown: 0
SampleSet: Normal
StackLeniency: 0.2
Mode: 0
LetterboxInBreaks: 0
WidescreenStoryboard: 0

[Editor]
DistanceSpacing: 1
BeatDivisor: 4
GridSize: 16
TimelineZoom: 1.7

[Metadata]
Title:Kawaii
TitleUnicode:Kawaii
Artist:Thaehan
ArtistUnicode:Thaehan
Creator:Bakugou
Version:olivia
Source:
Tags:
BeatmapID:2172226
BeatmapSetID:1039201

[Difficulty]
HPDrainRate:6
CircleSize:5
OverallDifficulty:8
ApproachRate:9.5
SliderMultiplier:2.4
SliderTickRate:1

[Events]
//Background and Video events
0,0,"kawaii bg.jpg",0,0
//Break Periods
2,51410,67862
//Storyboard Layer 0 (Background)
//Storyboard Layer 1 (Fail)
//Storyboard Layer 2 (Pass)
//Storyboard Layer 3 (Foreground)
//Storyboard Layer 4 (Overlay)
//Storyboard Sound Samples

[TimingPoints]
90,269.058295964126,4,2,1,40,1,0
16233,-133.333333333333,4,2,1,40,0,0
25919,-117.647058823529,4,2,1,40,0,0
34529,-66.6666666666667,4,1,1,75,0,1
35067,-400,4,1,1,75,0,1
35269,-400,4,2,1,5,0,1
35336,-400,4,1,1,75,0,1
35538,-400,4,2,1,5,0,1
35605,-50,4,1,1,75,0,1
35807,-50,4,2,1,5,0,1
35874,-151.515151515152,4,1,1,75,0,1
36076,-151.515151515152,4,2,1,5,0,1
36143,-100,4,1,1,75,0,1
36345,-100,4,2,1,5,0,1
36412,-50,4,1,1,75,0,1
36614,-50,4,2,1,5,0,1
36681,-100,4,1,1,75,0,1
36950,-400,4,1,1,75,0,1
37152,-400,4,2,1,5,0,1
37220,-50,4,1,1,75,0,1
37758,-80,4,1,1,75,0,1
38229,-66.6666666666667,4,2,1,5,0,1
38296,-66.6666666666667,4,1,1,75,0,1
38834,-400,4,1,1,75,0,1
38901,-400,4,2,1,5,0,1
38968,-400,4,1,1,75,0,1
39036,-400,4,2,1,5,0,1
39103,-400,4,1,1,75,0,1
39170,-400,4,2,1,5,0,1
39237,-400,4,1,1,75,0,1
39305,-400,4,2,1,5,0,1
39372,-100,4,1,1,75,0,1
39574,-100,4,2,1,5,0,1
39641,-50,4,1,1,75,0,1
39843,-50,4,2,1,5,0,1
39910,-66.6666666666667,4,1,1,75,0,1
40112,-66.6666666666667,4,2,1,5,0,1
40179,-133.333333333333,4,1,1,75,0,1
40381,-133.333333333333,4,2,1,5,0,1
40448,-100,4,1,1,75,0,1
40919,-100,4,2,1,5,0,1
40986,-66.6666666666667,4,1,1,75,0,1
41054,-66.6666666666667,4,2,1,5,0,1
41121,-66.6666666666667,4,1,1,75,0,1
41188,-66.6666666666667,4,2,1,5,0,1
41255,-66.6666666666667,4,1,1,75,0,1
41323,-66.6666666666667,4,2,1,5,0,1
41390,-66.6666666666667,4,1,1,75,0,1
41457,-66.6666666666667,4,2,1,5,0,1
41524,-66.6666666666667,4,1,1,75,0,1
41726,-66.6666666666667,4,2,1,5,0,1
41794,-66.6666666666667,4,1,1,75,0,1
41861,-66.6666666666667,4,2,1,5,0,1
41928,-66.6666666666667,4,1,1,75,0,1
41995,-66.6666666666667,4,2,1,5,0,1
42063,-200,4,1,1,75,0,1
42264,-200,4,2,1,5,0,1
42332,-200,4,1,1,75,0,1
42533,-200,4,2,1,5,0,1
42601,-100,4,1,1,75,0,1
42870,-400,4,1,1,75,0,1
43072,-400,4,2,1,5,0,1
43139,-66.6666666666667,4,1,1,75,0,1
43677,-400,4,1,1,75,0,1
43879,-400,4,2,1,5,0,1
43946,-400,4,1,1,75,0,1
44148,-400,4,2,1,5,0,1
44215,-50,4,1,1,75,0,1
44417,-50,4,2,1,5,0,1
44484,-151.515151515152,4,1,1,75,0,1
44686,-151.515151515152,4,2,1,5,0,1
44753,-100,4,1,1,75,0,1
44955,-100,4,2,1,5,0,1
45022,-50,4,1,1,75,0,1
45224,-50,4,2,1,5,0,1
45291,-100,4,1,1,75,0,1
45560,-400,4,1,1,75,0,1
45762,-400,4,2,1,5,0,1
45829,-50,4,1,1,75,0,1
46300,-50,4,2,1,5,0,1
46368,-80,4,1,1,75,0,1
46906,-100,4,1,1,75,0,1
47444,-400,4,1,1,75,0,1
47511,-400,4,2,1,5,0,1
47578,-400,4,1,1,75,0,1
47646,-400,4,2,1,5,0,1
47713,-400,4,1,1,75,0,1
47780,-400,4,2,1,5,0,1
47847,-400,4,1,1,75,0,1
47915,-400,4,2,1,5,0,1
47982,-100,4,1,1,75,0,1
48184,-100,4,2,1,5,0,1
48251,-50,4,1,1,75,0,1
48453,-50,4,2,1,5,0,1
48520,-66.6666666666667,4,1,1,75,0,1
48722,-66.6666666666667,4,2,1,5,0,1
48789,-133.333333333333,4,1,1,75,0,1
48991,-133.333333333333,4,2,1,5,0,1
49058,-100,4,1,1,75,0,1
49529,-100,4,2,1,5,0,1
49596,-1000,4,2,1,40,0,0
62511,255.31914893617,4,2,1,40,1,0
63532,250,4,2,1,40,1,0
64532,245.901639344262,4,2,1,40,1,0
65515,242.914979757085,4,2,1,40,1,0
66486,240,4,2,1,40,1,0
67446,235.294117647059,4,2,1,40,1,0
68387,235.294117647059,4,2,1,40,1,0
68387,-100,4,2,1,40,0,0
75916,-90.9090909090909,4,2,1,40,0,0
83445,-66.6666666666667,4,1,1,75,0,1
83857,-66.6666666666667,4,2,1,5,0,1
83916,-400,4,1,1,75,0,1
84092,-400,4,2,1,5,0,1
84151,-400,4,1,1,75,0,1
84328,-400,4,2,1,5,0,1
84387,-100,4,1,1,75,0,1
84504,-50,4,1,1,75,0,1
84563,-50,4,2,1,5,0,1
84622,-151.515151515152,4,1,1,75,0,1
84798,-151.515151515152,4,2,1,5,0,1
84857,-100,4,1,1,75,0,1
85034,-100,4,2,1,5,0,1
85092,-50,4,1,1,75,0,1
85269,-50,4,2,1,5,0,1
85328,-100,4,1,1,75,0,1
85563,-400,4,1,1,75,0,1
85739,-400,4,2,1,5,0,1
85798,-66.6666666666667,4,1,1,75,0,1
86210,-66.6666666666667,4,2,1,5,0,1
86269,-66.6666666666667,4,1,1,75,0,1
86681,-66.6666666666667,4,2,1,5,0,1
86739,-100,4,1,1,75,0,1
87210,-400,4,1,1,75,0,1
87269,-400,4,2,1,5,0,1
87328,-400,4,1,1,75,0,1
87387,-400,4,2,1,5,0,1
87445,-400,4,1,1,75,0,1
87504,-400,4,2,1,5,0,1
87563,-400,4,1,1,75,0,1
87622,-400,4,2,1,5,0,1
87681,-100,4,1,1,75,0,1
87857,-100,4,2,1,5,0,1
87916,-50,4,1,1,75,0,1
88092,-50,4,2,1,5,0,1
88151,-66.6666666666667,4,1,1,75,0,1
88328,-66.6666666666667,4,2,1,5,0,1
88387,-133.333333333333,4,1,1,75,0,1
88563,-133.333333333333,4,2,1,5,0,1
88622,-66.6666666666667,4,1,1,75,0,1
89034,-66.6666666666667,4,2,1,5,0,1
89092,-100,4,1,1,75,0,1
89210,-66.6666666666667,4,1,1,75,0,1
89269,-66.6666666666667,4,2,1,5,0,1
89328,-66.6666666666667,4,1,1,75,0,1
89387,-66.6666666666667,4,2,1,5,0,1
89445,-66.6666666666667,4,1,1,75,0,1
89504,-66.6666666666667,4,2,1,5,0,1
89563,-66.6666666666667,4,1,1,75,0,1
89739,-66.6666666666667,4,2,1,5,0,1
89798,-66.6666666666667,4,1,1,75,0,1
89857,-66.6666666666667,4,2,1,5,0,1
89916,-66.6666666666667,4,1,1,75,0,1
89975,-66.6666666666667,4,2,1,5,0,1
90034,-400,4,1,1,75,0,1
90210,-400,4,2,1,5,0,1
90269,-400,4,1,1,75,0,1
90445,-400,4,2,1,5,0,1
90504,-100,4,1,1,75,0,1
90739,-400,4,1,1,75,0,1
90916,-400,4,2,1,5,0,1
90975,-66.6666666666667,4,1,1,75,0,1
91387,-66.6666666666667,4,2,1,5,0,1
91445,-400,4,1,1,75,0,1
91622,-400,4,2,1,5,0,1
91681,-400,4,1,1,75,0,1
91857,-400,4,2,1,5,0,1
91916,-100,4,1,1,75,0,1
92034,-50,4,1,1,75,0,1
92092,-50,4,2,1,5,0,1
92151,-151.515151515152,4,1,1,75,0,1
92328,-151.515151515152,4,2,1,5,0,1
92387,-100,4,1,1,75,0,1
92563,-100,4,2,1,5,0,1
92622,-50,4,1,1,75,0,1
92798,-50,4,2,1,5,0,1
92857,-100,4,1,1,75,0,1
93092,-400,4,1,1,75,0,1
93269,-400,4,2,1,5,0,1
93328,-66.6666666666667,4,1,1,75,0,1
93739,-66.6666666666667,4,2,1,5,0,1
93798,-66.6666666666667,4,1,1,75,0,1
94210,-66.6666666666667,4,2,1,5,0,1
94269,-100,4,1,1,75,0,1
94739,-400,4,1,1,75,0,1
94798,-400,4,2,1,5,0,1
94857,-400,4,1,1,75,0,1
94916,-400,4,2,1,5,0,1
94975,-400,4,1,1,75,0,1
95034,-400,4,2,1,5,0,1
95092,-400,4,1,1,75,0,1
95151,-400,4,2,1,5,0,1
95210,-100,4,1,1,75,0,1
95387,-100,4,2,1,5,0,1
95445,-50,4,1,1,75,0,1
95622,-50,4,2,1,5,0,1
95681,-66.6666666666667,4,1,1,75,0,1
95857,-66.6666666666667,4,2,1,5,0,1
95916,-133.333333333333,4,1,1,75,0,1
96092,-133.333333333333,4,2,1,5,0,1
96151,-66.6666666666667,4,1,1,75,0,1
96563,-66.6666666666667,4,2,1,5,0,1
96622,-100,4,1,1,75,0,1
100387,-100,4,1,1,75,0,0

[Colours]
Combo1 : 189,170,204
Combo2 : 209,187,227
Combo3 : 177,205,214
Combo4 : 87,165,179

[HitObjects]
151,80,16233,6,0,L|134:217,1,120.000004577637
226,274,16502,2,0,L|243:137,1,120.000004577637
133,70,16771,5,0,0:0:0:0:
125,129,16860,1,0,0:0:0:0:
118,189,16950,1,0,0:0:0:0:
111,249,17040,1,0,0:0:0:0:
118,269,17220,1,0,0:0:0:0:
125,289,17309,6,0,B|185:296|185:296|241:268|241:268|323:279,1,180.000006866455
421,365,17758,5,0,0:0:0:0:
382,319,17847,2,0,L|410:181,1,120.000004577637
391,92,18116,2,0,L|363:230,1,120.000004577637
262,377,18385,6,0,B|264:344|281:329|281:329|270:322|270:322|291:300|302:258,1,120.000004577637
145,141,18655,6,0,B|230:170|230:170|276:161,1,120.000004577637
337,76,18924,2,0,B|269:135|269:135|254:179,1,120.000004577637
296,275,19193,2,0,B|278:186|278:186|247:151,1,120.000004577637
126,338,19462,6,0,B|143:269|143:269|195:224|195:224|177:293,1,180.000006866455
296,275,19910,5,0,0:0:0:0:
334,227,20000,2,0,B|392:210|392:210|458:247,1,120.000004577637
512,323,20269,2,0,B|454:340|454:340|388:303,1,120.000004577637
457,142,20538,6,0,B|472:174|472:174|431:216|431:216|453:258,1,120.000004577637
298,85,20807,5,0,0:0:0:0:
357,81,20896,1,0,0:0:0:0:
417,77,20986,1,0,0:0:0:0:
352,183,21076,5,0,0:0:0:0:
304,74,21166,1,0,0:0:0:0:
422,87,21255,1,0,0:0:0:0:
340,181,21345,6,0,L|333:219,4,30.0000011444092
352,183,21614,6,0,L|316:377,1,180.000006866455
199,308,22063,5,0,0:0:0:0:
169,256,22152,2,0,B|160:213|160:213|171:179|171:179|162:122,1,120.000004577637
90,30,22421,2,0,B|99:73|99:73|88:107|88:107|97:164,1,120.000004577637
150,254,22690,6,0,B|116:259|102:249|102:249|83:254|77:271|77:271|53:263|24:273,1,120.000004577637
212,322,22959,6,0,B|273:312|273:312|324:256,1,120.000004577637
329,210,23229,1,0,0:0:0:0:
94,146,23408,5,0,0:0:0:0:
143,180,23498,2,0,L|287:175,1,120.000004577637
493,221,23767,6,0,B|436:237|436:237|377:214|377:214|299:232,1,180.000006866455
207,333,24215,5,0,0:0:0:0:
253,295,24305,2,0,L|263:170,1,120.000004577637
243,118,24574,2,0,L|233:243,1,120.000004577637
253,295,24843,5,0,0:0:0:0:
347,141,25112,5,0,0:0:0:0:
167,136,25381,5,0,0:0:0:0:
122,175,25470,1,0,0:0:0:0:
97,229,25560,1,0,0:0:0:0:
94,289,25650,6,0,L|97:330,5,30.0000011444092
109,350,25919,6,0,B|154:336|154:336|184:345|184:345|207:299|207:299|249:310|249:310|308:290,1,204.000003890991
409,338,26368,5,0,0:0:0:0:
356,296,26457,2,0,B|308:203|308:203|368:222,1,136.000002593994
435,169,26726,2,0,B|483:76|483:76|423:95,1,136.000002593994
387,105,26995,6,0,B|368:130|368:130|354:112|320:108|320:108|298:123|262:121,1,136.000002593994
195,219,27264,6,0,B|257:184|257:184|275:108,1,136.000002593994
225,5,27533,2,0,B|224:76|224:76|281:129,1,136.000002593994
395,138,27803,2,0,B|333:101|333:101|258:124,1,136.000002593994
186,242,28072,6,0,B|333:266|333:266|412:240,1,204.000003890991
432,81,28520,5,0,0:0:0:0:
395,138,28610,2,0,L|409:283,1,136.000002593994
371,330,28879,1,0,0:0:0:0:
307,178,29148,6,0,B|287:147|277:117|277:117|282:147|271:208,1,136.000002593994
215,340,29417,5,0,0:0:0:0:
250,281,29507,1,0,0:0:0:0:
216,221,29596,1,0,0:0:0:0:
113,291,29686,5,0,0:0:0:0:
224,333,29776,1,0,0:0:0:0:
205,215,29865,1,0,0:0:0:0:
115,302,29955,6,0,L|124:341,5,34.0000006484985
113,291,30224,6,0,B|117:218|117:218|163:169|163:169|166:74,1,204.000003890991
216,60,30672,5,0,0:0:0:0:
267,15,30762,2,0,B|338:6|338:6|388:46,1,136.000002593994
286,136,31031,2,0,B|215:145|215:145|165:105,1,136.000002593994
118,10,31300,6,0,B|117:34|130:54|130:54|105:68|93:95|116:81|106:114|80:132,1,136.000002593994
46,197,31569,6,0,L|200:211,1,136.000002593994
241,240,31838,1,0,0:0:0:0:
321,306,32018,5,0,0:0:0:0:
381,275,32108,1,0,0:0:0:0:
336,86,33453,5,0,0:0:0:0:
336,86,33722,1,0,0:0:0:0:
336,86,33991,1,0,0:0:0:0:
274,61,34080,1,0,0:0:0:0:
212,85,34170,1,0,0:0:0:0:
182,144,34260,6,0,L|181:191,5,34.0000006484985
143,226,34529,6,0,B|98:262|27:267|27:267|160:269|245:306|245:306|378:305|436:231,1,540.000020599366
455,128,35067,6,0,L|460:183,1,45
413,175,35336,2,0,L|409:131,1,45
374,81,35605,5,0,0:0:0:0:
269,53,35740,6,0,P|218:56|156:106,1,120
78,112,35874,2,0,P|55:157|67:236,1,120
122,276,36143,6,0,L|305:261,1,180
480,305,36412,6,0,L|104:274,1,360
302,141,36681,5,0,0:0:0:0:
406,202,36771,1,0,0:0:0:0:
301,261,36861,1,0,0:0:0:0:
312,135,36950,6,0,L|360:129,1,45
477,108,37220,6,0,B|275:91|275:91|268:89|268:89|98:74|98:74|94:74|94:74|99:75|99:75|95:74|95:74|99:74|99:74|95:74|95:74|99:75|99:75|94:74|94:74|99:75|99:75|95:74|95:74|99:75|99:75|93:74|93:74|98:75|98:75|94:74|94:74|99:75|99:75|94:74|94:74|99:75|99:75|94:74|94:74|99:75|99:75|94:74|94:74|69:89,1,480
172,274,37758,6,0,B|156:352|110:377|110:377|49:303|71:206|71:206|167:124|138:1,1,525
270,118,38296,5,0,0:0:0:0:
349,160,38385,1,0,0:0:0:0:
273,206,38475,1,0,0:0:0:0:
277,113,38565,5,0,0:0:0:0:
348,168,38654,1,0,0:0:0:0:
265,202,38744,1,0,0:0:0:0:
286,111,38834,6,0,L|292:87,1,15
357,66,38968,2,0,L|351:90,1,15
286,111,39103,2,0,L|292:87,1,15
357,66,39237,2,0,L|351:90,1,15
333,271,39372,6,0,L|280:61,1,180
334,377,39641,6,0,L|246:27,1,360
31,118,39910,6,0,B|120:126|120:126|191:85|191:85|297:97,1,270.000010299683
265,202,40179,6,0,B|220:206|220:206|184:185|184:185|131:191,1,135.000005149841
89,370,40448,6,0,B|137:303|137:303|108:226|108:226|133:188|133:188|134:130|134:130|136:125|136:125|134:129|134:129|136:125|136:125|134:129|134:129|135:124|135:124|134:129|134:129|135:125|135:125|133:130|133:130|136:125|136:125|134:130|134:130|135:125|135:125|133:130|133:130|135:126|135:126|134:131|134:131|135:125|135:125|134:131|134:131|135:126|135:126|133:130|133:130|135:125|135:125|134:130|134:130|135:126|135:126|134:130|134:130|135:125|135:125|134:131|134:131|135:125|135:125|134:131|134:131|135:126|135:126|134:131|134:131|135:125|135:125|134:130|134:130|135:126|135:126|134:130|134:130|135:126|135:126|134:130|134:130|135:125|135:125|134:130|134:130|135:125|135:125|134:130|134:130|135:125|135:125|134:130,1,420
184,50,40986,6,0,P|234:31|298:41,1,90.0000034332277
320,123,41121,2,0,P|361:156|384:217,1,90.0000034332277
329,275,41255,2,0,P|320:327|279:378,1,90.0000034332277
201,358,41390,2,0,P|151:377|87:366,1,90.0000034332277
65,300,41524,5,0,0:0:0:0:
180,43,41659,6,0,P|232:23|299:34,1,90.0000034332277
322,119,41794,2,0,P|365:154|390:217,1,90.0000034332277
332,278,41928,2,0,P|323:333|280:385,1,90.0000034332277
198,364,42063,6,0,P|146:384|79:374,1,90.0000034332277
170,273,42332,6,0,P|222:253|289:263,1,90.0000034332277
385,338,42601,5,0,0:0:0:0:
332,278,42690,1,0,0:0:0:0:
256,254,42780,1,0,0:0:0:0:
170,273,42870,6,0,L|175:329,1,45
106,365,43139,6,0,B|103:235|3:201|3:201|87:143|91:17|91:17|91:83|150:144,1,540.000020599366
260,209,43677,6,0,L|255:264,1,45
302,256,43946,2,0,L|306:212,1,45
341,162,44215,5,0,0:0:0:0:
475,67,44350,6,0,B|420:43|420:43|338:55,1,120
347,180,44484,6,0,B|402:204|402:204|484:192,1,120
246,33,44753,6,0,P|264:118|340:161,1,180
142,9,45022,6,0,P|178:179|330:266,1,360
443,224,45291,5,0,0:0:0:0:
330,266,45381,1,0,0:0:0:0:
422,342,45471,1,0,0:0:0:0:
433,217,45560,6,0,L|438:172,1,45
473,91,45829,6,0,B|252:64|252:64|243:58|243:58|8:35|8:35|18:38|18:38|8:35|8:35|18:39|18:39|8:35|8:35|17:39|17:39|11:36|11:36|17:38|17:38|7:35|7:35|17:39|17:39|8:35|8:35|18:38|18:38|9:35|9:35|17:38|17:38|8:35|8:35|18:38|18:38|18:39|18:39|8:35|8:35|9:35|9:35|17:38|17:38|8:35|8:35|17:38|17:38|8:35|8:35|18:39|18:39|8:35|8:35|19:38|19:38|7:35|7:35|18:38|18:38|9:35|9:35|18:38|18:38|8:35|8:35|18:38|18:38|9:35|9:35|18:38|18:38|9:35|9:35|18:38|18:38|9:35|9:35|17:38|17:38|9:35|9:35|17:38|17:38|9:35|9:35|17:38,1,840
24,122,46368,6,0,B|31:239|92:355|92:355|124:283|125:212|125:212|119:259|101:294,1,450
211,311,46906,5,0,0:0:0:0:
240,195,46995,1,0,0:0:0:0:
126,228,47085,1,0,0:0:0:0:
222,306,47175,5,0,0:0:0:0:
230,187,47264,1,0,0:0:0:0:
124,239,47354,1,0,0:0:0:0:
232,300,47444,6,0,L|237:284,1,15
319,268,47578,2,0,L|315:283,1,15
232,300,47713,2,0,L|237:284,1,15
319,268,47847,2,0,L|315:283,1,15
284,359,47982,6,0,L|223:164,1,180
283,15,48251,6,0,L|151:436,1,360
3,142,48520,6,0,P|91:93|285:119,1,270.000010299683
445,287,48789,6,0,P|400:262|304:275,1,135.000005149841
225,362,49058,6,0,B|169:333|169:333|167:256|167:256|260:175|260:175|254:102|254:102|167:44,1,420
82,101,49596,6,0,L|37:116,3,48
159,157,68387,6,0,B|248:138|248:138|305:165|305:165|418:141,1,240
213,367,68779,5,0,0:0:0:0:
142,331,68857,2,0,B|121:254|121:254|150:168,1,160
255,89,69092,2,0,B|276:166|276:166|247:252,1,160
223,353,69328,6,0,B|252:301|249:245|249:245|259:296|320:311,1,160
439,381,69563,6,0,L|365:235,1,160
454,104,69798,2,0,L|364:241,1,160
206,229,70034,2,0,L|369:237,1,160
255,89,70269,6,0,L|2:102,1,240
103,377,70661,5,0,0:0:0:0:
177,347,70739,2,0,B|227:220|227:220|178:239,1,160
129,260,70975,1,0,0:0:0:0:
233,379,71210,6,0,L|301:206,1,160
366,201,71445,2,0,P|405:223|453:225,2,80
324,130,71681,1,0,0:0:0:0:
258,171,71759,1,0,0:0:0:0:
182,154,71837,1,0,0:0:0:0:
140,89,71916,6,0,L|125:46,5,40
91,33,72151,6,0,B|121:129|121:129|116:236|116:236|93:199,1,240
104,317,72543,5,0,0:0:0:0:
173,357,72622,2,0,L|390:368,1,160
465,273,72857,2,0,L|248:284,1,160
209,173,73092,6,0,B|216:211|262:229|262:229|256:242|256:242|295:251|312:296,1,160
428,112,73328,6,0,L|247:119,1,160
209,173,73563,1,0,0:0:0:0:
130,326,73720,5,0,0:0:0:0:
179,263,73798,2,0,B|210:170|210:170|181:81,1,160
36,39,74034,6,0,B|116:58|116:58|186:28|186:28|289:52,1,240
324,126,74426,5,0,0:0:0:0:
374,187,74504,2,0,B|377:238|377:238|349:281|349:281|353:346,1,160
428,312,74739,1,0,0:0:0:0:
406,72,74975,5,0,0:0:0:0:
284,381,75210,5,0,0:0:0:0:
77,122,75445,5,0,0:0:0:0:
124,184,75523,1,0,0:0:0:0:
116,261,75601,1,0,0:0:0:0:
57,313,75681,6,0,L|7:324,5,40
60,333,75916,6,0,B|115:324|115:324|149:295|149:295|189:330|189:330|226:301|226:301|302:289,1,264.000008056641
454,349,76308,5,0,0:0:0:0:
385,292,76387,2,0,B|359:205|359:205|380:104,1,176.000005371094
281,0,76622,2,0,B|307:87|307:87|289:170,1,176.000005371094
208,212,76857,6,0,B|188:192|168:189|168:189|207:173|259:189|259:189|287:165|322:161,1,176.000005371094
247,380,77092,6,0,B|240:314|240:314|217:278|217:278|205:194,1,176.000005371094
333,93,77328,2,0,B|279:132|279:132|259:169|259:169|192:222,1,176.000005371094
41,161,77563,2,0,B|101:187|101:187|144:186|144:186|223:217,1,176.000005371094
385,292,77798,6,0,B|294:285|294:285|223:318|223:318|87:303,1,264.000008056641
443,340,78190,5,0,0:0:0:0:
482,260,78269,2,0,L|459:85,1,176.000005371094
383,39,78504,1,0,0:0:0:0:
122,196,78739,6,0,B|221:206|221:206|287:148,1,176.000005371094
300,68,78975,2,0,P|268:44|196:34,2,88.000002685547
348,141,79210,1,0,0:0:0:0:
359,226,79288,1,0,0:0:0:0:
310,296,79366,1,0,0:0:0:0:
226,315,79445,6,0,L|166:324,5,44.0000013427735
142,342,79681,6,0,L|167:53,1,264.000008056641
422,160,80073,5,0,0:0:0:0:
362,224,80151,2,0,B|300:231|300:231|264:267|264:267|172:284,1,176.000005371094
142,342,80387,1,0,0:0:0:0:
0,120,80543,6,0,B|54:130|54:130|100:113|100:113|131:171|131:171|184:149|184:149|262:156,1,264.000008056641
362,224,80857,6,0,B|376:306|376:306|319:379,1,176.000005371094
231,368,81092,1,0,0:0:0:0:
120,173,81249,5,0,0:0:0:0:
186,233,81328,2,0,L|361:223,1,176.000005371094
127,82,82504,5,0,0:0:0:0:
415,135,82739,5,0,0:0:0:0:
225,358,82975,5,0,0:0:0:0:
141,372,83053,1,0,0:0:0:0:
85,309,83131,1,0,0:0:0:0:
106,228,83210,6,0,L|96:175,5,44.0000013427735
95,125,83445,6,0,B|83:79|12:59|12:59|109:48|202:79|225:145|225:145|301:174|428:175|479:69,1,630.000024032594
481,75,83916,6,0,L|476:127,1,45
440,246,84151,2,0,L|435:201,1,45
468,149,84387,5,0,0:0:0:0:
436,267,84504,6,0,P|378:308|287:298,1,120
224,335,84622,2,0,P|159:305|122:221,1,120
81,105,84857,6,0,L|271:140,1,180
435,39,85092,6,0,L|55:109,1,360
132,266,85328,5,0,0:0:0:0:
203,297,85406,1,0,0:0:0:0:
276,270,85484,1,0,0:0:0:0:
311,201,85563,6,0,L|304:155,1,45
220,74,85798,6,0,B|283:130|368:166|443:178|475:136|459:92|411:68|411:68|403:68|403:68|411:68|411:68|404:68|404:68|411:68|411:68|404:68|404:68|411:68|411:68|403:69|403:69|411:68|411:68|403:68|403:68|411:68|411:68|403:68|403:68|412:69|412:69|404:68|404:68|412:68|412:68|404:68|404:68|411:69|411:69|403:69|403:69|412:69|412:69|403:69|403:69|409:68|409:68|404:69|404:69|412:68|412:68|403:68|403:68|412:68|412:68|405:68|405:68|411:69|411:69|406:68|406:68|411:68|411:68|406:69|406:69|411:68|411:68|404:68|404:68|412:69|412:69|404:68|404:68|405:68|405:68|412:69|412:69|412:68|412:68|405:68|405:68|412:69|412:69|405:69|405:69|412:69|412:69|405:68|405:68|412:68|412:68|404:68|404:68|412:69|412:69|405:68|405:68|412:69|412:69|412:69|412:69|405:68|405:68|412:69|412:69,1,630.000024032594
380,71,86269,6,0,B|348:132|388:204|388:204|429:234|446:320|446:320|399:237|311:202|311:202|221:232|131:181,1,630.000024032594
89,156,86739,5,0,0:0:0:0:
87,276,86818,1,0,0:0:0:0:
192,218,86896,1,0,0:0:0:0:
78,162,86975,5,0,0:0:0:0:
97,281,87054,1,0,0:0:0:0:
191,205,87132,1,0,0:0:0:0:
70,171,87210,6,0,L|67:195,1,15
99,296,87328,2,0,L|96:272,1,15
70,171,87445,2,0,L|67:195,1,15
99,296,87563,2,0,L|96:272,1,15
70,171,87681,6,0,L|279:194,1,180
427,131,87916,6,0,L|36:174,1,360
99,296,88151,6,0,L|379:326,1,270.000010299683
473,217,88387,6,0,L|332:232,1,135.000005149841
99,296,88622,6,0,B|260:277|260:277|268:279|268:279|484:257|484:257|499:258|499:258|485:258|485:258|500:258|500:258|486:257|486:257|499:257|499:257|486:257|486:257|500:258|500:258|485:257|485:257|499:257|499:257|488:258|488:258|499:258|499:258|488:257|488:257|499:258|499:258|487:257|487:257|499:258|499:258|488:257|488:257|499:258|499:258|488:257|488:257|498:258|498:258|488:257|488:257|499:258|499:258|487:257|487:257|499:258|499:258|488:257,1,630.000024032594
500,276,89092,5,0,0:0:0:0:
296,330,89210,6,0,B|245:315|245:315|189:264,1,90.0000034332277
116,286,89328,2,0,B|103:234|103:234|119:160,1,90.0000034332277
64,108,89445,2,0,B|102:71|102:71|174:48,1,90.0000034332277
225,87,89563,5,0,0:0:0:0:
296,330,89681,6,0,B|245:315|245:315|189:264,1,90.0000034332277
116,286,89799,2,0,B|103:234|103:234|119:160,1,90.0000034332277
64,108,89916,2,0,B|102:71|102:71|174:48,1,90.0000034332277
225,87,90034,6,0,L|275:92,1,45
234,170,90269,6,0,L|278:165,1,45
327,130,90504,5,0,0:0:0:0:
310,206,90582,1,0,0:0:0:0:
351,273,90660,1,0,0:0:0:0:
426,293,90739,6,0,L|485:291,1,45
484,308,90975,6,0,B|405:334|289:317|289:317|205:376|74:359|51:280|51:280|109:252|173:252|230:275,1,630.000024032594
215,277,91445,6,0,L|213:226,1,45
258,230,91681,2,0,L|259:274,1,45
298,320,91916,5,0,0:0:0:0:
419,234,92034,6,0,L|331:141,1,120
243,63,92151,2,0,L|118:92,1,120
82,188,92387,6,0,L|312:242,1,180
432,104,92622,6,0,L|-28:213,1,360
46,301,92857,5,0,0:0:0:0:
163,274,92936,1,0,0:0:0:0:
81,187,93014,1,0,0:0:0:0:
54,309,93092,6,0,L|104:318,1,45
50,325,93328,6,0,B|363:380|363:380|352:377|352:377|363:381|363:381|351:378|351:378|362:381|362:381|352:379|352:379|365:381|365:381|352:378|352:378|361:381|361:381|350:378|350:378|364:381|364:381|352:379|352:379|363:381|363:381|350:378|350:378|363:381|363:381|350:377|350:377|363:381|363:381|351:378|351:378|362:381|362:381|350:378|350:378|363:381|363:381|350:379|350:379|364:382|364:382|352:378|352:378|360:381|360:381|351:378|351:378|363:381|363:381|351:378|351:378|363:382|363:382|352:379|352:379|364:381|364:381|351:379,1,630.000024032594
397,298,93798,6,0,B|377:306|408:375|408:375|371:311|310:303|310:303|338:246|335:199|293:154|293:154|363:140|388:91|378:33|378:33|340:60|352:119,1,630.000024032594
374,171,94269,5,0,0:0:0:0:
311,123,94347,1,0,0:0:0:0:
232,115,94425,1,0,0:0:0:0:
160,152,94504,6,0,L|142:257,2,80
232,115,94739,6,0,L|231:92,1,15
160,56,94857,2,0,L|158:70,1,15
232,115,94975,2,0,L|231:92,1,15
160,56,95093,2,0,L|158:70,1,15
185,234,95210,6,0,L|156:36,1,180
112,384,95445,6,0,L|163:20,1,360
427,245,95681,6,0,P|356:284|173:219,1,270.000010299683
0,123,95916,6,0,P|35:103|127:136,1,135.000005149841
184,233,96151,6,0,B|175:301|247:364|247:364|278:332|283:258|266:193|266:193|213:166|198:88|242:27|242:27|243:27|243:27|249:26|249:26|242:28|242:28|249:25|249:25|242:28|242:28|248:26|248:26|241:28|241:28|247:26|247:26|242:29|242:29|249:26|249:26|241:28|241:28|241:28|241:28|249:25|249:25|248:25|248:25|242:28|242:28|242:28|242:28|248:26|248:26|243:28|243:28|249:26|249:26|243:28,1,630.000024032594
359,63,96622,5,0,0:0:0:0:
400,106,96700,1,0,0:0:0:0:
342,120,96779,1,0,0:0:0:0:
364,62,96857,5,0,0:0:0:0:
397,111,96935,1,0,0:0:0:0:
338,115,97014,1,0,0:0:0:0:
371,53,97092,5,0,0:0:0:0:
401,121,97170,1,0,0:0:0:0:
327,113,97249,1,0,0:0:0:0:
379,55,97328,5,0,0:0:0:0:
396,127,97406,1,0,0:0:0:0:
325,106,97485,1,0,0:0:0:0:
390,48,97563,5,0,0:0:0:0:
396,141,97641,1,0,0:0:0:0:
313,99,97720,1,0,0:0:0:0:
398,53,97798,5,0,0:0:0:0:
388,145,97876,1,0,0:0:0:0:
313,90,97955,1,0,0:0:0:0:
415,50,98034,5,0,0:0:0:0:
382,161,98112,1,0,0:0:0:0:
302,77,98191,1,0,0:0:0:0:
422,59,98269,5,0,0:0:0:0:
371,163,98347,1,0,0:0:0:0:
306,66,98426,1,0,0:0:0:0:
429,68,98504,5,0,0:0:0:0:
472,134,98582,1,0,0:0:0:0:
474,213,98660,1,0,0:0:0:0:
435,281,98739,1,0,0:0:0:0:
366,319,98817,1,0,0:0:0:0:
287,315,98896,1,0,0:0:0:0:
222,271,98975,5,0,0:0:0:0:
286,225,99053,1,0,0:0:0:0:
311,151,99131,1,0,0:0:0:0:
288,75,99210,1,0,0:0:0:0:
226,27,99288,1,0,0:0:0:0:
147,25,99367,1,0,0:0:0:0:
82,69,99445,5,0,0:0:0:0:
38,134,99523,1,0,0:0:0:0:
33,213,99601,1,0,0:0:0:0:
70,283,99680,1,0,0:0:0:0:
138,324,99758,1,0,0:0:0:0:
217,323,99837,1,0,0:0:0:0:
285,282,99915,5,0,0:0:0:0:
322,212,99994,1,0,0:0:0:0:
317,134,100072,1,0,0:0:0:0:
257,80,100151,1,0,0:0:0:0:
402,271,100387,5,0,0:0:0:0:
