osu file format v14

[General]
AudioFilename: audio.mp3
AudioLeadIn: 0
PreviewTime: 60359
Countdown: 0
SampleSet: Soft
StackLeniency: 0.7
Mode: 1
LetterboxInBreaks: 0
WidescreenStoryboard: 0

[Editor]
Bookmarks: 8699,17309,25919,34529,51749,83445
DistanceSpacing: 0.8
BeatDivisor: 3
GridSize: 16
TimelineZoom: 2.4

[Metadata]
Title:Kawaii
TitleUnicode:Kawaii
Artist:Thaehan
ArtistUnicode:Thaehan
Creator:-Rmdy
Version:Inner Oni
Source:
Tags:
BeatmapID:1647627
BeatmapSetID:784833

[Difficulty]
HPDrainRate:4
CircleSize:2
OverallDifficulty:6
ApproachRate:5
SliderMultiplier:1.39614556848366
SliderTickRate:1

[Events]
//Background and Video events
0,0,"osu! Spring Fanart 2018 - YaoiForeva.jpg",0,0
//Break Periods
//Storyboard Layer 0 (Background)
//Storyboard Layer 1 (Fail)
//Storyboard Layer 2 (Pass)
//Storyboard Layer 3 (Foreground)
//Storyboard Sound Samples

[TimingPoints]
90,269.058295964126,4,2,0,60,1,0
90,-166.666666666667,4,2,0,60,0,0
8161,-163.934426229508,4,2,0,60,0,0
8229,-161.290322580645,4,2,0,60,0,0
8296,-158.730158730159,4,2,0,60,0,0
8363,-156.25,4,2,0,60,0,0
8430,-153.846153846154,4,2,0,60,0,0
8699,-142.857142857143,4,2,0,60,0,0
15157,-138.888888888889,4,2,0,60,0,0
15426,-135.135135135135,4,2,0,60,0,0
15628,-131.578947368421,4,2,0,60,0,0
15897,-128.205128205128,4,2,0,60,0,0
16233,-125,4,2,0,60,0,0
24843,-121.951219512195,4,2,0,60,0,0
25112,-119.047619047619,4,2,0,60,0,0
25381,-116.279069767442,4,2,0,60,0,0
25650,-113.636363636364,4,2,0,60,0,0
25919,-111.111111111111,4,2,0,60,0,0
32376,-156.25,4,2,0,60,0,0
33991,-147.058823529412,4,2,0,60,0,0
34058,-138.888888888889,4,2,0,60,0,0
34125,-131.578947368421,4,2,0,60,0,0
34193,-125,4,2,0,60,0,0
34260,-119.047619047619,4,2,0,60,0,0
34327,-113.636363636364,4,2,0,60,0,0
34394,-108.695652173913,4,2,0,60,0,0
34462,-104.166666666667,4,2,0,60,0,0
34529,-100,4,2,0,60,0,0
49596,-105.263157894737,4,2,0,60,0,0
49731,-106.382978723404,4,2,0,60,0,0
49865,-107.52688172043,4,2,0,60,0,0
50000,-108.695652173913,4,2,0,60,0,0
50134,-111.111111111111,4,2,0,60,0,0
50269,-112.359550561798,4,2,0,60,0,0
50403,-113.636363636364,4,2,0,60,0,0
50538,-114.942528735632,4,2,0,60,0,0
50672,-117.647058823529,4,2,0,60,0,0
50807,-119.047619047619,4,2,0,60,0,0
50942,-120.481927710843,4,2,0,60,0,0
51076,-121.951219512195,4,2,0,60,0,0
51211,-125,4,2,0,60,0,0
51278,-131.578947368421,4,2,0,60,0,0
51345,-138.888888888889,4,2,0,60,0,0
51412,-147.058823529412,4,2,0,60,0,0
51480,-156.25,4,2,0,60,0,0
51749,-166.666666666667,4,2,0,60,0,0
59820,-163.934426229508,4,2,0,60,0,0
59888,-161.290322580645,4,2,0,60,0,0
59955,-158.730158730159,4,2,0,60,0,0
60022,-156.25,4,2,0,60,0,0
60090,-153.846153846154,4,2,0,60,0,0
60359,-142.857142857143,4,2,0,60,0,0
62511,255.31914893617,4,2,0,60,1,0
62511,-151.515151515152,4,2,0,60,0,0
63532,250,4,2,0,60,1,0
63532,-153.846153846154,4,2,0,60,0,0
64532,245.901639344262,4,2,0,60,1,0
64532,-156.25,4,2,0,60,0,0
65515,242.914979757085,4,2,0,60,1,0
65515,-156.25,4,2,0,60,0,0
65757,-153.846153846154,4,2,0,60,0,0
65940,-151.515151515152,4,2,0,60,0,0
66183,-149.253731343284,4,2,0,60,0,0
66486,240,4,2,0,60,1,0
66486,-149.253731343284,4,2,0,60,0,0
66726,-147.058823529412,4,2,0,60,0,0
66906,-144.927536231884,4,2,0,60,0,0
67146,-142.857142857143,4,2,0,60,0,0
67446,235.294117647059,4,2,0,60,1,0
67446,-144.927536231884,4,2,0,60,0,0
67681,-142.857142857143,4,2,0,60,0,0
68387,235.294117647059,4,2,0,60,1,0
68387,-142.857142857143,4,2,0,60,0,0
74975,-138.888888888889,4,2,0,60,0,0
75210,-135.135135135135,4,2,0,60,0,0
75445,-131.578947368421,4,2,0,60,0,0
75681,-128.205128205128,4,2,0,60,0,0
75916,-125,4,2,0,60,0,0
81563,-156.25,4,2,0,60,0,0
82975,-147.058823529412,4,2,0,60,0,0
83034,-138.888888888889,4,2,0,60,0,0
83092,-131.578947368421,4,2,0,60,0,0
83151,-125,4,2,0,60,0,0
83210,-119.047619047619,4,2,0,60,0,0
83269,-113.636363636364,4,2,0,60,0,0
83328,-108.695652173913,4,2,0,60,0,0
83387,-104.166666666667,4,2,0,60,0,0
83445,-100,4,2,0,60,0,0
96700,-97.0873786407767,4,2,0,60,0,0
96779,-94.3396226415094,4,2,0,60,0,0
96857,-91.743119266055,4,2,0,60,0,0
96936,-94.3396226415094,4,2,0,60,0,0
97014,-97.0873786407767,4,2,0,60,0,0
97092,-100,4,2,0,60,0,0
97171,-97.0873786407767,4,2,0,60,0,0
97249,-100,4,2,0,60,0,0
97328,-97.0873786407767,4,2,0,60,0,0
97406,-94.3396226415094,4,2,0,60,0,0
97485,-97.0873786407767,4,2,0,60,0,0
97563,-100,4,2,0,60,0,0
97641,-103.092783505155,4,2,0,60,0,0
97720,-100,4,2,0,60,0,0
97798,-97.0873786407767,4,2,0,60,0,0
97877,-100,4,2,0,60,0,0
97955,-103.092783505155,4,2,0,60,0,0
98034,-106.382978723404,4,2,0,60,0,0
98112,-103.092783505155,4,2,0,60,0,0
98190,-100,4,2,0,60,0,0
98269,-97.0873786407767,4,2,0,60,0,0
98347,-100,4,2,0,60,0,0
98426,-97.0873786407767,4,2,0,60,0,0
98504,-100,4,2,0,60,0,0
98583,-102.040816326531,4,2,0,60,0,0
98661,-98.0392156862745,4,2,0,60,0,0
98739,-94.3396226415094,4,2,0,60,0,0
98818,-96.1538461538461,4,2,0,60,0,0
98896,-98.0392156862745,4,2,0,60,0,0
98975,-94.3396226415094,4,2,0,60,0,0
99053,-90.9090909090909,4,2,0,60,0,0
99132,-92.5925925925926,4,2,0,60,0,0
99210,-94.3396226415094,4,2,0,60,0,0
99288,-90.9090909090909,4,2,0,60,0,0
99367,-92.5925925925926,4,2,0,60,0,0
99445,-89.2857142857143,4,2,0,60,0,0
99524,-90.9090909090909,4,2,0,60,0,0
99602,-92.5925925925926,4,2,0,60,0,0
99681,-94.3396226415094,4,2,0,60,0,0
99759,-90.9090909090909,4,2,0,60,0,0
99837,-86.9565217391304,4,2,0,60,0,0
99916,-83.3333333333333,4,2,0,60,0,0
100387,-33.3333333333333,4,2,0,60,0,0

[HitObjects]
256,192,90,5,0,0:0:0:0:
256,192,359,1,8,0:0:0:0:
256,192,560,1,8,0:0:0:0:
256,192,628,1,0,0:0:0:0:
256,192,829,1,0,0:0:0:0:
256,192,897,1,8,0:0:0:0:
256,192,1098,1,0,0:0:0:0:
256,192,1166,1,0,0:0:0:0:
256,192,1435,1,8,0:0:0:0:
256,192,1704,1,0,0:0:0:0:
256,192,1973,1,8,0:0:0:0:
256,192,2242,1,0,0:0:0:0:
256,192,2511,1,8,0:0:0:0:
256,192,2713,1,8,0:0:0:0:
256,192,2780,1,0,0:0:0:0:
256,192,2982,1,0,0:0:0:0:
256,192,3049,1,8,0:0:0:0:
256,192,3251,1,0,0:0:0:0:
256,192,3318,1,8,0:0:0:0:
256,192,3520,1,8,0:0:0:0:
256,192,3587,1,0,0:0:0:0:
256,192,3789,1,0,0:0:0:0:
256,192,3856,1,8,0:0:0:0:
256,192,4058,1,8,0:0:0:0:
256,192,4125,1,0,0:0:0:0:
256,192,4327,1,0,0:0:0:0:
256,192,4394,1,0,0:0:0:0:
256,192,4663,1,8,0:0:0:0:
256,192,4865,1,8,0:0:0:0:
256,192,4932,1,0,0:0:0:0:
256,192,5134,1,0,0:0:0:0:
256,192,5201,1,8,0:0:0:0:
256,192,5403,1,0,0:0:0:0:
256,192,5470,1,0,0:0:0:0:
256,192,5739,1,8,0:0:0:0:
256,192,5942,1,8,0:0:0:0:
256,192,6008,1,0,0:0:0:0:
256,192,6211,1,0,0:0:0:0:
256,192,6277,1,8,0:0:0:0:
256,192,6546,1,0,0:0:0:0:
256,192,6815,1,8,0:0:0:0:
256,192,7018,1,8,0:0:0:0:
256,192,7084,1,0,0:0:0:0:
256,192,7287,1,0,0:0:0:0:
256,192,7353,1,8,0:0:0:0:
256,192,7622,1,4,0:0:0:0:
256,192,7891,1,12,0:0:0:0:
256,192,8160,1,0,0:0:0:0:
256,192,8229,1,8,0:0:0:0:
256,192,8296,1,0,0:0:0:0:
256,192,8363,1,8,0:0:0:0:
256,192,8429,1,8,0:0:0:0:
256,192,8632,1,8,0:0:0:0:
256,192,8699,1,4,0:0:0:0:
256,192,8968,1,8,0:0:0:0:
256,192,9170,1,8,0:0:0:0:
256,192,9237,1,0,0:0:0:0:
256,192,9439,1,0,0:0:0:0:
256,192,9506,1,8,0:0:0:0:
256,192,9708,1,0,0:0:0:0:
256,192,9775,1,0,0:0:0:0:
256,192,10044,1,8,0:0:0:0:
256,192,10313,1,0,0:0:0:0:
256,192,10582,1,8,0:0:0:0:
256,192,10851,1,0,0:0:0:0:
256,192,11120,1,8,0:0:0:0:
256,192,11323,1,8,0:0:0:0:
256,192,11389,1,0,0:0:0:0:
256,192,11592,1,0,0:0:0:0:
256,192,11658,1,8,0:0:0:0:
256,192,11861,1,0,0:0:0:0:
256,192,11928,1,8,0:0:0:0:
256,192,12130,1,8,0:0:0:0:
256,192,12197,1,0,0:0:0:0:
256,192,12399,1,0,0:0:0:0:
256,192,12465,1,8,0:0:0:0:
256,192,12668,1,8,0:0:0:0:
256,192,12734,1,0,0:0:0:0:
256,192,12937,1,0,0:0:0:0:
256,192,13003,1,0,0:0:0:0:
256,192,13272,1,8,0:0:0:0:
256,192,13475,1,8,0:0:0:0:
256,192,13541,1,0,0:0:0:0:
256,192,13744,1,0,0:0:0:0:
256,192,13810,1,8,0:0:0:0:
256,192,14013,1,0,0:0:0:0:
256,192,14081,1,0,0:0:0:0:
256,192,14350,1,8,0:0:0:0:
256,192,14551,1,8,0:0:0:0:
256,192,14619,1,0,0:0:0:0:
256,192,14820,1,0,0:0:0:0:
256,192,14888,1,8,0:0:0:0:
256,192,15157,1,0,0:0:0:0:
256,192,15426,1,8,0:0:0:0:
256,192,15628,1,8,0:0:0:0:
256,192,15695,1,0,0:0:0:0:
256,192,15897,1,0,0:0:0:0:
256,192,15964,1,8,0:0:0:0:
256,192,16233,1,4,0:0:0:0:
256,192,16502,1,12,0:0:0:0:
256,192,16637,1,8,0:0:0:0:
256,192,16704,1,8,0:0:0:0:
256,192,16771,1,0,0:0:0:0:
256,192,16838,1,8,0:0:0:0:
256,192,16906,1,0,0:0:0:0:
256,192,16973,1,8,0:0:0:0:
256,192,17040,1,8,0:0:0:0:
256,192,17242,1,8,0:0:0:0:
256,192,17309,1,0,0:0:0:0:
256,192,17399,1,0,0:0:0:0:
256,192,17489,1,0,0:0:0:0:
256,192,17578,1,8,0:0:0:0:
256,192,17780,1,8,0:0:0:0:
256,192,17847,1,0,0:0:0:0:
256,192,18049,1,0,0:0:0:0:
256,192,18116,1,8,0:0:0:0:
256,192,18318,1,0,0:0:0:0:
256,192,18385,1,0,0:0:0:0:
256,192,18475,1,0,0:0:0:0:
256,192,18565,1,0,0:0:0:0:
256,192,18654,1,8,0:0:0:0:
256,192,18923,1,0,0:0:0:0:
256,192,19192,1,8,0:0:0:0:
256,192,19461,1,0,0:0:0:0:
256,192,19551,1,0,0:0:0:0:
256,192,19641,1,0,0:0:0:0:
256,192,19730,1,8,0:0:0:0:
256,192,19933,1,8,0:0:0:0:
256,192,19999,1,0,0:0:0:0:
256,192,20202,1,0,0:0:0:0:
256,192,20268,1,8,0:0:0:0:
256,192,20471,1,0,0:0:0:0:
256,192,20537,1,0,0:0:0:0:
256,192,20628,1,0,0:0:0:0:
256,192,20717,1,0,0:0:0:0:
256,192,20806,1,8,0:0:0:0:
256,192,20897,1,8,0:0:0:0:
256,192,20986,1,8,0:0:0:0:
256,192,21075,1,0,0:0:0:0:
256,192,21166,1,0,0:0:0:0:
256,192,21255,1,0,0:0:0:0:
256,192,21344,1,8,0:0:0:0:
256,192,21435,1,0,0:0:0:0:
256,192,21524,1,8,0:0:0:0:
256,192,21613,1,0,0:0:0:0:
256,192,21704,1,0,0:0:0:0:
256,192,21794,1,0,0:0:0:0:
256,192,21882,1,8,0:0:0:0:
256,192,22085,1,8,0:0:0:0:
256,192,22151,1,0,0:0:0:0:
256,192,22354,1,0,0:0:0:0:
256,192,22420,1,8,0:0:0:0:
256,192,22623,1,0,0:0:0:0:
256,192,22689,1,0,0:0:0:0:
256,192,22780,1,0,0:0:0:0:
256,192,22870,1,0,0:0:0:0:
256,192,22958,1,8,0:0:0:0:
256,192,23229,1,0,0:0:0:0:
256,192,23296,1,8,0:0:0:0:
256,192,23363,1,8,0:0:0:0:
256,192,23430,1,0,0:0:0:0:
256,192,23498,1,8,0:0:0:0:
256,192,23767,1,0,0:0:0:0:
256,192,23856,1,0,0:0:0:0:
256,192,23946,1,0,0:0:0:0:
256,192,24036,1,8,0:0:0:0:
256,192,24237,1,8,0:0:0:0:
256,192,24305,1,0,0:0:0:0:
256,192,24507,1,0,0:0:0:0:
256,192,24574,1,8,0:0:0:0:
256,192,24843,1,0,0:0:0:0:
256,192,24933,1,0,0:0:0:0:
256,192,25022,1,0,0:0:0:0:
256,192,25112,1,8,0:0:0:0:
256,192,25202,1,8,0:0:0:0:
256,192,25291,1,8,0:0:0:0:
256,192,25381,1,0,0:0:0:0:
256,192,25471,1,8,0:0:0:0:
256,192,25560,1,8,0:0:0:0:
256,192,25650,1,0,0:0:0:0:
256,192,25740,1,8,0:0:0:0:
256,192,25829,1,8,0:0:0:0:
256,192,25919,1,0,0:0:0:0:
256,192,26009,1,0,0:0:0:0:
256,192,26098,1,0,0:0:0:0:
256,192,26188,1,8,0:0:0:0:
256,192,26390,1,8,0:0:0:0:
256,192,26457,1,0,0:0:0:0:
256,192,26659,1,0,0:0:0:0:
256,192,26726,1,8,0:0:0:0:
256,192,26928,1,0,0:0:0:0:
256,192,26995,1,0,0:0:0:0:
256,192,27085,1,0,0:0:0:0:
256,192,27175,1,0,0:0:0:0:
256,192,27264,1,8,0:0:0:0:
256,192,27533,1,0,0:0:0:0:
256,192,27802,1,8,0:0:0:0:
256,192,28071,1,0,0:0:0:0:
256,192,28161,1,0,0:0:0:0:
256,192,28251,1,0,0:0:0:0:
256,192,28340,1,8,0:0:0:0:
256,192,28542,1,8,0:0:0:0:
256,192,28609,1,0,0:0:0:0:
256,192,28811,1,0,0:0:0:0:
256,192,28878,1,8,0:0:0:0:
256,192,29081,1,0,0:0:0:0:
256,192,29147,1,0,0:0:0:0:
256,192,29237,1,0,0:0:0:0:
256,192,29327,1,0,0:0:0:0:
256,192,29416,1,8,0:0:0:0:
256,192,29507,1,8,0:0:0:0:
256,192,29596,1,8,0:0:0:0:
256,192,29685,1,0,0:0:0:0:
256,192,29776,1,0,0:0:0:0:
256,192,29865,1,0,0:0:0:0:
256,192,29954,1,8,0:0:0:0:
256,192,30045,1,0,0:0:0:0:
256,192,30134,1,8,0:0:0:0:
256,192,30223,1,0,0:0:0:0:
256,192,30314,1,0,0:0:0:0:
256,192,30403,1,0,0:0:0:0:
256,192,30492,1,8,0:0:0:0:
256,192,30695,1,8,0:0:0:0:
256,192,30761,1,0,0:0:0:0:
256,192,30964,1,0,0:0:0:0:
256,192,31030,1,8,0:0:0:0:
256,192,31233,1,0,0:0:0:0:
256,192,31299,1,0,0:0:0:0:
256,192,31390,1,0,0:0:0:0:
256,192,31480,1,0,0:0:0:0:
256,192,31568,1,8,0:0:0:0:
256,192,31837,1,0,0:0:0:0:
256,192,31906,1,8,0:0:0:0:
256,192,31973,1,8,0:0:0:0:
256,192,32040,1,0,0:0:0:0:
256,192,32106,1,8,0:0:0:0:
256,192,32376,1,0,0:0:0:0:
256,192,32646,1,8,0:0:0:0:
256,192,32847,1,8,0:0:0:0:
256,192,32915,1,0,0:0:0:0:
256,192,33116,1,0,0:0:0:0:
256,192,33184,1,8,0:0:0:0:
256,192,33453,1,4,0:0:0:0:
256,192,33722,1,12,0:0:0:0:
256,192,33991,1,0,0:0:0:0:
256,192,34058,1,8,0:0:0:0:
256,192,34125,1,0,0:0:0:0:
256,192,34193,1,8,0:0:0:0:
256,192,34260,1,8,0:0:0:0:
256,192,34327,1,0,0:0:0:0:
256,192,34394,1,0,0:0:0:0:
256,192,34462,1,8,0:0:0:0:
256,192,34529,1,0,0:0:0:0:
256,192,34596,1,0,0:0:0:0:
256,192,34663,1,0,0:0:0:0:
256,192,34731,1,0,0:0:0:0:
256,192,34798,1,0,0:0:0:0:
256,192,35067,1,8,0:0:0:0:
256,192,35134,1,8,0:0:0:0:
256,192,35202,1,8,0:0:0:0:
256,192,35269,1,8,0:0:0:0:
256,192,35336,1,8,0:0:0:0:
256,192,35605,1,4,0:0:0:0:
256,192,35740,1,8,0:0:0:0:
256,192,35874,1,12,0:0:0:0:
256,192,36143,1,0,0:0:0:0:
256,192,36211,1,0,0:0:0:0:
256,192,36278,1,0,0:0:0:0:
256,192,36345,1,0,0:0:0:0:
256,192,36412,1,8,0:0:0:0:
256,192,36480,1,8,0:0:0:0:
256,192,36547,1,8,0:0:0:0:
256,192,36614,1,8,0:0:0:0:
256,192,36681,1,0,0:0:0:0:
256,192,36771,1,8,0:0:0:0:
256,192,36861,1,0,0:0:0:0:
256,192,36950,1,8,0:0:0:0:
256,192,37220,1,8,0:0:0:0:
256,192,37287,1,8,0:0:0:0:
256,192,37354,1,8,0:0:0:0:
256,192,37421,1,8,0:0:0:0:
256,192,37489,1,8,0:0:0:0:
256,192,37758,1,0,0:0:0:0:
256,192,37825,1,0,0:0:0:0:
256,192,37892,1,0,0:0:0:0:
256,192,37959,1,0,0:0:0:0:
256,192,38027,1,0,0:0:0:0:
256,192,38296,1,8,0:0:0:0:
256,192,38363,1,8,0:0:0:0:
256,192,38430,1,0,0:0:0:0:
256,192,38498,1,8,0:0:0:0:
256,192,38565,1,0,0:0:0:0:
256,192,38632,1,0,0:0:0:0:
256,192,38699,1,8,0:0:0:0:
256,192,38834,1,4,0:0:0:0:
256,192,38968,1,4,0:0:0:0:
256,192,39103,1,4,0:0:0:0:
256,192,39237,1,4,0:0:0:0:
256,192,39372,1,12,0:0:0:0:
256,192,39641,1,12,0:0:0:0:
256,192,39910,1,12,0:0:0:0:
256,192,40179,1,12,0:0:0:0:
256,192,40448,1,8,0:0:0:0:
256,192,40516,1,8,0:0:0:0:
256,192,40583,1,8,0:0:0:0:
256,192,40650,1,8,0:0:0:0:
256,192,40717,1,8,0:0:0:0:
256,192,40986,1,8,0:0:0:0:
256,192,41121,1,4,0:0:0:0:
256,192,41255,1,4,0:0:0:0:
256,192,41390,1,4,0:0:0:0:
256,192,41524,1,8,0:0:0:0:
256,192,41659,1,4,0:0:0:0:
256,192,41794,1,4,0:0:0:0:
256,192,41928,1,4,0:0:0:0:
256,192,42063,1,12,0:0:0:0:
256,192,42332,1,12,0:0:0:0:
256,192,42601,1,0,0:0:0:0:
256,192,42690,1,0,0:0:0:0:
256,192,42780,1,8,0:0:0:0:
256,192,42870,1,8,0:0:0:0:
256,192,43139,1,0,0:0:0:0:
256,192,43206,1,0,0:0:0:0:
256,192,43273,1,0,0:0:0:0:
256,192,43341,1,0,0:0:0:0:
256,192,43408,1,0,0:0:0:0:
256,192,43677,1,8,0:0:0:0:
256,192,43744,1,8,0:0:0:0:
256,192,43812,1,8,0:0:0:0:
256,192,43879,1,8,0:0:0:0:
256,192,43946,1,8,0:0:0:0:
256,192,44215,1,4,0:0:0:0:
256,192,44350,1,8,0:0:0:0:
256,192,44484,1,12,0:0:0:0:
256,192,44753,1,0,0:0:0:0:
256,192,44821,1,0,0:0:0:0:
256,192,44888,1,0,0:0:0:0:
256,192,44955,1,0,0:0:0:0:
256,192,45022,1,8,0:0:0:0:
256,192,45090,1,8,0:0:0:0:
256,192,45157,1,8,0:0:0:0:
256,192,45224,1,8,0:0:0:0:
256,192,45291,1,0,0:0:0:0:
256,192,45381,1,8,0:0:0:0:
256,192,45471,1,0,0:0:0:0:
256,192,45560,1,8,0:0:0:0:
256,192,45830,1,8,0:0:0:0:
256,192,45897,1,8,0:0:0:0:
256,192,45964,1,8,0:0:0:0:
256,192,46031,1,8,0:0:0:0:
256,192,46099,1,8,0:0:0:0:
256,192,46368,1,0,0:0:0:0:
256,192,46435,1,0,0:0:0:0:
256,192,46502,1,0,0:0:0:0:
256,192,46569,1,0,0:0:0:0:
256,192,46637,1,0,0:0:0:0:
256,192,46906,1,8,0:0:0:0:
256,192,46973,1,8,0:0:0:0:
256,192,47040,1,0,0:0:0:0:
256,192,47108,1,8,0:0:0:0:
256,192,47175,1,0,0:0:0:0:
256,192,47242,1,0,0:0:0:0:
256,192,47309,1,8,0:0:0:0:
256,192,47444,1,4,0:0:0:0:
256,192,47578,1,4,0:0:0:0:
256,192,47713,1,4,0:0:0:0:
256,192,47847,1,4,0:0:0:0:
256,192,47982,1,12,0:0:0:0:
256,192,48251,1,12,0:0:0:0:
256,192,48520,1,12,0:0:0:0:
256,192,48789,1,12,0:0:0:0:
256,192,49058,1,8,0:0:0:0:
256,192,49126,1,8,0:0:0:0:
256,192,49193,1,8,0:0:0:0:
256,192,49260,1,8,0:0:0:0:
256,192,49327,1,8,0:0:0:0:
256,192,49596,1,12,0:0:0:0:
256,192,49731,1,0,0:0:0:0:
256,192,49865,1,0,0:0:0:0:
256,192,50000,1,0,0:0:0:0:
256,192,50134,1,12,0:0:0:0:
256,192,50269,1,0,0:0:0:0:
256,192,50404,1,0,0:0:0:0:
256,192,50538,1,0,0:0:0:0:
256,192,50673,1,12,0:0:0:0:
256,192,50807,1,0,0:0:0:0:
256,192,50942,1,0,0:0:0:0:
256,192,51076,1,0,0:0:0:0:
256,192,51211,1,8,0:0:0:0:
256,192,51278,1,8,0:0:0:0:
256,192,51345,1,0,0:0:0:0:
256,192,51412,1,8,0:0:0:0:
256,192,51480,1,8,0:0:0:0:
256,192,51569,1,0,0:0:0:0:
256,192,51659,1,8,0:0:0:0:
256,192,51749,1,0,0:0:0:0:
256,192,52018,1,8,0:0:0:0:
256,192,52219,1,8,0:0:0:0:
256,192,52287,1,0,0:0:0:0:
256,192,52488,1,0,0:0:0:0:
256,192,52556,1,8,0:0:0:0:
256,192,52757,1,0,0:0:0:0:
256,192,52825,1,0,0:0:0:0:
256,192,53094,1,8,0:0:0:0:
256,192,53363,1,0,0:0:0:0:
256,192,53632,1,8,0:0:0:0:
256,192,53901,1,0,0:0:0:0:
256,192,54170,1,8,0:0:0:0:
256,192,54372,1,8,0:0:0:0:
256,192,54439,1,0,0:0:0:0:
256,192,54641,1,0,0:0:0:0:
256,192,54708,1,8,0:0:0:0:
256,192,54910,1,0,0:0:0:0:
256,192,54977,1,8,0:0:0:0:
256,192,55179,1,8,0:0:0:0:
256,192,55246,1,0,0:0:0:0:
256,192,55448,1,0,0:0:0:0:
256,192,55515,1,8,0:0:0:0:
256,192,55717,1,8,0:0:0:0:
256,192,55784,1,0,0:0:0:0:
256,192,55986,1,0,0:0:0:0:
256,192,56053,1,0,0:0:0:0:
256,192,56322,1,8,0:0:0:0:
256,192,56524,1,8,0:0:0:0:
256,192,56591,1,0,0:0:0:0:
256,192,56793,1,0,0:0:0:0:
256,192,56860,1,8,0:0:0:0:
256,192,57062,1,0,0:0:0:0:
256,192,57129,1,0,0:0:0:0:
256,192,57398,1,8,0:0:0:0:
256,192,57601,1,8,0:0:0:0:
256,192,57667,1,0,0:0:0:0:
256,192,57870,1,0,0:0:0:0:
256,192,57936,1,8,0:0:0:0:
256,192,58205,1,0,0:0:0:0:
256,192,58474,1,8,0:0:0:0:
256,192,58677,1,8,0:0:0:0:
256,192,58743,1,0,0:0:0:0:
256,192,58946,1,0,0:0:0:0:
256,192,59012,1,8,0:0:0:0:
256,192,59281,1,4,0:0:0:0:
256,192,59550,1,12,0:0:0:0:
256,192,59819,1,0,0:0:0:0:
256,192,59888,1,8,0:0:0:0:
256,192,59955,1,0,0:0:0:0:
256,192,60022,1,8,0:0:0:0:
256,192,60088,1,8,0:0:0:0:
256,192,60291,1,8,0:0:0:0:
256,192,60359,1,4,0:0:0:0:
256,192,60628,1,8,0:0:0:0:
256,192,60830,1,8,0:0:0:0:
256,192,60897,1,0,0:0:0:0:
256,192,61099,1,0,0:0:0:0:
256,192,61166,1,8,0:0:0:0:
256,192,61368,1,0,0:0:0:0:
256,192,61435,1,0,0:0:0:0:
256,192,61704,1,8,0:0:0:0:
256,192,61973,1,0,0:0:0:0:
256,192,62242,1,8,0:0:0:0:
256,192,62511,1,0,0:0:0:0:
256,192,62766,1,8,0:0:0:0:
256,192,62957,1,8,0:0:0:0:
256,192,63021,1,0,0:0:0:0:
256,192,63213,1,0,0:0:0:0:
256,192,63276,1,8,0:0:0:0:
256,192,63468,1,0,0:0:0:0:
256,192,63532,1,8,0:0:0:0:
256,192,63719,1,8,0:0:0:0:
256,192,63782,1,0,0:0:0:0:
256,192,63969,1,0,0:0:0:0:
256,192,64032,1,8,0:0:0:0:
256,192,64219,1,8,0:0:0:0:
256,192,64282,1,0,0:0:0:0:
256,192,64469,1,0,0:0:0:0:
256,192,64532,1,0,0:0:0:0:
256,192,64777,1,8,0:0:0:0:
256,192,64962,1,8,0:0:0:0:
256,192,65023,1,0,0:0:0:0:
256,192,65208,1,0,0:0:0:0:
256,192,65269,1,8,0:0:0:0:
256,192,65454,1,0,0:0:0:0:
256,192,65515,1,0,0:0:0:0:
256,192,65757,1,8,0:0:0:0:
256,192,65940,1,8,0:0:0:0:
256,192,66000,1,0,0:0:0:0:
256,192,66183,1,0,0:0:0:0:
256,192,66243,1,8,0:0:0:0:
256,192,66486,1,0,0:0:0:0:
256,192,66726,1,8,0:0:0:0:
256,192,66906,1,8,0:0:0:0:
256,192,66966,1,0,0:0:0:0:
256,192,67146,1,0,0:0:0:0:
256,192,67206,1,8,0:0:0:0:
256,192,67446,1,4,0:0:0:0:
256,192,67681,1,12,0:0:0:0:
256,192,67798,1,8,0:0:0:0:
256,192,67857,1,8,0:0:0:0:
256,192,67916,1,0,0:0:0:0:
256,192,67975,1,8,0:0:0:0:
256,192,68034,1,0,0:0:0:0:
256,192,68093,1,8,0:0:0:0:
256,192,68151,1,8,0:0:0:0:
256,192,68328,1,8,0:0:0:0:
256,192,68387,1,0,0:0:0:0:
256,192,68465,1,0,0:0:0:0:
256,192,68543,1,0,0:0:0:0:
256,192,68622,1,8,0:0:0:0:
256,192,68798,1,8,0:0:0:0:
256,192,68857,1,0,0:0:0:0:
256,192,69034,1,0,0:0:0:0:
256,192,69092,1,8,0:0:0:0:
256,192,69269,1,0,0:0:0:0:
256,192,69328,1,0,0:0:0:0:
256,192,69406,1,0,0:0:0:0:
256,192,69485,1,0,0:0:0:0:
256,192,69563,1,8,0:0:0:0:
256,192,69798,1,0,0:0:0:0:
256,192,70034,1,8,0:0:0:0:
256,192,70269,1,0,0:0:0:0:
256,192,70347,1,0,0:0:0:0:
256,192,70426,1,0,0:0:0:0:
256,192,70504,1,8,0:0:0:0:
256,192,70681,1,8,0:0:0:0:
256,192,70739,1,0,0:0:0:0:
256,192,70916,1,0,0:0:0:0:
256,192,70975,1,8,0:0:0:0:
256,192,71151,1,0,0:0:0:0:
256,192,71210,1,0,0:0:0:0:
256,192,71288,1,0,0:0:0:0:
256,192,71367,1,0,0:0:0:0:
256,192,71445,1,8,0:0:0:0:
256,192,71524,1,8,0:0:0:0:
256,192,71602,1,8,0:0:0:0:
256,192,71681,1,0,0:0:0:0:
256,192,71759,1,0,0:0:0:0:
256,192,71837,1,0,0:0:0:0:
256,192,71916,1,8,0:0:0:0:
256,192,71994,1,0,0:0:0:0:
256,192,72073,1,8,0:0:0:0:
256,192,72151,1,0,0:0:0:0:
256,192,72230,1,0,0:0:0:0:
256,192,72308,1,0,0:0:0:0:
256,192,72387,1,8,0:0:0:0:
256,192,72563,1,8,0:0:0:0:
256,192,72622,1,0,0:0:0:0:
256,192,72798,1,0,0:0:0:0:
256,192,72857,1,8,0:0:0:0:
256,192,73034,1,0,0:0:0:0:
256,192,73092,1,0,0:0:0:0:
256,192,73171,1,0,0:0:0:0:
256,192,73249,1,0,0:0:0:0:
256,192,73328,1,8,0:0:0:0:
256,192,73563,1,0,0:0:0:0:
256,192,73622,1,8,0:0:0:0:
256,192,73681,1,8,0:0:0:0:
256,192,73739,1,0,0:0:0:0:
256,192,73798,1,8,0:0:0:0:
256,192,74034,1,0,0:0:0:0:
256,192,74112,1,0,0:0:0:0:
256,192,74190,1,0,0:0:0:0:
256,192,74269,1,8,0:0:0:0:
256,192,74445,1,8,0:0:0:0:
256,192,74504,1,0,0:0:0:0:
256,192,74681,1,0,0:0:0:0:
256,192,74739,1,8,0:0:0:0:
256,192,74975,1,0,0:0:0:0:
256,192,75053,1,0,0:0:0:0:
256,192,75132,1,0,0:0:0:0:
256,192,75210,1,8,0:0:0:0:
256,192,75288,1,8,0:0:0:0:
256,192,75367,1,8,0:0:0:0:
256,192,75445,1,0,0:0:0:0:
256,192,75524,1,8,0:0:0:0:
256,192,75602,1,8,0:0:0:0:
256,192,75681,1,0,0:0:0:0:
256,192,75759,1,8,0:0:0:0:
256,192,75837,1,8,0:0:0:0:
256,192,75916,1,0,0:0:0:0:
256,192,75994,1,0,0:0:0:0:
256,192,76073,1,0,0:0:0:0:
256,192,76151,1,8,0:0:0:0:
256,192,76328,1,8,0:0:0:0:
256,192,76387,1,0,0:0:0:0:
256,192,76563,1,0,0:0:0:0:
256,192,76622,1,8,0:0:0:0:
256,192,76798,1,0,0:0:0:0:
256,192,76857,1,0,0:0:0:0:
256,192,76936,1,0,0:0:0:0:
256,192,77014,1,0,0:0:0:0:
256,192,77092,1,8,0:0:0:0:
256,192,77328,1,0,0:0:0:0:
256,192,77563,1,8,0:0:0:0:
256,192,77798,1,0,0:0:0:0:
256,192,77877,1,0,0:0:0:0:
256,192,77955,1,0,0:0:0:0:
256,192,78034,1,8,0:0:0:0:
256,192,78210,1,8,0:0:0:0:
256,192,78269,1,0,0:0:0:0:
256,192,78445,1,0,0:0:0:0:
256,192,78504,1,8,0:0:0:0:
256,192,78681,1,0,0:0:0:0:
256,192,78739,1,0,0:0:0:0:
256,192,78818,1,0,0:0:0:0:
256,192,78896,1,0,0:0:0:0:
256,192,78975,1,8,0:0:0:0:
256,192,79053,1,8,0:0:0:0:
256,192,79132,1,8,0:0:0:0:
256,192,79210,1,0,0:0:0:0:
256,192,79288,1,0,0:0:0:0:
256,192,79367,1,0,0:0:0:0:
256,192,79445,1,8,0:0:0:0:
256,192,79524,1,0,0:0:0:0:
256,192,79602,1,8,0:0:0:0:
256,192,79681,1,0,0:0:0:0:
256,192,79759,1,0,0:0:0:0:
256,192,79837,1,0,0:0:0:0:
256,192,79916,1,8,0:0:0:0:
256,192,80092,1,8,0:0:0:0:
256,192,80151,1,0,0:0:0:0:
256,192,80328,1,0,0:0:0:0:
256,192,80387,1,8,0:0:0:0:
256,192,80563,1,0,0:0:0:0:
256,192,80622,1,0,0:0:0:0:
256,192,80700,1,0,0:0:0:0:
256,192,80779,1,0,0:0:0:0:
256,192,80857,1,8,0:0:0:0:
256,192,81092,1,0,0:0:0:0:
256,192,81151,1,8,0:0:0:0:
256,192,81210,1,8,0:0:0:0:
256,192,81269,1,0,0:0:0:0:
256,192,81328,1,8,0:0:0:0:
256,192,81563,1,0,0:0:0:0:
256,192,81798,1,8,0:0:0:0:
256,192,81975,1,8,0:0:0:0:
256,192,82034,1,0,0:0:0:0:
256,192,82210,1,0,0:0:0:0:
256,192,82269,1,8,0:0:0:0:
256,192,82504,1,4,0:0:0:0:
256,192,82739,1,12,0:0:0:0:
256,192,82975,1,0,0:0:0:0:
256,192,83034,1,8,0:0:0:0:
256,192,83092,1,0,0:0:0:0:
256,192,83151,1,8,0:0:0:0:
256,192,83210,1,8,0:0:0:0:
256,192,83269,1,0,0:0:0:0:
256,192,83328,1,0,0:0:0:0:
256,192,83387,1,8,0:0:0:0:
256,192,83445,1,0,0:0:0:0:
256,192,83504,1,0,0:0:0:0:
256,192,83563,1,0,0:0:0:0:
256,192,83622,1,0,0:0:0:0:
256,192,83681,1,0,0:0:0:0:
256,192,83916,1,8,0:0:0:0:
256,192,83975,1,8,0:0:0:0:
256,192,84034,1,8,0:0:0:0:
256,192,84092,1,8,0:0:0:0:
256,192,84151,1,8,0:0:0:0:
256,192,84387,1,4,0:0:0:0:
256,192,84504,1,8,0:0:0:0:
256,192,84622,1,12,0:0:0:0:
256,192,84857,1,0,0:0:0:0:
256,192,84916,1,0,0:0:0:0:
256,192,84975,1,0,0:0:0:0:
256,192,85034,1,0,0:0:0:0:
256,192,85092,1,8,0:0:0:0:
256,192,85151,1,8,0:0:0:0:
256,192,85210,1,8,0:0:0:0:
256,192,85269,1,8,0:0:0:0:
256,192,85328,1,0,0:0:0:0:
256,192,85406,1,8,0:0:0:0:
256,192,85485,1,0,0:0:0:0:
256,192,85563,1,8,0:0:0:0:
256,192,85798,1,8,0:0:0:0:
256,192,85857,1,8,0:0:0:0:
256,192,85916,1,8,0:0:0:0:
256,192,85975,1,8,0:0:0:0:
256,192,86034,1,8,0:0:0:0:
256,192,86269,1,0,0:0:0:0:
256,192,86328,1,0,0:0:0:0:
256,192,86387,1,0,0:0:0:0:
256,192,86445,1,0,0:0:0:0:
256,192,86504,1,0,0:0:0:0:
256,192,86739,1,8,0:0:0:0:
256,192,86798,1,8,0:0:0:0:
256,192,86857,1,0,0:0:0:0:
256,192,86916,1,8,0:0:0:0:
256,192,86975,1,0,0:0:0:0:
256,192,87034,1,0,0:0:0:0:
256,192,87092,1,8,0:0:0:0:
256,192,87210,1,4,0:0:0:0:
256,192,87328,1,4,0:0:0:0:
256,192,87445,1,4,0:0:0:0:
256,192,87563,1,4,0:0:0:0:
256,192,87681,1,12,0:0:0:0:
256,192,87916,1,12,0:0:0:0:
256,192,88151,1,12,0:0:0:0:
256,192,88387,1,12,0:0:0:0:
256,192,88622,1,8,0:0:0:0:
256,192,88681,1,8,0:0:0:0:
256,192,88739,1,8,0:0:0:0:
256,192,88798,1,8,0:0:0:0:
256,192,88857,1,8,0:0:0:0:
256,192,89092,1,8,0:0:0:0:
256,192,89210,1,4,0:0:0:0:
256,192,89328,1,4,0:0:0:0:
256,192,89445,1,4,0:0:0:0:
256,192,89563,1,8,0:0:0:0:
256,192,89681,1,4,0:0:0:0:
256,192,89798,1,4,0:0:0:0:
256,192,89916,1,4,0:0:0:0:
256,192,90034,1,12,0:0:0:0:
256,192,90269,1,12,0:0:0:0:
256,192,90504,1,0,0:0:0:0:
256,192,90583,1,0,0:0:0:0:
256,192,90661,1,8,0:0:0:0:
256,192,90739,1,8,0:0:0:0:
256,192,90975,1,0,0:0:0:0:
256,192,91034,1,0,0:0:0:0:
256,192,91093,1,0,0:0:0:0:
256,192,91152,1,0,0:0:0:0:
256,192,91211,1,0,0:0:0:0:
256,192,91446,1,8,0:0:0:0:
256,192,91505,1,8,0:0:0:0:
256,192,91564,1,8,0:0:0:0:
256,192,91622,1,8,0:0:0:0:
256,192,91681,1,8,0:0:0:0:
256,192,91917,1,4,0:0:0:0:
256,192,92034,1,8,0:0:0:0:
256,192,92152,1,12,0:0:0:0:
256,192,92387,1,0,0:0:0:0:
256,192,92446,1,0,0:0:0:0:
256,192,92505,1,0,0:0:0:0:
256,192,92564,1,0,0:0:0:0:
256,192,92622,1,8,0:0:0:0:
256,192,92681,1,8,0:0:0:0:
256,192,92740,1,8,0:0:0:0:
256,192,92799,1,8,0:0:0:0:
256,192,92858,1,0,0:0:0:0:
256,192,92936,1,8,0:0:0:0:
256,192,93015,1,0,0:0:0:0:
256,192,93093,1,8,0:0:0:0:
256,192,93328,1,8,0:0:0:0:
256,192,93387,1,8,0:0:0:0:
256,192,93446,1,8,0:0:0:0:
256,192,93505,1,8,0:0:0:0:
256,192,93564,1,8,0:0:0:0:
256,192,93799,1,0,0:0:0:0:
256,192,93858,1,0,0:0:0:0:
256,192,93917,1,0,0:0:0:0:
256,192,93975,1,0,0:0:0:0:
256,192,94034,1,0,0:0:0:0:
256,192,94269,1,8,0:0:0:0:
256,192,94328,1,8,0:0:0:0:
256,192,94387,1,0,0:0:0:0:
256,192,94446,1,8,0:0:0:0:
256,192,94505,1,0,0:0:0:0:
256,192,94564,1,0,0:0:0:0:
256,192,94622,1,8,0:0:0:0:
256,192,94740,1,4,0:0:0:0:
256,192,94858,1,4,0:0:0:0:
256,192,94975,1,4,0:0:0:0:
256,192,95093,1,4,0:0:0:0:
256,192,95211,1,12,0:0:0:0:
256,192,95446,1,12,0:0:0:0:
256,192,95681,1,12,0:0:0:0:
256,192,95917,1,12,0:0:0:0:
256,192,96152,1,8,0:0:0:0:
256,192,96211,1,8,0:0:0:0:
256,192,96269,1,8,0:0:0:0:
256,192,96328,1,8,0:0:0:0:
256,192,96387,1,8,0:0:0:0:
256,192,96622,1,0,0:0:0:0:
256,192,96700,1,8,0:0:0:0:
256,192,96779,1,8,0:0:0:0:
256,192,96857,1,8,0:0:0:0:
256,192,96936,1,0,0:0:0:0:
256,192,97014,1,0,0:0:0:0:
256,192,97092,1,0,0:0:0:0:
256,192,97171,1,8,0:0:0:0:
256,192,97249,1,0,0:0:0:0:
256,192,97328,1,8,0:0:0:0:
256,192,97406,1,8,0:0:0:0:
256,192,97485,1,0,0:0:0:0:
256,192,97563,1,0,0:0:0:0:
256,192,97641,1,0,0:0:0:0:
256,192,97720,1,8,0:0:0:0:
256,192,97798,1,8,0:0:0:0:
256,192,97877,1,0,0:0:0:0:
256,192,97955,1,0,0:0:0:0:
256,192,98034,1,0,0:0:0:0:
256,192,98112,1,8,0:0:0:0:
256,192,98190,1,8,0:0:0:0:
256,192,98269,1,8,0:0:0:0:
256,192,98347,1,0,0:0:0:0:
256,192,98426,1,8,0:0:0:0:
256,192,98504,1,0,0:0:0:0:
256,192,98583,1,0,0:0:0:0:
256,192,98661,1,8,0:0:0:0:
256,192,98739,1,8,0:0:0:0:
256,192,98818,1,0,0:0:0:0:
256,192,98896,1,0,0:0:0:0:
256,192,98975,1,8,0:0:0:0:
256,192,99053,1,8,0:0:0:0:
256,192,99132,1,0,0:0:0:0:
256,192,99210,1,0,0:0:0:0:
256,192,99288,1,8,0:0:0:0:
256,192,99367,1,0,0:0:0:0:
256,192,99445,1,8,0:0:0:0:
256,192,99524,1,0,0:0:0:0:
256,192,99602,1,0,0:0:0:0:
256,192,99681,1,0,0:0:0:0:
256,192,99759,1,8,0:0:0:0:
256,192,99837,1,8,0:0:0:0:
256,192,99916,1,8,0:0:0:0:
256,192,100387,1,4,0:0:0:0:
