osu file format v14

[General]
AudioFilename: audio.mp3
AudioLeadIn: 0
PreviewTime: 11054
Countdown: 1
SampleSet: Soft
StackLeniency: 0.7
Mode: 2
LetterboxInBreaks: 0
WidescreenStoryboard: 1

[Editor]
Bookmarks: 22178
DistanceSpacing: 3
BeatDivisor: 4
GridSize: 4
TimelineZoom: 2

[Metadata]
Title:Insert Coin
TitleUnicode:Insert Coin
Artist:Thaehan
ArtistUnicode:Thaehan
Creator:kfc nugget
Version:Collab Rain
Source:
Tags:electronic instrumental chiptune loki featured artist fa mappers' guild mpg priority quest natsuko r-34 archer 4rcher- omgwtf! 8-bit 8bit
BeatmapID:4458909
BeatmapSetID:2121944

[Difficulty]
HPDrainRate:5
CircleSize:3.8
OverallDifficulty:9
ApproachRate:9
SliderMultiplier:1.92
SliderTickRate:2

[Events]
//Background and Video events
0,0,"bg.jpg",0,0
//Break Periods
//Storyboard Layer 0 (Background)
//Storyboard Layer 1 (Fail)
//Storyboard Layer 2 (Pass)
//Storyboard Layer 3 (Foreground)
//Storyboard Layer 4 (Overlay)
//Storyboard Sound Samples

[TimingPoints]
605,337.078651685393,4,2,22,60,1,0
11391,-100,4,2,22,60,0,1
22178,-100,4,2,22,60,0,0
32964,-100,4,2,22,45,0,0
34312,-100,4,2,22,50,0,0
35661,-100,4,2,22,55,0,0
37009,-100,4,2,22,60,0,0

[Colours]
Combo1 : 255,128,0
Combo2 : 0,255,0
Combo3 : 255,255,0

[HitObjects]
352,192,605,6,0,L|448:192,1,96,6|0,1:0|0:0,0:0:0:0:
208,240,942,2,0,L|160:240,1,48,8|0,0:1|0:0,0:0:0:0:
160,240,1110,2,0,L|208:240,1,48,8|8,0:0|0:0,0:0:0:0:
352,288,1279,2,0,L|400:288,1,48,8|0,0:0|1:0,0:0:0:0:
400,288,1447,2,0,L|352:288,1,48,0|0,1:0|1:0,0:0:0:0:
208,336,1616,2,0,L|112:336,1,96,8|10,0:0|0:0,0:0:0:0:
160,336,1869,1,10,0:2:0:0:
352,192,1953,6,0,P|448:128|352:32,1,288,6|10,1:0|0:1,0:0:0:0:
304,144,2543,1,2,1:0:0:0:
256,192,2627,2,0,L|160:192,1,96,0|0,1:0|0:0,0:0:0:0:
304,144,2964,2,0,L|400:144,1,96,2|2,1:0|0:0,0:0:0:0:
160,192,3301,6,0,L|160:96,1,96,6|0,1:0|0:0,0:0:0:0:
400,192,3638,2,0,L|448:192,1,48,8|8,0:0|0:0,0:0:0:0:
400,192,3807,2,0,L|352:192,1,48,8|0,0:1|0:0,0:0:0:0:
208,144,3975,2,0,L|112:144,1,96,2|0,1:0|0:0,0:0:0:0:
352,192,4312,2,0,L|448:192,1,96,2|0,1:0|0:0,0:0:0:0:
208,240,4649,6,0,L|304:240,2,96,6|2|2,1:0|1:0|1:0,0:0:0:0:
352,288,5155,2,0,L|400:288,1,48,8|0,0:1|0:0,0:0:0:0:
256,240,5324,2,0,L|208:240,1,48,8|8,0:0|0:0,0:0:0:0:
256,240,5492,2,0,L|304:240,1,48,8|8,0:0|0:0,0:0:0:0:
160,192,5661,2,0,L|64:192,1,96,8|8,1:2|1:2,0:0:0:0:
304,192,5998,6,0,L|304:96,1,96,6|0,1:0|0:0,0:0:0:0:
160,144,6335,2,0,L|112:144,1,48,8|0,0:1|0:0,0:0:0:0:
112,144,6503,2,0,L|160:144,1,48,8|8,0:0|0:0,0:0:0:0:
304,192,6672,2,0,L|304:144,1,48,10|0,0:0|0:0,0:0:0:0:
256,192,6840,2,0,L|208:192,1,48
352,240,7009,2,0,L|448:240,1,96,8|10,0:0|0:0,0:0:0:0:
400,240,7262,1,10,0:0:0:0:
208,192,7346,6,0,P|112:128|208:32,1,288,6|10,1:0|0:1,0:0:0:0:
256,240,7936,1,2,1:0:0:0:
304,192,8020,2,0,L|400:192,1,96,2|0,1:0|0:0,0:0:0:0:
256,144,8357,2,0,L|160:144,1,96,2|2,1:0|0:0,0:0:0:0:
400,192,8694,6,0,P|464:144|400:80,1,192,6|0,1:0|0:0,0:0:0:0:
256,192,9200,2,0,L|208:192,1,48,8|8,0:0|0:0,0:0:0:0:
352,240,9369,2,0,L|352:144,1,96,2|0,1:0|0:0,0:0:0:0:
208,288,9706,2,0,L|112:288,1,96,2|0,1:0|0:0,0:0:0:0:
352,240,10043,5,6,1:0:0:0:
112,192,10211,2,0,L|64:192,1,48,8|0,0:1|0:0,0:0:0:0:
112,192,10380,2,0,L|208:192,1,96,0|0,1:0|0:0,0:0:0:0:
64,192,10717,2,0,L|64:144,1,48,8|8,0:0|0:0,0:0:0:0:
112,144,10885,2,0,L|160:144,1,48,8|8,0:0|0:0,0:0:0:0:
304,192,11054,1,10,0:0:0:0:
352,240,11166,1,10,0:0:0:0:
304,192,11279,1,10,0:0:0:0:
64,192,11391,6,0,L|64:96,1,96,6|0,1:0|0:0,0:0:0:0:
208,96,11728,2,0,L|256:96,1,48,8|0,0:1|0:0,0:0:0:0:
208,144,11897,2,0,L|160:144,1,48
304,192,12065,2,0,L|400:192,2,96,0|0|8,1:0|0:0|0:1,0:0:0:0:
64,240,12571,2,0,L|64:288,1,48,2|2,0:0|0:0,0:0:0:0:
256,336,12739,6,0,L|352:336,1,96,2|0,1:0|0:0,0:0:0:0:
400,336,12992,1,0,0:0:0:0:
352,288,13076,2,0,L|256:288,1,96,8|0,0:1|0:0,0:0:0:0:
208,288,13329,1,0,0:0:0:0:
256,240,13413,2,0,L|352:240,1,96,0|0,1:0|0:0,0:0:0:0:
208,192,13751,2,0,L|112:192,1,96,8|2,0:1|0:0,0:0:0:0:
352,144,14088,6,0,L|448:144,2,96,0|0|8,1:0|0:0|0:1,0:0:0:0:
256,96,14593,2,0,L|208:96,1,48
352,144,14762,2,0,L|448:144,1,96,2|0,1:0|0:0,0:0:0:0:
208,192,15099,2,0,L|208:288,1,96,10|0,0:1|0:0,0:0:0:0:
448,240,15436,6,0,L|352:240,2,96,2|2|10,1:0|0:0|0:1,0:0:0:0:
352,192,15942,2,0,L|304:192,1,48
160,144,16110,1,0,1:0:0:0:
160,96,16279,2,0,L|208:96,1,48
352,144,16447,2,0,L|448:144,1,96,8|0,0:1|0:0,0:0:0:0:
208,192,16784,6,0,L|208:288,1,96,6|0,1:0|0:0,0:0:0:0:
352,240,17121,2,0,L|400:240,1,48,8|0,0:1|0:0,0:0:0:0:
400,240,17290,2,0,L|352:240,1,48
208,288,17458,2,0,L|160:288,1,48,2|0,1:0|0:0,0:0:0:0:
208,288,17627,2,0,L|256:288,1,48
112,240,17796,2,0,L|112:144,1,96,8|2,0:1|0:0,0:0:0:0:
160,144,18048,1,2,0:0:0:0:
352,240,18133,6,0,L|448:240,1,96,2|0,1:0|0:0,0:0:0:0:
400,240,18385,1,0,0:0:0:0:
352,192,18470,2,0,L|256:192,1,96,8|0,0:1|0:0,0:0:0:0:
208,192,18722,1,0,0:0:0:0:
256,144,18807,2,0,L|352:144,1,96,0|0,1:0|0:0,0:0:0:0:
208,96,19144,2,0,L|112:96,1,96,8|2,0:1|0:0,0:0:0:0:
352,144,19481,6,0,L|352:240,1,96,2|0,1:0|0:0,0:0:0:0:
208,192,19818,2,0,L|160:192,1,48,8|0,0:1|0:0,0:0:0:0:
208,192,19987,2,0,L|256:192,1,48
400,144,20155,2,0,L|400:240,1,96,2|0,1:0|0:0,0:0:0:0:
256,192,20492,2,0,L|160:192,1,96,10|0,0:1|0:0,0:0:0:0:
400,240,20829,5,2,1:0:0:0:
400,288,20998,2,0,L|352:288,1,48
208,240,21166,2,0,L|208:144,1,96,8|0,0:1|0:0,0:0:0:0:
352,192,21503,2,0,L|352:96,1,96,0|0,1:0|0:0,0:0:0:0:
112,144,21840,1,10,0:1:0:0:
64,192,21953,1,2,0:0:0:0:
112,144,22065,1,2,0:0:0:0:
304,144,22178,6,0,P|364:104|288:36,1,192,6|8,1:0|0:1,0:0:0:0:
128,36,22683,1,2,0:0:0:0:
168,36,22739,1,2,0:0:0:0:
212,36,22796,1,2,0:0:0:0:
252,36,22852,2,0,L|364:36,1,96,2|0,1:0|0:0,0:0:0:0:
88,40,23189,2,0,L|20:40,1,48,10|8,0:1|0:0,0:0:0:0:
40,40,23357,2,0,L|100:40,1,48,8|8,0:0|0:0,0:0:0:0:
248,40,23526,6,0,L|464:40,1,192,0|8,1:0|0:1,0:0:0:0:
268,40,24031,2,0,L|268:104,1,48,2|2,0:0|0:0,0:0:0:0:
360,88,24200,2,0,L|460:88,1,96,2|0,1:0|0:0,0:0:0:0:
196,92,24537,2,0,L|136:92,1,48,10|8,0:1|0:0,0:0:0:0:
196,92,24706,2,0,L|256:92,1,48,8|8,0:0|0:0,0:0:0:0:
88,92,24874,6,0,P|48:148|132:220,1,192,2|8,1:0|0:1,0:0:0:0:
296,216,25380,1,2,0:0:0:0:
336,216,25436,1,2,0:0:0:0:
296,216,25492,1,2,0:0:0:0:
256,216,25548,2,0,L|148:216,1,96,2|0,1:0|0:0,0:0:0:0:
420,216,25885,2,0,L|488:216,1,48,10|8,0:1|0:0,0:0:0:0:
468,216,26054,2,0,L|408:216,1,48,8|8,0:0|0:0,0:0:0:0:
264,208,26222,6,0,P|212:188|284:108,1,192,2|8,1:0|0:1,0:0:0:0:
440,108,26728,2,0,L|440:28,1,48,2|2,0:0|0:0,0:0:0:0:
348,56,26897,2,0,L|288:56,1,48,2|8,1:0|0:0,0:0:0:0:
348,56,27065,2,0,L|416:56,1,48,10|8,0:0|0:0,0:0:0:0:
236,56,27234,2,0,L|156:56,1,48,10|8,0:1|0:0,0:0:0:0:
188,56,27402,2,0,L|252:56,1,48,10|8,0:0|0:0,0:0:0:0:
396,56,27571,6,0,P|428:120|332:192,1,192,6|8,1:0|0:1,0:0:0:0:
180,196,28076,1,2,0:0:0:0:
136,196,28133,1,2,0:0:0:0:
96,196,28189,1,2,0:0:0:0:
56,196,28245,2,0,L|172:196,1,96,2|0,1:0|0:0,0:0:0:0:
412,196,28582,2,0,L|472:196,1,48,10|8,0:1|0:0,0:0:0:0:
412,196,28751,2,0,L|328:196,1,48,8|8,0:0|0:0,0:0:0:0:
208,180,28919,6,0,P|144:156|212:84,1,192,2|8,1:0|0:1,0:0:0:0:
372,68,29425,2,0,L|372:12,1,48,2|2,0:0|0:0,0:0:0:0:
280,24,29593,2,0,L|156:24,1,96,2|0,1:0|0:0,0:0:0:0:
444,24,29930,1,10,0:1:0:0:
320,20,30099,1,10,0:0:0:0:
64,36,30267,6,0,L|256:36,1,192,2|8,1:0|0:1,0:0:0:0:
84,56,30773,1,2,0:0:0:0:
124,56,30829,1,2,0:0:0:0:
164,56,30885,1,2,0:0:0:0:
208,56,30942,2,0,L|112:56,1,96,2|2,1:0|0:0,0:0:0:0:
372,60,31279,2,0,L|476:60,1,96,10|10,0:1|0:0,0:0:0:0:
208,76,31616,6,0,P|148:116|216:188,1,192,2|8,1:0|0:1,0:0:0:0:
304,184,32121,1,0,0:0:0:0:
132,192,32290,2,0,L|48:192,1,48,8|8,1:2|0:0,0:0:0:0:
132,192,32458,2,0,L|192:192,1,48,8|8,0:0|0:0,0:0:0:0:
340,188,32627,2,0,L|408:188,1,48,8|8,1:2|1:2,0:0:0:0:
388,188,32796,2,0,L|332:188,1,48,8|8,1:2|1:2,0:0:0:0:
188,192,32964,5,0,1:0:0:0:
188,192,33133,1,0,1:0:0:0:
92,192,33301,2,0,L|200:192,1,96,2|2,0:0|0:0,0:0:0:0:
284,192,33638,2,0,L|180:192,1,96,2|2,0:0|0:0,0:0:0:0:
92,192,33975,2,0,L|88:84,1,96,2|2,0:0|0:0,0:0:0:0:
260,80,34312,5,0,1:0:0:0:
260,80,34481,1,0,1:0:0:0:
356,84,34649,2,0,L|356:200,1,96,2|2,0:0|0:0,0:0:0:0:
256,180,34987,2,0,L|256:296,1,96,2|2,0:0|0:0,0:0:0:0:
352,276,35324,2,0,L|480:276,1,96,2|2,0:0|0:0,0:0:0:0:
196,280,35661,5,0,1:0:0:0:
196,280,35829,1,0,1:0:0:0:
368,276,35998,2,0,L|368:156,1,96,2|2,0:0|0:0,0:0:0:0:
204,176,36335,2,0,L|320:176,1,96,2|2,0:0|0:0,0:0:0:0:
136,172,36672,2,0,L|136:56,1,96,2|2,0:0|0:0,0:0:0:0:
384,64,37009,5,0,1:0:0:0:
384,64,37178,1,0,1:0:0:0:
220,64,37346,2,0,L|316:60,1,96,2|2,0:0|0:0,0:0:0:0:
480,56,37683,1,10,0:0:0:0:
483,102,37767,1,8,1:2:0:0:
453,138,37851,1,10,1:2:0:0:
406,141,37935,1,8,1:2:0:0:
260,144,38020,2,0,L|180:144,1,48,10|8,1:2|1:2,0:0:0:0:
356,144,38189,2,0,L|416:140,1,48,10|8,1:2|1:2,0:0:0:0:
