osu file format v14

[General]
AudioFilename: audio.mp3
AudioLeadIn: 0
PreviewTime: 10970
Countdown: 0
SampleSet: Soft
StackLeniency: 0.3
Mode: 0
LetterboxInBreaks: 0
WidescreenStoryboard: 0

[Editor]
DistanceSpacing: 0.8
BeatDivisor: 4
GridSize: 16
TimelineZoom: 1

[Metadata]
Title:Insert Coin
TitleUnicode:Insert Coin
Artist:Thaehan
ArtistUnicode:Thaehan
Creator:Suzuki_1112
Version:Extra
Source:
Tags:Loki Electronic OMGWTF ! osu featured artist drum and bass dnb 8 bit 1112deng
BeatmapID:1651416
BeatmapSetID:786741

[Difficulty]
HPDrainRate:6
CircleSize:4
OverallDifficulty:8.7
ApproachRate:9.3
SliderMultiplier:1.8
SliderTickRate:1

[Events]
//Background and Video events
0,0,"8~75WBR~(8T56A4MHG`VY83.jpg",0,0
//Break Periods
//Storyboard Layer 0 (Background)
//Storyboard Layer 1 (Fail)
//Storyboard Layer 2 (Pass)
//Storyboard Layer 3 (Foreground)
//Storyboard Sound Samples

[TimingPoints]
605,337.078651685393,4,2,1,70,1,0

[Colours]
Combo1 : 255,176,216
Combo2 : 255,128,128

[HitObjects]
10,236,605,6,0,P|68:236|127:162,1,135,8|0,0:0|0:0,0:0:0:0:
109,152,942,2,0,P|105:113|146:44,1,90,0|2,0:0|0:0,0:0:0:0:
294,50,1279,6,0,L|228:48,3,45
351,126,1616,1,0,0:0:0:0:
355,153,1700,1,0,0:0:0:0:
358,174,1784,1,0,0:0:0:0:
362,201,1868,1,0,0:0:0:0:
367,228,1953,6,0,B|262:228|310:286|192:275,1,180,8|0,0:0|0:0,0:0:0:0:
84,342,2458,2,0,L|88:282,1,45,2|0,0:0|0:0,0:0:0:0:
56,217,2627,2,0,B|41:176|41:176|68:100,1,90
151,33,2964,1,0,0:0:0:0:
291,30,3133,1,0,0:0:0:0:
291,30,3217,1,0,0:0:0:0:
291,30,3301,6,0,P|283:112|383:134,1,180,8|0,0:0|0:0,0:0:0:0:
416,43,3722,1,0,0:0:0:0:
416,43,3807,2,0,L|469:49,1,45,2|0,0:0|0:0,0:0:0:0:
491,125,3975,2,0,L|476:336,1,180
228,368,4649,5,8,0:0:0:0:
175,268,4818,1,0,0:0:0:0:
241,175,4987,1,0,0:0:0:0:
228,368,5155,6,0,L|124:367,1,90,2|0,0:0|0:0,0:0:0:0:
47,325,5408,1,0,0:0:0:0:
45,295,5492,1,0,0:0:0:0:
43,267,5576,1,0,0:0:0:0:
10,258,5661,5,0,1:0:0:0:
11,236,5745,1,0,1:0:0:0:
12,210,5829,1,0,1:0:0:0:
14,188,5913,1,0,1:0:0:0:
16,164,5998,6,0,B|97:132|97:132|174:170,1,135,8|0,0:0|0:0,0:0:0:0:
166,170,6335,2,0,L|244:163,1,45
291,96,6503,1,2,0:0:0:0:
291,96,6588,1,0,0:0:0:0:
291,96,6672,5,0,1:0:0:0:
320,107,6756,1,0,1:0:0:0:
351,107,6840,1,0,1:0:0:0:
381,98,6925,1,0,1:0:0:0:
408,83,7009,5,0,0:0:0:0:
409,109,7093,1,0,0:0:0:0:
410,136,7178,1,0,0:0:0:0:
411,162,7262,1,0,0:0:0:0:
412,188,7346,6,0,B|400:229|400:229|431:255|431:255|455:325|364:359,1,180,8|0,0:0|0:0,0:0:0:0:
275,367,7852,2,0,B|268:343|268:343|280:300,1,45,2|0,0:0|0:0,0:0:0:0:
281,247,8020,6,0,B|293:206|293:206|262:180|262:180|238:110|329:76,1,180
131,57,8526,1,0,0:0:0:0:
131,57,8610,1,0,0:0:0:0:
131,57,8694,5,8,0:0:0:0:
98,243,9031,1,0,0:0:0:0:
265,331,9200,1,0,0:0:0:0:
265,331,9284,1,0,0:0:0:0:
265,331,9368,1,8,0:0:0:0:
401,200,9706,1,0,0:0:0:0:
318,30,10043,5,8,0:0:0:0:
365,117,10211,1,0,1:0:0:0:
365,117,10296,1,0,0:0:0:0:
365,117,10380,1,8,0:0:0:0:
191,225,10717,5,0,1:0:0:0:
191,225,10801,1,0,1:0:0:0:
191,225,10885,1,0,1:0:0:0:
191,225,10970,1,0,1:0:0:0:
191,225,11054,5,0,1:0:0:0:
92,260,11166,1,0,1:0:0:0:
108,157,11279,1,0,1:0:0:0:
191,225,11391,6,0,L|298:217,1,90,8|0,0:0|0:0,0:0:0:0:
280,218,11644,1,0,0:0:0:0:
280,218,11728,1,2,0:0:0:0:
462,176,11897,1,0,0:0:0:0:
470,143,11981,1,0,0:0:0:0:
471,109,12065,5,0,0:0:0:0:
463,76,12149,1,0,0:0:0:0:
448,46,12234,1,8,0:0:0:0:
238,25,12402,2,0,L|171:27,1,45,2|0,0:0|0:0,0:0:0:0:
100,102,12571,1,0,0:0:0:0:
100,102,12655,1,0,0:0:0:0:
100,102,12739,5,8,0:0:0:0:
206,238,12908,1,0,0:0:0:0:
214,204,12992,1,0,0:0:0:0:
208,172,13076,1,2,0:0:0:0:
88,351,13245,1,0,0:0:0:0:
88,351,13329,1,0,0:0:0:0:
88,351,13413,6,0,B|187:371|145:298|292:332,1,180,8|2,0:0|0:0,0:0:0:0:
421,307,13919,1,8,0:0:0:0:
421,307,14003,1,2,0:0:0:0:
421,307,14088,6,0,P|403:240|427:196,1,90,8|0,0:0|0:0,0:0:0:0:
443,148,14340,1,0,0:0:0:0:
443,148,14425,1,2,0:0:0:0:
251,89,14593,2,0,P|226:94|191:90,1,45
325,43,14762,6,0,L|331:165,1,90,0|8,0:0|0:0,0:0:0:0:
178,252,15015,1,0,0:0:0:0:
178,252,15099,2,0,L|173:162,1,90,2|0,0:0|0:0,0:0:0:0:
93,130,15352,1,0,0:0:0:0:
93,130,15436,5,8,0:0:0:0:
124,329,15604,1,8,0:0:0:0:
280,182,15773,1,2,0:0:0:0:
124,329,15942,6,0,L|132:391,2,45,8|2|8,0:0|0:0|0:0,0:0:0:0:
280,182,16279,1,0,0:0:0:0:
277,203,16363,1,0,0:0:0:0:
274,224,16447,5,0,1:0:0:0:
317,236,16531,1,0,1:0:0:0:
362,235,16615,1,0,1:0:0:0:
404,222,16699,1,0,1:0:0:0:
433,192,16784,6,0,L|422:307,1,90,8|0,0:0|0:0,0:0:0:0:
466,354,17037,1,0,0:0:0:0:
466,354,17121,1,2,0:0:0:0:
495,52,17290,2,0,L|440:59,1,45
370,42,17458,5,0,0:0:0:0:
336,42,17542,1,0,0:0:0:0:
302,46,17626,1,8,0:0:0:0:
271,58,17710,1,0,0:0:0:0:
243,77,17795,5,2,0:0:0:0:
215,96,17879,1,0,1:0:0:0:
183,107,17963,1,0,1:0:0:0:
150,111,18047,1,0,1:0:0:0:
116,109,18133,6,0,L|119:218,1,90,8|0,0:0|0:0,0:0:0:0:
175,264,18385,1,0,0:0:0:0:
175,264,18470,1,2,0:0:0:0:
304,375,18638,1,8,0:0:0:0:
315,344,18722,1,2,0:0:0:0:
311,311,18807,6,0,B|204:304|254:382|114:345,1,180,8|2,0:0|0:0,0:0:0:0:
27,247,19312,2,0,L|38:168,1,45
5,131,19481,5,8,0:0:0:0:
139,157,19649,1,0,0:0:0:0:
136,179,19734,1,0,0:0:0:0:
133,202,19818,1,2,0:0:0:0:
258,58,19987,5,0,0:0:0:0:
254,33,20071,1,0,0:0:0:0:
249,8,20155,1,0,0:0:0:0:
425,206,20324,5,8,0:0:0:0:
422,228,20409,1,0,0:0:0:0:
419,251,20493,1,2,0:0:0:0:
260,356,20661,5,0,0:0:0:0:
260,356,20745,1,0,0:0:0:0:
260,356,20829,2,0,P|247:286|271:247,1,90,8|0,0:0|0:0,0:0:0:0:
268,193,21082,1,0,0:0:0:0:
268,193,21166,2,0,L|146:205,1,90,2|0,0:0|0:0,0:0:0:0:
121,116,21419,1,0,0:0:0:0:
121,116,21503,6,0,B|176:110|176:110|199:120|199:120|276:113,1,135,8|0,0:0|0:0,0:0:0:0:
358,131,21840,5,0,1:0:0:0:
321,37,21953,1,0,1:0:0:0:
253,115,22065,1,0,1:0:0:0:
358,131,22178,6,0,L|479:123,1,90,8|0,0:0|0:0,0:0:0:0:
346,288,22515,2,0,L|225:296,1,90,2|0,0:0|0:0,0:0:0:0:
240,295,22739,1,0,0:0:0:0:
224,296,22796,1,0,0:0:0:0:
205,298,22852,5,0,0:0:0:0:
139,375,23020,2,0,L|199:380,1,45,8|0,0:0|0:0,0:0:0:0:
273,212,23189,2,0,L|213:217,1,45,2|0,0:0|0:0,0:0:0:0:
296,117,23357,1,0,0:0:0:0:
296,117,23442,1,0,0:0:0:0:
296,117,23526,6,0,L|163:127,1,90,8|0,0:0|0:0,0:0:0:0:
128,129,23779,1,0,0:0:0:0:
128,129,23863,1,2,0:0:0:0:
89,348,24031,1,0,0:0:0:0:
81,322,24116,1,0,0:0:0:0:
83,293,24200,6,0,P|149:283|181:298,1,90,0|8,0:0|0:0,0:0:0:0:
251,302,24453,1,0,0:0:0:0:
251,302,24537,2,0,L|359:292,1,90,2|0,0:0|0:0,0:0:0:0:
417,276,24790,1,0,0:0:0:0:
417,276,24874,5,8,0:0:0:0:
345,35,25043,1,0,0:0:0:0:
345,35,25127,1,0,0:0:0:0:
345,35,25211,2,0,P|334:94|352:128,1,90,2|0,0:0|0:0,0:0:0:0:
354,132,25436,1,0,0:0:0:0:
363,139,25492,1,0,0:0:0:0:
373,148,25548,6,0,L|266:138,1,90,0|8,0:0|0:0,0:0:0:0:
187,43,25885,1,2,0:0:0:0:
153,44,25969,1,0,1:0:0:0:
119,46,26053,1,0,1:0:0:0:
85,48,26137,1,0,1:0:0:0:
52,49,26222,5,8,0:0:0:0:
127,221,26391,1,0,0:0:0:0:
127,221,26475,1,0,0:0:0:0:
127,221,26560,1,2,0:0:0:0:
187,43,26728,5,0,0:0:0:0:
186,71,26812,1,0,0:0:0:0:
184,99,26897,5,0,1:0:0:0:
223,119,26981,1,0,1:0:0:0:
268,123,27065,1,8,0:0:0:0:
310,109,27149,1,0,1:0:0:0:
345,81,27234,1,2,0:0:0:0:
477,235,27402,2,0,P|472:266|481:300,1,45,0|0,1:0|0:0,0:0:0:0:
512,154,27571,6,0,L|396:150,1,90,8|0,0:0|0:0,0:0:0:0:
204,361,27908,2,0,L|320:357,1,90,2|0,0:0|0:0,0:0:0:0:
307,357,28133,1,0,0:0:0:0:
322,357,28189,1,0,0:0:0:0:
335,357,28245,6,0,P|348:303|331:260,1,90,0|8,0:0|0:0,0:0:0:0:
301,90,28582,2,0,L|238:98,1,45,2|0,0:0|0:0,0:0:0:0:
170,217,28751,1,0,0:0:0:0:
170,217,28835,1,0,0:0:0:0:
170,217,28919,6,0,L|74:213,1,90,8|0,0:0|0:0,0:0:0:0:
73,58,29172,1,0,0:0:0:0:
73,58,29256,2,0,L|169:54,1,90,2|0,0:0|0:0,0:0:0:0:
256,133,29509,1,0,0:0:0:0:
256,133,29593,6,0,P|244:195|253:225,1,90,0|8,0:0|0:0,0:0:0:0:
380,337,29930,1,2,0:0:0:0:
403,298,30014,1,0,1:0:0:0:
412,254,30098,1,0,1:0:0:0:
408,210,30182,1,0,1:0:0:0:
389,169,30267,5,8,0:0:0:0:
286,39,30436,1,0,0:0:0:0:
286,39,30520,1,0,0:0:0:0:
286,39,30604,1,2,0:0:0:0:
152,143,30773,5,0,0:0:0:0:
153,152,30829,1,0,0:0:0:0:
153,162,30885,1,0,0:0:0:0:
154,173,30942,1,0,0:0:0:0:
240,369,31110,1,8,0:0:0:0:
383,196,31279,6,0,L|317:199,1,45,2|0,0:0|0:0,0:0:0:0:
208,293,31447,1,0,1:0:0:0:
164,296,31531,1,0,1:0:0:0:
125,299,31616,5,8,0:0:0:0:
32,108,31784,1,0,0:0:0:0:
24,70,31869,1,0,0:0:0:0:
32,34,31953,1,2,0:0:0:0:
256,112,32121,5,0,0:0:0:0:
263,146,32206,1,0,0:0:0:0:
256,179,32290,5,0,1:0:0:0:
312,175,32374,1,0,1:0:0:0:
368,172,32458,1,0,1:0:0:0:
424,169,32542,1,0,1:0:0:0:
475,166,32627,5,0,1:0:0:0:
445,199,32711,1,0,1:0:0:0:
430,241,32795,1,0,1:0:0:0:
432,286,32879,1,0,1:0:0:0:
451,326,32964,5,8,0:0:0:0:
320,272,33133,1,8,0:0:0:0:
256,368,33301,5,0,0:0:0:0:
451,326,33470,1,0,0:0:0:0:
384,176,33638,5,0,0:0:0:0:
256,368,33807,1,8,0:0:0:0:
160,160,33975,5,0,0:0:0:0:
384,176,34144,1,0,0:0:0:0:
61,326,34312,5,8,0:0:0:0:
192,272,34481,1,8,0:0:0:0:
256,368,34649,5,0,0:0:0:0:
61,326,34818,1,0,0:0:0:0:
128,176,34986,5,0,0:0:0:0:
256,368,35155,1,8,0:0:0:0:
352,160,35323,5,0,0:0:0:0:
128,176,35492,1,0,0:0:0:0:
256,80,35661,5,8,0:0:0:0:
288,224,35829,1,8,0:0:0:0:
400,16,35998,5,0,0:0:0:0:
288,224,36166,1,0,0:0:0:0:
432,256,36335,5,0,0:0:0:0:
400,16,36503,1,8,0:0:0:0:
288,224,36672,5,0,0:0:0:0:
512,128,36840,1,0,0:0:0:0:
256,80,37009,5,8,0:0:0:0:
224,224,37177,1,8,0:0:0:0:
112,16,37346,5,0,0:0:0:0:
224,224,37514,1,0,0:0:0:0:
80,256,37683,6,0,L|92:184,1,45,8|0,0:0|0:0,1:0:0:0:
112,16,37852,2,0,L|103:95,1,45,8|0,0:0|0:0,1:0:0:0:
224,224,38020,6,0,L|156:194,1,45,8|0,0:0|0:0,1:0:0:0:
0,128,38189,2,0,L|59:155,1,45,8|0,0:0|0:0,1:0:0:0:
