osu file format v14

[General]
AudioFilename: audio.mp3
AudioLeadIn: 0
PreviewTime: 11030
Countdown: 0
SampleSet: Soft
StackLeniency: 0.7
Mode: 2
LetterboxInBreaks: 0
WidescreenStoryboard: 1

[Editor]
Bookmarks: 5384,15496,16170,27631
DistanceSpacing: 1
BeatDivisor: 4
GridSize: 4
TimelineZoom: 3.099999

[Metadata]
Title:Insert Coin
TitleUnicode:Insert Coin
Artist:Thaehan
ArtistUnicode:Thaehan
Creator:Souvenir
Version:Salad
Source:osu!
Tags:omgwtf! chiptune loki featured artist fa 8bit 8-bit electronic instrumental
BeatmapID:2809924
BeatmapSetID:1357790

[Difficulty]
HPDrainRate:3
CircleSize:3
OverallDifficulty:7
ApproachRate:7
SliderMultiplier:1.4
SliderTickRate:1

[Events]
//Background and Video events
0,0,"thaehanset1.jpg",0,0
//Break Periods
//Storyboard Layer 0 (Background)
//Storyboard Layer 1 (Fail)
//Storyboard Layer 2 (Pass)
//Storyboard Layer 3 (Foreground)
//Storyboard Layer 4 (Overlay)
//Storyboard Sound Samples

[TimingPoints]
665,337.078651685393,4,2,1,35,1,0
11451,-100,4,2,1,42,0,1
21900,-100,4,2,1,35,0,0
33024,-100,4,2,1,42,0,0
33361,-100,4,2,1,35,0,0
34372,-100,4,2,1,42,0,0
34709,-100,4,2,1,40,0,0
35721,-100,4,2,1,42,0,0
36058,-100,4,2,1,45,0,0
37069,-100,4,2,1,42,0,0
37406,-100,4,2,1,50,0,0

[Colours]
Combo1 : 114,114,114
Combo2 : 189,222,255
Combo3 : 207,207,207
Combo4 : 1,96,190

[HitObjects]
488,192,665,6,0,L|348:192,1,140,12|0,0:0|1:2,0:0:0:0:
280,192,1170,1,0,1:0:0:0:
348,104,1339,2,0,L|424:104,2,70,8|0|0,0:0|0:0|1:2,0:0:0:0:
68,188,2013,6,0,P|36:228|68:308,1,140,8|0,0:0|1:0,0:0:0:0:
136,289,2518,1,0,1:0:0:0:
208,280,2687,2,0,L|356:280,1,140,8|0,0:0|1:0,0:0:0:0:
68,116,3361,6,0,L|68:256,1,140,8|0,0:0|1:0,0:0:0:0:
140,256,3867,1,0,1:0:0:0:
300,68,4035,2,0,L|440:68,1,140,8|0,0:0|1:0,0:0:0:0:
160,248,4709,6,0,L|84:248,2,70,8|0|0,0:0|0:0|1:0,0:0:0:0:
232,248,5215,1,0,1:0:0:0:
392,244,5384,2,0,B|464:244|464:244|396:244,1,140,8|0,0:0|1:0,0:0:0:0:
324,244,5889,1,0,1:0:0:0:
164,88,6058,6,0,B|92:88|92:88|188:88,1,140,12|0,0:0|1:0,0:0:0:0:
440,140,6732,2,0,L|440:288,1,140,8|0,0:0|1:0,0:0:0:0:
368,276,7238,1,0,1:0:0:0:
208,280,7406,6,0,L|60:280,1,140,8|0,0:0|1:0,0:0:0:0:
140,212,7912,1,0,1:0:0:0:
300,216,8080,2,0,L|440:216,1,140,8|0,0:0|1:0,0:0:0:0:
160,136,8754,6,0,L|160:276,1,140,8|0,0:0|1:0,0:0:0:0:
300,276,9429,2,0,L|300:132,1,140,8|0,0:0|1:0,0:0:0:0:
455,91,10103,6,0,L|385:91,1,70,8|0,0:0|0:0,0:0:0:0:
308,184,10440,2,0,P|272:167|320:98,1,140,0|8,1:0|0:0,0:0:0:0:
384,103,10945,2,0,L|461:103,1,70,0|0,0:0|1:0,0:0:0:0:
169,103,11451,6,0,B|93:100|93:100|180:99,1,140,12|8,0:0|1:2,0:0:0:0:
227,102,11957,1,0,1:0:0:0:
295,102,12125,2,0,B|367:102|367:102|299:102,1,140,8|8,0:0|1:2,0:0:0:0:
227,102,12631,1,0,1:0:0:0:
59,102,12799,6,0,L|207:102,1,140,12|8,0:0|1:2,0:0:0:0:
367,98,13473,2,0,L|367:246,1,140,8|8,0:0|1:2,0:0:0:0:
79,242,14148,6,0,P|75:202|163:158,1,140,12|8,0:0|1:2,0:0:0:0:
435,242,14822,1,8,0:0:0:0:
435,174,14990,1,0,0:0:0:0:
363,174,15159,1,8,1:2:0:0:
79,218,15496,6,0,L|79:142,1,70,12|0,0:0|0:0,0:0:0:0:
155,137,15833,2,0,L|155:50,1,70,8|0,1:2|1:0,0:0:0:0:
230,132,16170,2,0,L|376:132,1,140,8|8,0:0|1:2,0:0:0:0:
373,101,16676,1,0,1:0:0:0:
206,248,16844,6,0,B|134:248|134:248|226:248,1,140,12|8,0:0|1:2,0:0:0:0:
275,248,17350,1,0,1:0:0:0:
441,60,17518,2,0,B|441:211,1,140,8|8,0:0|1:2,0:0:0:0:
365,191,18024,1,0,1:0:0:0:
197,285,18193,6,0,L|361:285,1,140,12|8,0:0|1:2,0:0:0:0:
184,205,18867,2,0,P|142:150|202:94,1,140,8|8,0:0|1:2,0:0:0:0:
451,50,19541,6,0,L|303:50,1,140,12|8,0:0|1:2,0:0:0:0:
239,50,20047,1,0,1:0:0:0:
71,54,20215,2,0,L|71:202,1,140,8|8,0:0|1:2,0:0:0:0:
351,54,20889,6,0,B|351:198|351:198|207:198,1,280,12|8,0:0|0:0,0:0:0:0:
59,195,21900,1,0,1:0:0:0:
332,279,22238,6,0,L|488:279,1,140,12|0,0:0|1:0,0:0:0:0:
400,200,22743,1,0,0:0:0:0:
472,200,22912,2,0,L|472:60,1,140,8|0,0:0|1:0,0:0:0:0:
192,60,23586,6,0,L|336:60,1,140,8|0,0:0|1:0,0:0:0:0:
400,60,24091,1,0,0:0:0:0:
472,60,24260,2,0,L|472:212,1,140,8|0,0:0|1:0,0:0:0:0:
192,206,24934,6,0,L|344:206,1,140,8|0,0:0|1:0,0:0:0:0:
260,132,25440,1,0,0:0:0:0:
188,136,25608,2,0,L|188:280,1,140,8|0,0:0|1:0,0:0:0:0:
456,208,26282,6,0,L|304:208,1,140,8|0,0:0|1:0,0:0:0:0:
244,206,26788,1,0,0:0:0:0:
404,92,26957,1,8,0:0:0:0:
472,92,27125,1,0,0:0:0:0:
472,92,27294,1,0,1:0:0:0:
404,92,27462,1,0,1:0:0:0:
244,206,27631,6,0,L|96:206,1,140,8|0,0:0|1:0,0:0:0:0:
172,206,28136,1,0,0:0:0:0:
244,206,28305,2,0,L|398:206,1,140,8|0,0:0|1:0,0:0:0:0:
103,114,28979,6,0,L|251:114,1,140,8|0,0:0|1:0,0:0:0:0:
311,114,29485,1,0,0:0:0:0:
243,114,29653,2,0,L|94:115,1,140,8|0,0:0|1:0,0:0:0:0:
176,115,30159,1,0,1:0:0:0:
336,196,30327,6,0,B|405:197|405:197|313:196,1,140,8|0,0:0|1:0,0:0:0:0:
264,197,30833,1,0,0:0:0:0:
104,97,31002,1,8,0:0:0:0:
44,97,31170,1,0,0:0:0:0:
44,97,31339,1,0,1:0:0:0:
104,97,31507,1,0,1:0:0:0:
264,64,31676,6,0,L|404:64,1,140,8|0,0:0|1:0,0:0:0:0:
144,52,32350,2,0,L|74:52,1,70,8|0,0:0|0:0,0:0:0:0:
145,135,32687,2,0,L|215:135,1,70,0|0,1:0|1:0,0:0:0:0:
63,216,33024,5,12,0:0:0:0:
63,216,33193,1,8,0:0:0:0:
220,216,33361,1,0,0:0:0:0:
292,216,33698,1,0,0:0:0:0:
220,216,34035,1,0,0:0:0:0:
484,188,34372,5,12,0:0:0:0:
484,188,34541,1,8,0:0:0:0:
328,192,34709,1,0,0:0:0:0:
224,192,35047,1,0,0:0:0:0:
328,192,35384,1,0,0:0:0:0:
40,184,35721,5,12,0:0:0:0:
40,184,35889,1,8,0:0:0:0:
196,184,36058,2,0,L|348:184,2,140
484,264,37069,5,12,0:0:0:0:
484,264,37238,1,8,0:0:0:0:
328,264,37406,2,0,L|176:264,1,140,0|0,0:0|1:0,0:0:0:0:
258,231,37912,1,0,0:0:0:0:
328,221,38080,1,0,1:0:0:0:
