osu file format v14

[General]
AudioFilename: audio.mp3
AudioLeadIn: 0
PreviewTime: 11030
Countdown: 0
SampleSet: Soft
StackLeniency: 0.7
Mode: 2
LetterboxInBreaks: 0
WidescreenStoryboard: 1

[Editor]
Bookmarks: 13136,15496,27631
DistanceSpacing: 1
BeatDivisor: 4
GridSize: 4
TimelineZoom: 3.099999

[Metadata]
Title:Insert Coin
TitleUnicode:Insert Coin
Artist:Thaehan
ArtistUnicode:Thaehan
Creator:Souvenir
Version:Platter
Source:osu!
Tags:omgwtf! chiptune loki featured artist fa 8bit 8-bit electronic instrumental
BeatmapID:2809922
BeatmapSetID:1357790

[Difficulty]
HPDrainRate:4
CircleSize:3.5
OverallDifficulty:8
ApproachRate:8
SliderMultiplier:1.6
SliderTickRate:2

[Events]
//Background and Video events
0,0,"thaehanset1.jpg",0,0
//Break Periods
//Storyboard Layer 0 (Background)
//Storyboard Layer 1 (Fail)
//Storyboard Layer 2 (Pass)
//Storyboard Layer 3 (Foreground)
//Storyboard Layer 4 (Overlay)
//Storyboard Sound Samples

[TimingPoints]
665,337.078651685393,4,2,1,35,1,0
11451,-100,4,2,1,42,0,1
21900,-100,4,2,1,35,0,0
33024,-100,4,2,1,42,0,0
33361,-100,4,2,1,35,0,0
34372,-100,4,2,1,42,0,0
34709,-100,4,2,1,40,0,0
35721,-100,4,2,1,42,0,0
36058,-100,4,2,1,45,0,0
37069,-100,4,2,1,42,0,0
37406,-100,4,2,1,50,0,0

[Colours]
Combo1 : 114,114,114
Combo2 : 189,222,255
Combo3 : 207,207,207
Combo4 : 1,96,190

[HitObjects]
80,196,665,6,0,L|180:196,1,80,12|0,0:0|0:0,0:0:0:0:
332,196,1002,1,0,1:2:0:0:
372,196,1086,1,0,0:0:0:0:
372,196,1170,1,0,1:0:0:0:
332,196,1254,1,0,0:0:0:0:
292,196,1339,2,0,L|196:196,1,80,8|0,0:0|0:0,0:0:0:0:
40,192,1676,1,0,1:2:0:0:
120,192,1844,1,0,1:0:0:0:
356,221,2013,6,0,P|392:205|332:121,1,160,8|0,0:0|1:0,0:0:0:0:
276,119,2518,1,0,1:0:0:0:
106,265,2687,2,0,P|50:218|117:172,1,160,8|0,0:0|1:0,0:0:0:0:
179,127,3193,1,0,0:0:0:0:
416,128,3361,6,0,L|416:48,1,80,8|0,0:0|0:0,0:0:0:0:
336,48,3698,1,0,1:0:0:0:
376,48,3782,1,0,0:0:0:0:
416,48,3867,1,0,1:0:0:0:
248,72,4035,2,0,L|164:72,1,80,8|0,0:0|0:0,0:0:0:0:
252,144,4372,2,0,L|348:144,1,80,0|0,1:0|1:0,0:0:0:0:
178,203,4709,5,8,0:0:0:0:
332,200,4878,1,0,0:0:0:0:
412,200,5047,1,0,1:0:0:0:
324,200,5215,1,0,1:0:0:0:
152,200,5384,1,8,0:0:0:0:
72,200,5552,1,0,0:0:0:0:
64,200,5721,1,0,1:0:0:0:
144,200,5889,1,0,1:0:0:0:
380,208,6058,6,0,L|480:208,1,80,12|0,0:0|0:0,0:0:0:0:
288,208,6395,1,0,1:0:0:0:
248,208,6479,1,0,0:0:0:0:
248,208,6563,1,0,1:0:0:0:
288,208,6648,1,0,0:0:0:0:
328,208,6732,2,0,L|232:208,1,80,8|0,0:0|0:0,0:0:0:0:
76,212,7069,1,0,1:0:0:0:
156,212,7238,1,0,1:0:0:0:
391,208,7406,6,0,P|423:192|379:88,1,160,8|0,0:0|0:0,0:0:0:0:
318,92,7912,1,0,1:0:0:0:
148,189,8080,2,0,P|116:173|102:60,1,160,8|0,0:0|1:0,0:0:0:0:
179,51,8586,1,0,0:0:0:0:
420,120,8754,6,0,P|472:188|412:232,1,160,8|0,0:0|1:0,0:0:0:0:
352,240,9260,1,0,1:0:0:0:
116,240,9429,2,0,L|116:160,1,80,8|0,0:0|0:0,0:0:0:0:
196,160,9766,2,0,L|196:76,1,80,0|0,1:0|1:0,0:0:0:0:
368,84,10103,5,8,0:0:0:0:
288,126,10271,1,0,0:0:0:0:
248,126,10356,1,0,0:0:0:0:
208,126,10440,1,0,1:0:0:0:
324,240,10777,1,8,0:0:0:0:
364,240,10861,1,0,0:0:0:0:
364,240,10945,1,0,0:0:0:0:
324,240,11030,1,0,0:0:0:0:
284,240,11114,2,0,L|216:240,2,53.3333333333333,0|0|0,1:0|1:0|1:0,0:0:0:0:
392,160,11451,6,0,L|492:160,1,80,12|0,0:0|0:0,0:0:0:0:
300,160,11788,2,0,L|208:160,1,80,8|0,1:2|1:0,0:0:0:0:
300,76,12125,2,0,L|400:76,1,80,8|0,0:0|0:0,0:0:0:0:
208,76,12462,2,0,L|128:76,1,80,8|0,1:2|1:0,0:0:0:0:
376,312,12799,6,0,L|456:312,1,80,12|0,0:0|0:0,0:0:0:0:
496,260,13052,1,0,0:0:0:0:
456,208,13136,2,0,L|376:208,1,80,8|0,1:2|1:0,0:0:0:0:
132,140,13473,2,0,B|52:140|52:140|144:140,1,160,8|8,0:0|1:2,0:0:0:0:
212,80,13979,1,0,1:0:0:0:
452,152,14148,6,0,P|452:104|356:48,1,160,12|8,0:0|1:2,0:0:0:0:
288,44,14653,1,0,0:0:0:0:
48,56,14822,2,0,L|48:146,1,80,8|0,0:0|0:0,0:0:0:0:
208,55,15159,2,0,L|116:55,1,80,8|0,1:2|1:0,0:0:0:0:
368,64,15496,5,12,0:0:0:0:
448,64,15664,1,0,0:0:0:0:
448,64,15833,1,8,1:2:0:0:
368,64,16002,1,0,1:0:0:0:
208,64,16170,1,8,0:0:0:0:
128,66,16339,1,0,0:0:0:0:
128,66,16507,1,8,1:2:0:0:
208,64,16676,1,0,1:0:0:0:
448,68,16844,6,0,P|464:104|372:184,1,160,12|8,0:0|1:2,0:0:0:0:
316,188,17350,1,0,0:0:0:0:
76,144,17518,2,0,L|76:232,1,80,8|0,0:0|0:0,0:0:0:0:
248,204,17856,2,0,L|332:204,1,80,8|0,1:2|1:0,0:0:0:0:
88,100,18193,6,0,L|88:196,1,80,12|0,0:0|0:0,0:0:0:0:
128,252,18445,1,0,0:0:0:0:
168,256,18530,2,0,L|168:176,1,80,8|0,1:2|1:0,0:0:0:0:
412,216,18867,2,0,B|492:216|492:216|400:216,1,160,8|8,0:0|1:2,0:0:0:0:
332,216,19372,1,0,1:0:0:0:
96,276,19541,6,0,L|96:174,1,80,12|0,0:0|0:0,0:0:0:0:
180,238,19878,2,0,L|260:238,1,80,8|0,1:2|1:0,0:0:0:0:
430,178,20215,2,0,L|347:178,1,80,8|0,0:0|0:0,0:0:0:0:
265,92,20552,2,0,L|352:93,1,80,8|0,1:2|1:0,0:0:0:0:
100,128,20889,5,12,0:0:0:0:
20,128,21058,1,0,0:0:0:0:
20,128,21142,1,0,0:0:0:0:
20,128,21226,2,0,L|120:128,1,80,8|0,1:2|1:0,0:0:0:0:
260,192,21563,2,0,L|180:192,1,80,8|0,0:0|0:0,0:0:0:0:
420,232,21900,2,0,L|488:232,2,53.3333333333333,0|0|0,1:0|1:0|1:0,0:0:0:0:
312,232,22238,6,0,L|140:232,1,160,12|0,0:0|1:0,0:0:0:0:
232,116,22743,1,0,0:0:0:0:
272,116,22827,1,0,0:0:0:0:
312,116,22912,2,0,L|404:116,1,80,8|0,0:0|0:0,0:0:0:0:
220,280,23249,2,0,L|220:236,2,40,0|0|0,1:0|0:0|1:0,0:0:0:0:
392,176,23586,6,0,L|216:176,1,160,8|0,0:0|1:0,0:0:0:0:
152,180,24091,1,0,0:0:0:0:
112,180,24175,1,0,0:0:0:0:
72,180,24260,2,0,L|164:180,1,80,8|0,0:0|0:0,0:0:0:0:
324,120,24597,2,0,L|324:76,2,40,0|0|0,1:0|0:0|1:0,0:0:0:0:
88,256,24934,6,0,L|264:256,1,160,8|0,0:0|1:0,0:0:0:0:
328,184,25440,1,0,0:0:0:0:
288,184,25524,1,0,0:0:0:0:
248,184,25609,2,0,L|156:184,1,80,8|0,0:0|0:0,0:0:0:0:
338,115,25946,2,0,L|338:71,2,40,0|0|0,1:0|0:0|1:0,0:0:0:0:
168,256,26282,6,0,L|356:256,1,160,8|0,0:0|1:0,0:0:0:0:
410,116,26788,1,0,0:0:0:0:
370,116,26872,1,0,0:0:0:0:
330,116,26957,2,0,L|242:116,1,80,8|0,0:0|0:0,0:0:0:0:
78,168,27294,2,0,L|176:168,1,80,0|0,1:0|1:0,0:0:0:0:
402,182,27631,6,0,P|458:228|436:310,1,160,8|0,0:0|1:0,0:0:0:0:
360,317,28136,1,0,0:0:0:0:
320,317,28221,1,0,0:0:0:0:
280,317,28305,2,0,L|172:317,1,80,8|0,0:0|0:0,0:0:0:0:
370,209,28642,1,0,1:0:0:0:
410,209,28726,1,0,0:0:0:0:
450,209,28811,1,0,1:0:0:0:
210,197,28979,6,0,P|174:169|230:77,1,160,8|0,0:0|1:0,0:0:0:0:
296,28,29485,1,0,0:0:0:0:
336,28,29569,1,0,0:0:0:0:
376,28,29653,2,0,L|288:28,1,80,8|0,0:0|0:0,0:0:0:0:
124,36,29990,1,0,1:0:0:0:
84,36,30075,1,0,0:0:0:0:
44,36,30159,1,0,1:0:0:0:
280,44,30327,6,0,L|452:44,1,160,8|0,0:0|1:0,0:0:0:0:
268,120,30833,1,0,0:0:0:0:
228,120,30917,1,0,0:0:0:0:
188,120,31002,2,0,L|92:120,1,80,8|0,0:0|0:0,0:0:0:0:
280,200,31339,2,0,L|376:200,1,80,0|0,1:0|1:0,0:0:0:0:
120,196,31676,6,0,L|120:296,1,80,8|0,0:0|0:0,0:0:0:0:
206,224,32013,2,0,L|308:224,1,80,0|0,1:0|0:0,0:0:0:0:
116,142,32350,2,0,L|72:142,2,40,8|0|0,0:0|0:0|0:0,0:0:0:0:
205,140,32687,2,0,L|249:140,1,40,0|0,1:0|0:0,0:0:0:0:
288,142,32856,1,0,1:0:0:0:
52,188,33024,5,12,0:0:0:0:
52,188,33193,1,8,0:0:0:0:
132,188,33361,1,0,0:0:0:0:
132,188,33530,1,0,0:0:0:0:
52,188,33698,1,0,0:0:0:0:
52,188,33867,1,0,0:0:0:0:
132,188,34035,1,0,0:0:0:0:
132,188,34204,1,0,0:0:0:0:
368,184,34372,5,12,0:0:0:0:
368,184,34541,1,8,0:0:0:0:
448,180,34709,1,0,0:0:0:0:
448,180,34878,1,0,0:0:0:0:
368,184,35047,1,0,0:0:0:0:
368,184,35215,1,0,0:0:0:0:
448,180,35384,1,0,0:0:0:0:
448,180,35552,1,0,0:0:0:0:
212,180,35721,5,12,0:0:0:0:
132,180,35889,1,8,0:0:0:0:
368,184,36058,1,0,0:0:0:0:
368,184,36226,1,0,0:0:0:0:
448,180,36395,1,0,0:0:0:0:
448,180,36563,1,0,0:0:0:0:
368,184,36732,1,0,0:0:0:0:
368,184,36900,1,0,0:0:0:0:
120,196,37069,5,12,0:0:0:0:
40,196,37238,1,8,0:0:0:0:
284,200,37406,1,0,0:0:0:0:
284,200,37575,1,0,0:0:0:0:
120,196,37743,5,0,1:0:0:0:
120,196,37827,1,0,0:0:0:0:
120,196,37912,1,0,0:0:0:0:
284,200,38080,1,0,1:0:0:0:
284,200,38164,1,0,0:0:0:0:
284,200,38249,1,0,0:0:0:0:
