osu file format v14

[General]
AudioFilename: audio.mp3
AudioLeadIn: 0
PreviewTime: 11030
Countdown: 0
SampleSet: Soft
StackLeniency: 0.7
Mode: 2
LetterboxInBreaks: 0
WidescreenStoryboard: 0

[Editor]
Bookmarks: 15496,27631
DistanceSpacing: 1
BeatDivisor: 4
GridSize: 4
TimelineZoom: 3.099999

[Metadata]
Title:Insert Coin
TitleUnicode:Insert Coin
Artist:Thaehan
ArtistUnicode:Thaehan
Creator:Souvenir
Version:Game Start!
Source:osu!
Tags:omgwtf! chiptune loki featured artist fa 8bit 8-bit electronic instrumental
BeatmapID:2809920
BeatmapSetID:1357790

[Difficulty]
HPDrainRate:6
CircleSize:4.5
OverallDifficulty:9.3
ApproachRate:9.3
SliderMultiplier:2.22
SliderTickRate:2

[Events]
//Background and Video events
0,0,"thaehanset1.jpg",0,0
//Break Periods
//Storyboard Layer 0 (Background)
//Storyboard Layer 1 (Fail)
//Storyboard Layer 2 (Pass)
//Storyboard Layer 3 (Foreground)
//Storyboard Layer 4 (Overlay)
//Storyboard Sound Samples

[TimingPoints]
665,337.078651685393,4,2,1,35,1,0
11451,-100,4,2,1,42,0,1
21900,-100,4,2,1,35,0,0
33024,-100,4,2,1,42,0,0
33361,-100,4,2,1,35,0,0
34372,-100,4,2,1,42,0,0
34709,-100,4,2,1,40,0,0
35721,-100,4,2,1,42,0,0
36058,-100,4,2,1,45,0,0
37069,-100,4,2,1,42,0,0
37406,-100,4,2,1,50,0,0

[Colours]
Combo1 : 114,114,114
Combo2 : 189,222,255
Combo3 : 207,207,207
Combo4 : 1,96,190

[HitObjects]
352,95,665,6,0,L|352:275,1,166.5,12|0,0:0|0:0,0:0:0:0:
180,127,1002,2,0,L|104:127,1,55.5,0|0,1:2|0:0,0:0:0:0:
296,247,1170,2,0,L|368:247,1,55.5,0|0,1:0|0:0,0:0:0:0:
260,175,1339,2,0,L|260:115,1,55.5,8|0,0:0|0:0,0:0:0:0:
332,111,1507,2,0,L|332:39,1,55.5
240,47,1676,2,0,L|176:47,1,55.5,0|0,1:2|0:0,0:0:0:0:
352,191,1844,2,0,L|416:191,1,55.5,0|0,1:0|0:0,0:0:0:0:
208,231,2013,6,0,P|144:167|212:71,1,222,8|0,0:0|1:0,0:0:0:0:
428,71,2518,2,0,L|368:71,1,55.5,0|0,1:0|0:0,0:0:0:0:
460,71,2687,2,0,L|460:199,1,111,8|0,0:0|0:0,0:0:0:0:
296,175,3024,1,0,1:0:0:0:
72,175,3193,2,0,L|8:175,1,55.5,0|0,1:0|0:0,0:0:0:0:
212,175,3361,6,0,P|252:247|200:323,1,166.5,8|0,0:0|0:0,0:0:0:0:
160,315,3698,2,0,L|96:315,1,55.5,0|0,1:0|0:0,0:0:0:0:
280,319,3867,2,0,L|340:319,1,55.5,0|0,1:0|0:0,0:0:0:0:
140,239,4035,2,0,L|140:119,1,111,8|0,0:0|0:0,0:0:0:0:
304,119,4372,2,0,L|304:247,1,111,0|0,1:0|1:0,0:0:0:0:
72,111,4709,5,8,0:0:0:0:
228,111,4878,1,0,0:0:0:0:
72,191,5047,1,0,1:0:0:0:
296,199,5215,2,0,L|351:199,1,55.5,0|0,1:0|0:0,0:0:0:0:
260,259,5384,2,0,L|260:331,1,55.5,8|0,0:0|0:0,0:0:0:0:
332,303,5552,2,0,L|332:367,1,55.5,0|0,0:0|0:0,0:0:0:0:
240,199,5721,2,0,L|184:199,1,55.5,0|0,1:0|0:0,0:0:0:0:
120,131,5889,2,0,L|184:131,1,55.5,0|0,1:0|0:0,0:0:0:0:
373,54,6058,6,0,P|417:106|365:190,1,166.5,12|0,0:0|0:0,0:0:0:0:
198,208,6395,2,0,L|130:208,1,55.5,0|0,1:0|0:0,0:0:0:0:
142,276,6563,2,0,L|206:276,1,55.5,0|0,1:0|0:0,0:0:0:0:
367,268,6732,1,8,0:0:0:0:
423,268,6816,1,0,0:0:0:0:
423,220,6900,1,0,0:0:0:0:
367,220,6984,1,0,0:0:0:0:
311,168,7069,1,0,1:0:0:0:
367,113,7153,1,0,0:0:0:0:
198,105,7238,2,0,L|142:105,1,55.5,0|0,1:0|0:0,0:0:0:0:
322,97,7406,6,0,P|384:170|313:254,1,222,8|0,0:0|1:0,0:0:0:0:
74,260,7912,2,0,L|74:188,1,55.5,0|0,1:0|0:0,0:0:0:0:
162,256,8080,2,0,L|286:256,1,111,8|0,0:0|0:0,0:0:0:0:
162,188,8417,1,0,1:0:0:0:
395,190,8586,2,0,L|459:190,1,55.5,0|0,1:0|0:0,0:0:0:0:
272,144,8754,6,0,P|212:196|288:304,1,222,8|0,0:0|1:0,0:0:0:0:
384,304,9260,2,0,L|444:304,1,55.5,0|0,1:0|0:0,0:0:0:0:
348,240,9429,2,0,L|232:240,1,111,8|0,0:0|0:0,0:0:0:0:
404,112,9766,2,0,L|276:112,1,111,0|0,1:0|1:0,0:0:0:0:
52,108,10103,5,8,0:0:0:0:
280,108,10271,2,0,L|340:108,1,55.5,0|0,0:0|0:0,0:0:0:0:
247,52,10440,2,0,P|211:72|255:164,1,166.5,0|0,1:0|0:0,0:0:0:0:
304,164,10777,2,0,L|372:164,1,55.5,8|0,0:0|0:0,0:0:0:0:
304,236,10945,2,0,L|232:236,1,55.5
52,104,11114,5,0,1:0:0:0:
120,104,11226,1,0,1:0:0:0:
232,104,11339,1,0,1:0:0:0:
492,76,11451,6,0,L|492:196,1,111,12|0,0:0|0:0,0:0:0:0:
492,76,11704,1,0,0:0:0:0:
320,148,11788,2,0,L|260:148,1,55.5,8|0,1:2|0:0,0:0:0:0:
320,148,11957,2,0,L|388:148,1,55.5,0|0,1:0|0:0,0:0:0:0:
288,56,12125,2,0,L|232:56,1,55.5,8|0,0:0|0:0,0:0:0:0:
232,160,12294,2,0,L|288:160,1,55.5
375,173,12462,2,0,L|375:237,1,55.5,8|0,1:2|0:0,0:0:0:0:
171,232,12631,2,0,L|226:232,1,55.5,0|0,1:0|0:0,0:0:0:0:
420,148,12799,6,0,L|420:264,1,111,12|0,0:0|0:0,0:0:0:0:
364,244,13052,1,0,0:0:0:0:
196,240,13136,2,0,L|72:240,1,111,8|0,1:2|1:0,0:0:0:0:
28,240,13389,1,0,0:0:0:0:
200,140,13473,2,0,P|256:192|188:304,1,222,8|8,0:0|1:2,0:0:0:0:
420,144,13979,2,0,L|352:144,1,55.5,0|0,1:0|0:0,0:0:0:0:
166,72,14148,6,0,L|166:188,1,111,12|0,0:0|0:0,0:0:0:0:
222,180,14400,1,0,0:0:0:0:
378,204,14485,1,8,1:2:0:0:
466,272,14653,2,0,L|410:272,1,55.5,0|0,1:0|0:0,0:0:0:0:
219,272,14822,2,0,L|155:272,1,55.5,8|0,0:0|0:0,0:0:0:0:
164,200,14990,2,0,L|236:200,1,55.5
396,160,15159,2,0,L|460:160,1,55.5,8|0,1:2|0:0,0:0:0:0:
452,88,15327,2,0,L|380:88,1,55.5,0|0,1:0|0:0,0:0:0:0:
188,80,15496,5,12,0:0:0:0:
340,80,15664,2,0,L|396:80,1,55.5
200,152,15833,1,8,1:2:0:0:
148,152,15917,1,0,0:0:0:0:
104,188,16002,1,0,1:0:0:0:
148,232,16086,1,0,0:0:0:0:
200,232,16170,1,8,0:0:0:0:
268,192,16339,2,0,L|212:192,1,55.5
360,104,16507,2,0,L|420:104,1,55.5,8|0,1:2|0:0,0:0:0:0:
420,172,16676,2,0,L|364:172,1,55.5,0|0,1:0|0:0,0:0:0:0:
136,52,16844,6,0,L|136:176,1,111,12|0,0:0|0:0,0:0:0:0:
136,236,17097,1,0,0:0:0:0:
304,52,17181,2,0,L|372:52,1,55.5,8|0,1:2|0:0,0:0:0:0:
364,128,17350,2,0,L|288:128,1,55.5,0|0,1:0|0:0,0:0:0:0:
120,304,17518,2,0,L|60:304,1,55.5,8|0,0:0|0:0,0:0:0:0:
120,144,17687,2,0,L|176:144,1,55.5
120,220,17856,2,0,L|64:220,1,55.5,8|0,1:2|0:0,0:0:0:0:
256,220,18024,2,0,L|320:220,1,55.5,0|0,1:0|0:0,0:0:0:0:
129,216,18193,6,0,L|17:216,1,111,12|0,0:0|0:0,0:0:0:0:
77,148,18445,1,0,0:0:0:0:
266,148,18530,2,0,L|378:148,1,111,8|0,1:2|1:0,0:0:0:0:
318,80,18782,1,0,0:0:0:0:
140,56,18867,2,0,P|76:96|144:196,1,222,8|8,0:0|1:2,0:0:0:0:
368,208,19372,2,0,L|440:208,1,55.5,0|0,1:0|0:0,0:0:0:0:
240,208,19541,6,0,L|240:328,1,111,12|0,0:0|0:0,0:0:0:0:
184,316,19794,1,0,0:0:0:0:
16,290,19878,2,0,L|16:174,1,111,8|0,1:2|1:0,0:0:0:0:
72,152,20131,1,0,0:0:0:0:
244,80,20215,2,0,L|368:80,1,111,8|0,0:0|0:0,0:0:0:0:
416,80,20468,1,0,0:0:0:0:
240,160,20552,2,0,L|120:160,1,111,8|0,1:2|1:0,0:0:0:0:
72,160,20805,1,0,0:0:0:0:
308,268,20889,5,12,0:0:0:0:
420,224,21058,2,0,L|360:224,1,55.5
212,232,21226,2,0,P|112:200|224:72,1,333,8|0,1:2|0:0,0:0:0:0:
488,104,21900,5,0,1:0:0:0:
424,104,22013,1,0,1:0:0:0:
312,104,22125,1,0,1:0:0:0:
88,32,22238,6,0,L|87:160,1,111,12|0,0:0|0:0,0:0:0:0:
356,96,22575,2,0,L|356:208,1,111,0|0,1:0|0:0,0:0:0:0:
328,208,22785,1,0,0:0:0:0:
300,208,22827,1,0,0:0:0:0:
148,208,22912,2,0,L|28:208,1,111,8|0,0:0|0:0,0:0:0:0:
288,312,23249,2,0,L|343:312,1,55.5,0|0,1:0|0:0,0:0:0:0:
192,312,23417,2,0,L|136:312,1,55.5,0|0,1:0|0:0,0:0:0:0:
304,256,23586,6,0,L|304:140,1,111,8|0,0:0|0:0,0:0:0:0:
80,256,23923,2,0,L|80:120,1,111,0|0,1:0|0:0,0:0:0:0:
136,144,24176,1,0,0:0:0:0:
288,148,24260,2,0,L|408:148,1,111,8|0,0:0|0:0,0:0:0:0:
152,84,24597,2,0,L|80:84,1,55.5,0|0,1:0|0:0,0:0:0:0:
248,84,24766,2,0,L|324:84,1,55.5,0|0,1:0|0:0,0:0:0:0:
136,152,24934,6,0,L|20:152,1,111,8|0,0:0|0:0,0:0:0:0:
272,156,25271,2,0,L|272:280,1,111,0|0,1:0|0:0,0:0:0:0:
300,272,25482,1,0,0:0:0:0:
328,272,25524,1,0,0:0:0:0:
480,192,25608,2,0,L|352:192,1,111,8|0,0:0|0:0,0:0:0:0:
128,176,25945,2,0,L|64:176,1,55.5,0|0,1:0|0:0,0:0:0:0:
224,88,26114,2,0,L|288:88,1,55.5,0|0,1:0|0:0,0:0:0:0:
128,260,26282,6,0,L|12:260,1,111,8|0,0:0|0:0,0:0:0:0:
268,188,26620,2,0,L|148:188,1,111,0|0,1:0|0:0,0:0:0:0:
212,148,26872,1,0,0:0:0:0:
384,144,26957,2,0,L|460:144,1,55.5,8|0,0:0|0:0,0:0:0:0:
440,216,27125,2,0,L|380:216,1,55.5,0|0,0:0|0:0,0:0:0:0:
232,112,27294,2,0,L|172:112,1,55.5,0|0,1:0|0:0,0:0:0:0:
172,248,27462,2,0,L|227:248,1,55.5,0|0,1:0|0:0,0:0:0:0:
424,312,27631,6,0,L|312:312,1,111,8|0,0:0|0:0,0:0:0:0:
472,232,27968,2,0,L|472:104,1,111,0|0,1:0|0:0,0:0:0:0:
444,108,28179,1,0,0:0:0:0:
416,108,28221,1,0,0:0:0:0:
264,168,28305,2,0,L|144:168,1,111,8|0,0:0|0:0,0:0:0:0:
404,184,28642,1,0,1:0:0:0:
460,184,28726,1,0,0:0:0:0:
460,240,28811,1,0,1:0:0:0:
404,244,28895,1,0,0:0:0:0:
240,84,28979,6,0,L|112:84,1,111,8|0,0:0|0:0,0:0:0:0:
296,92,29316,2,0,L|296:220,1,111,0|0,1:0|0:0,0:0:0:0:
240,200,29569,1,0,0:0:0:0:
88,256,29653,2,0,L|200:256,1,111,8|0,0:0|0:0,0:0:0:0:
424,248,29990,2,0,L|496:248,1,55.5,0|0,1:0|0:0,0:0:0:0:
324,240,30159,2,0,L|256:240,1,55.5,0|0,1:0|0:0,0:0:0:0:
436,96,30327,6,0,L|324:96,1,111,8|0,0:0|0:0,0:0:0:0:
80,104,30664,2,0,L|80:236,1,111,0|0,1:0|0:0,0:0:0:0:
108,216,30875,1,0,0:0:0:0:
136,216,30917,1,0,0:0:0:0:
288,216,31002,2,0,L|399:216,1,111,8|0,0:0|0:0,0:0:0:0:
148,188,31339,2,0,L|92:188,1,55.5,0|0,1:0|0:0,0:0:0:0:
256,292,31507,2,0,L|311:292,1,55.5,0|0,1:0|0:0,0:0:0:0:
128,312,31676,5,8,0:0:0:0:
72,252,31844,2,0,L|136:252,1,55.5
308,176,32013,2,0,L|368:176,1,55.5,0|0,1:0|0:0,0:0:0:0:
364,112,32181,2,0,L|300:112,1,55.5,0|0,0:0|0:0,0:0:0:0:
128,120,32350,2,0,L|60:120,1,55.5,8|0,0:0|0:0,0:0:0:0:
252,116,32518,2,0,L|316:116,1,55.5,0|0,0:0|0:0,0:0:0:0:
140,188,32687,2,0,L|80:188,1,55.5,0|0,1:0|0:0,0:0:0:0:
252,184,32856,2,0,L|316:184,1,55.5,0|0,1:0|0:0,0:0:0:0:
88,264,33024,5,12,0:0:0:0:
336,264,33193,1,8,0:0:0:0:
448,264,33361,1,0,0:0:0:0:
448,152,33530,1,0,0:0:0:0:
336,152,33698,1,0,0:0:0:0:
336,264,33867,1,0,0:0:0:0:
448,264,34035,1,0,0:0:0:0:
448,152,34204,1,0,0:0:0:0:
200,64,34372,5,12,0:0:0:0:
448,64,34541,1,8,0:0:0:0:
200,152,34709,1,0,0:0:0:0:
200,152,34878,1,0,0:0:0:0:
60,152,35046,1,0,0:0:0:0:
60,264,35215,1,0,0:0:0:0:
200,264,35383,1,0,0:0:0:0:
200,152,35552,1,0,0:0:0:0:
448,84,35721,5,12,0:0:0:0:
200,80,35889,1,8,0:0:0:0:
456,160,36058,1,0,0:0:0:0:
456,160,36226,1,0,0:0:0:0:
208,156,36395,1,0,0:0:0:0:
208,156,36563,1,0,0:0:0:0:
376,160,36732,1,0,0:0:0:0:
376,160,36900,1,0,0:0:0:0:
128,160,37069,5,12,0:0:0:0:
376,160,37238,1,8,0:0:0:0:
128,92,37406,1,0,0:0:0:0:
128,92,37575,1,0,0:0:0:0:
412,92,37743,5,0,1:0:0:0:
468,92,37827,1,0,0:0:0:0:
300,176,37912,1,0,0:0:0:0:
244,176,37996,1,0,0:0:0:0:
384,252,38080,1,0,1:0:0:0:
440,252,38164,1,0,0:0:0:0:
272,324,38249,1,0,0:0:0:0:
216,324,38333,1,0,0:0:0:0:
