osu file format v14

[General]
AudioFilename: audio.mp3
AudioLeadIn: 0
PreviewTime: 11030
Countdown: 0
SampleSet: Soft
StackLeniency: 0.7
Mode: 2
LetterboxInBreaks: 0
WidescreenStoryboard: 1

[Editor]
Bookmarks: 15496,27631
DistanceSpacing: 1
BeatDivisor: 4
GridSize: 4
TimelineZoom: 3.099999

[Metadata]
Title:Insert Coin
TitleUnicode:Insert Coin
Artist:Thaehan
ArtistUnicode:Thaehan
Creator:Souvenir
Version:Cup
Source:osu!
Tags:omgwtf! chiptune loki featured artist fa 8bit 8-bit electronic instrumental
BeatmapID:2809919
BeatmapSetID:1357790

[Difficulty]
HPDrainRate:2
CircleSize:2.5
OverallDifficulty:6
ApproachRate:6
SliderMultiplier:1.25
SliderTickRate:1

[Events]
//Background and Video events
0,0,"thaehanset1.jpg",0,0
//Break Periods
//Storyboard Layer 0 (Background)
//Storyboard Layer 1 (Fail)
//Storyboard Layer 2 (Pass)
//Storyboard Layer 3 (Foreground)
//Storyboard Layer 4 (Overlay)
//Storyboard Sound Samples

[TimingPoints]
665,337.078651685393,4,2,1,35,1,0
11451,-100,4,2,1,42,0,1
21900,-100,4,2,1,35,0,0
33024,-100,4,2,1,42,0,0
33361,-100,4,2,1,35,0,0
34372,-100,4,2,1,42,0,0
34709,-100,4,2,1,40,0,0
35721,-100,4,2,1,42,0,0
36058,-100,4,2,1,45,0,0
37069,-100,4,2,1,42,0,0
37406,-100,4,2,1,50,0,0

[Colours]
Combo1 : 114,114,114
Combo2 : 189,222,255
Combo3 : 207,207,207
Combo4 : 1,96,190

[HitObjects]
132,192,665,6,0,L|257:192,1,125,12|0,0:0|1:2,0:0:0:0:
380,192,1339,2,0,L|420:60,1,125,8|0,0:0|1:2,0:0:0:0:
268,68,2013,6,0,P|184:92|128:240,1,250,8|8,0:0|0:0,0:0:0:0:
250,229,3024,1,0,1:0:0:0:
400,232,3361,6,0,L|264:232,1,125,8|0,0:0|1:0,0:0:0:0:
152,232,4035,2,0,P|104:200|124:120,1,125,8|0,0:0|1:0,0:0:0:0:
256,112,4709,5,8,0:0:0:0:
320,112,4878,1,0,0:0:0:0:
384,112,5047,1,0,1:0:0:0:
256,112,5384,2,0,L|216:236,1,125,8|0,0:0|1:0,0:0:0:0:
368,36,6058,6,0,L|243:36,1,125,12|0,0:0|1:0,0:0:0:0:
116,144,6732,2,0,L|241:144,1,125,8|0,0:0|1:0,0:0:0:0:
388,240,7406,6,0,P|292:306|200:235,1,250,8|8,0:0|0:0,0:0:0:0:
76,152,8417,1,0,1:0:0:0:
224,152,8754,6,0,L|349:152,1,125,8|0,0:0|1:0,0:0:0:0:
224,60,9429,1,8,0:0:0:0:
100,64,9766,1,0,1:0:0:0:
256,192,10103,12,0,11114,1:0:0:0:
300,276,11451,6,0,L|175:276,1,125,12|8,0:0|1:2,0:0:0:0:
48,224,12125,2,0,L|48:96,1,125,8|8,0:0|1:2,0:0:0:0:
112,164,12631,1,0,1:0:0:0:
200,96,12799,6,0,P|288:132|192:200,1,250,12|8,0:0|0:0,0:0:0:0:
72,212,13811,1,8,1:2:0:0:
220,292,14148,6,0,L|356:292,1,125,12|8,0:0|1:2,0:0:0:0:
468,208,14822,2,0,L|348:176,1,125,8|8,0:0|1:2,0:0:0:0:
196,96,15496,5,12,0:0:0:0:
132,96,15664,1,0,0:0:0:0:
196,96,15833,1,8,1:2:0:0:
320,96,16170,1,8,0:0:0:0:
196,96,16507,1,8,1:2:0:0:
348,168,16844,6,0,L|473:168,1,125,12|8,0:0|1:2,0:0:0:0:
348,168,17518,2,0,L|208:112,1,125,8|8,0:0|1:2,0:0:0:0:
168,112,18024,1,0,1:0:0:0:
80,112,18193,6,0,P|32:164|152:244,1,250,12|8,0:0|0:0,0:0:0:0:
268,240,19204,1,8,1:2:0:0:
420,168,19541,6,0,L|276:168,1,125,12|8,0:0|1:2,0:0:0:0:
168,84,20215,2,0,L|312:84,1,125,8|8,0:0|1:2,0:0:0:0:
256,192,20889,12,0,21900,1:0:0:0:
144,192,22238,6,0,L|144:48,1,125,12|0,0:0|1:0,0:0:0:0:
208,68,22743,1,0,0:0:0:0:
272,68,22912,2,0,L|412:68,1,125,8|0,0:0|1:0,0:0:0:0:
272,68,23586,6,0,L|272:216,1,125,8|0,0:0|1:0,0:0:0:0:
208,192,24091,1,0,0:0:0:0:
144,188,24260,2,0,L|16:188,1,125,8|0,0:0|1:0,0:0:0:0:
144,188,24934,6,0,L|144:324,1,125,8|0,0:0|1:0,0:0:0:0:
208,312,25440,1,0,0:0:0:0:
272,312,25608,2,0,L|408:312,1,125,8|0,0:0|1:0,0:0:0:0:
272,312,26282,6,0,L|272:168,1,125,8|0,0:0|1:0,0:0:0:0:
336,188,26788,1,0,0:0:0:0:
400,188,26957,2,0,L|472:188,2,62.5,8|0|0,0:0|0:0|1:0,0:0:0:0:
248,184,27631,6,0,L|152:92,1,125,8|0,0:0|1:0,0:0:0:0:
96,92,28136,1,0,0:0:0:0:
32,92,28305,2,0,L|168:92,1,125,8|0,0:0|1:0,0:0:0:0:
280,92,28979,6,0,L|376:188,1,125,8|0,0:0|1:0,0:0:0:0:
432,180,29485,1,0,0:0:0:0:
496,180,29653,2,0,L|332:180,1,125,8|0,0:0|1:0,0:0:0:0:
220,176,30327,6,0,L|84:176,1,125,8|0,0:0|1:0,0:0:0:0:
32,176,30833,1,0,0:0:0:0:
96,172,31002,2,0,L|228:172,1,125,8|0,0:0|1:0,0:0:0:0:
368,176,31676,5,8,0:0:0:0:
492,176,32013,1,0,1:0:0:0:
368,176,32350,1,8,0:0:0:0:
304,176,32518,1,0,0:0:0:0:
244,176,32687,1,0,1:0:0:0:
92,176,33024,6,0,L|168:176,1,62.5,12|8,0:0|0:0,0:0:0:0:
220,176,33361,2,0,L|220:312,2,125
344,180,34372,6,0,L|416:180,1,62.5,12|8,0:0|0:0,0:0:0:0:
468,180,34709,2,0,L|504:304,2,125
344,184,35721,6,0,L|272:184,1,62.5,12|8,0:0|0:0,0:0:0:0:
220,184,36058,2,0,L|92:128,2,125
344,184,37069,6,0,L|416:184,1,62.5,12|8,0:0|0:0,0:0:0:0:
468,184,37406,2,0,L|336:184,2,125,0|0|0,0:0|1:0|1:0,0:0:0:0:
