osu file format v14

[General]
AudioFilename: audio.mp3
AudioLeadIn: 0
PreviewTime: 605
Countdown: 1
SampleSet: Soft
StackLeniency: 0.7
Mode: 3
LetterboxInBreaks: 0
SpecialStyle: 0
WidescreenStoryboard: 1

[Editor]
Bookmarks: 22178
DistanceSpacing: 0.8
BeatDivisor: 4
GridSize: 16
TimelineZoom: 2

[Metadata]
Title:Insert Coin
TitleUnicode:Insert Coin
Artist:Thaehan
ArtistUnicode:Thaehan
Creator:SilentWuffer
Version:Normal
Source:
Tags:electronic instrumental chiptune 8-bit 8bit loki featured artist fa mappers' guild mg mpg priority quest omgwtf! omgwtf ! lott
BeatmapID:4459602
BeatmapSetID:2122261

[Difficulty]
HPDrainRate:7
CircleSize:4
OverallDifficulty:7
ApproachRate:5
SliderMultiplier:1.4
SliderTickRate:1

[Events]
//Background and Video events
0,0,"insert coin.jpg",0,0
//Break Periods
//Storyboard Layer 0 (Background)
//Storyboard Layer 1 (Fail)
//Storyboard Layer 2 (Pass)
//Storyboard Layer 3 (Foreground)
//Storyboard Layer 4 (Overlay)
//Storyboard Sound Samples
Sample,26897,0,"8bittom1.wav",70
Sample,27234,0,"8bittom2.wav",70
Sample,27402,0,"8bittom2.wav",70

[TimingPoints]
605,337.078651685393,4,2,1,100,1,0

[HitObjects]
64,192,605,128,0,942:0:0:0:70:8bitkick.wav
320,192,605,1,0,0:0:0:70:8bitcrash.wav
192,192,942,1,0,0:0:0:70:8bitsnare.wav
448,192,942,1,0,0:0:0:0:
320,192,1110,1,0,0:0:0:70:8bittom1.wav
64,192,1279,1,0,0:0:0:70:8bittom2.wav
192,192,1447,1,0,0:0:0:70:8bittom2.wav
448,192,1616,1,0,0:0:0:70:8bittom1.wav
320,192,1784,1,0,0:0:0:70:8bittom2.wav
64,192,1953,1,0,0:0:0:70:8bitkick.wav
192,192,1953,128,0,2458:0:0:0:70:8bitcrash.wav
320,192,2458,1,0,0:0:0:70:8bitsnare.wav
448,192,2458,1,0,0:0:0:0:
64,192,2627,128,0,2964:0:0:0:70:8bitkick.wav
192,192,2964,128,0,3301:0:0:0:70:8bitkick.wav
64,192,3301,1,0,0:0:0:70:8bitkick.wav
320,192,3301,128,0,3638:0:0:0:70:8bitcrash.wav
448,192,3638,1,0,0:0:0:70:8bittom1.wav
192,192,3807,1,0,0:0:0:70:8bitsnare.wav
320,192,3807,1,0,0:0:0:0:
64,192,3975,128,0,4312:0:0:0:70:8bitkick.wav
448,192,4312,128,0,4649:0:0:0:70:8bitkick.wav
64,192,4649,1,0,0:0:0:70:8bitkick.wav
320,192,4649,1,0,0:0:0:70:8bitcrash.wav
192,192,4818,1,0,0:0:0:70:8bitkick.wav
64,192,4987,128,0,5324:0:0:0:70:8bitkick.wav
320,192,5155,1,0,0:0:0:70:8bitsnare.wav
448,192,5155,1,0,0:0:0:0:
192,192,5324,1,0,0:0:0:70:8bittom1.wav
320,192,5492,1,0,0:0:0:70:8bittom1.wav
64,192,5661,1,0,0:0:0:70:8bittom2.wav
448,192,5829,1,0,0:0:0:70:8bittom2.wav
192,192,5998,128,0,6335:0:0:0:70:8bitkick.wav
320,192,5998,1,0,0:0:0:70:8bitcrash.wav
64,192,6335,1,0,0:0:0:70:8bitsnare.wav
448,192,6335,1,0,0:0:0:0:
320,192,6503,1,0,0:0:0:70:8bittom1.wav
64,192,6672,1,0,0:0:0:70:8bittom2.wav
448,192,6840,1,0,0:0:0:70:8bittom2.wav
192,192,7009,1,0,0:0:0:70:8bittom1.wav
64,192,7178,1,0,0:0:0:70:8bittom2.wav
320,192,7346,128,0,7852:0:0:0:70:8bitkick.wav
448,192,7346,1,0,0:0:0:70:8bitcrash.wav
192,192,7852,1,0,0:0:0:70:8bitsnare.wav
448,192,7852,1,0,0:0:0:0:
64,192,8020,128,0,8357:0:0:0:70:8bitkick.wav
192,192,8357,128,0,8694:0:0:0:70:8bitkick.wav
320,192,8694,1,0,0:0:0:70:8bitkick.wav
448,192,8694,128,0,9200:0:0:0:70:8bitcrash.wav
192,192,9200,1,0,0:0:0:70:8bittom1.wav
320,192,9369,128,0,9706:0:0:0:70:8bitkick.wav
64,192,9706,128,0,10043:0:0:0:70:8bitkick.wav
320,192,10043,1,0,0:0:0:70:8bitkick.wav
448,192,10043,1,0,0:0:0:70:8bitcrash.wav
64,192,10211,1,0,0:0:0:70:8bitsnare.wav
192,192,10211,1,0,0:0:0:0:
448,192,10380,1,0,0:0:0:70:8bitkick.wav
64,192,10717,1,0,0:0:0:70:8bittom1.wav
448,192,10885,1,0,0:0:0:70:8bittom1.wav
192,192,11054,1,0,0:0:0:70:8bittom2.wav
320,192,11166,1,0,0:0:0:70:8bittom2.wav
448,192,11279,1,0,0:0:0:70:8bittom2.wav
64,192,11391,128,0,12065:0:0:0:70:8bitkick.wav
192,192,11391,1,0,0:0:0:70:8bitcrash.wav
320,192,11728,1,0,0:0:0:70:8bitsnare.wav
448,192,11728,1,0,0:0:0:0:
320,192,12065,1,0,0:0:0:70:8bitkick.wav
64,192,12402,1,0,0:0:0:70:8bitsnare.wav
448,192,12402,1,0,0:0:0:0:
192,192,12571,1,0,0:0:0:0:
320,192,12739,128,0,13076:0:0:0:70:8bitkick.wav
64,192,13076,1,0,0:0:0:70:8bitsnare.wav
192,192,13076,1,0,0:0:0:0:
448,192,13245,1,0,0:0:0:0:
64,192,13413,128,0,13751:0:0:0:70:8bitkick.wav
320,192,13751,1,0,0:0:0:70:8bitsnare.wav
448,192,13751,1,0,0:0:0:0:
192,192,13919,1,0,0:0:0:0:
448,192,14088,128,0,14762:0:0:0:70:8bitkick.wav
64,192,14425,1,0,0:0:0:70:8bitsnare.wav
192,192,14425,1,0,0:0:0:0:
64,192,14762,128,0,15099:0:0:0:70:8bitkick.wav
192,192,15099,1,0,0:0:0:70:8bitsnare.wav
448,192,15099,128,0,15436:0:0:0:0:
320,192,15436,1,0,0:0:0:70:8bitkick.wav
192,192,15604,1,0,0:0:0:0:
64,192,15773,128,0,16447:0:0:0:70:8bitsnare.wav
320,192,15773,1,0,0:0:0:0:
448,192,16110,1,0,0:0:0:70:8bitkick.wav
192,192,16447,1,0,0:0:0:70:8bitsnare.wav
320,192,16447,1,0,0:0:0:0:
448,192,16616,1,0,0:0:0:70:8bitkick.wav
64,192,16784,1,0,0:0:0:70:8bitkick.wav
192,192,16784,128,0,17458:0:0:0:70:8bitcrash.wav
320,192,17121,1,0,0:0:0:70:8bitsnare.wav
448,192,17121,1,0,0:0:0:0:
448,192,17458,128,0,17964:0:0:0:70:8bitkick.wav
64,192,17796,1,0,0:0:0:70:8bitsnare.wav
192,192,17796,1,0,0:0:0:0:
320,192,17964,1,0,0:0:0:0:
64,192,18133,128,0,18807:0:0:0:70:8bitkick.wav
320,192,18470,1,0,0:0:0:70:8bitsnare.wav
448,192,18470,1,0,0:0:0:0:
192,192,18638,1,0,0:0:0:0:
448,192,18807,128,0,19144:0:0:0:70:8bitkick.wav
64,192,19144,1,0,0:0:0:70:8bitsnare.wav
320,192,19144,1,0,0:0:0:0:
192,192,19312,1,0,0:0:0:0:
64,192,19481,128,0,20155:0:0:0:70:8bitkick.wav
320,192,19818,1,0,0:0:0:70:8bitsnare.wav
448,192,19818,1,0,0:0:0:0:
192,192,20155,128,0,20492:0:0:0:70:8bitkick.wav
64,192,20492,1,0,0:0:0:70:8bitsnare.wav
320,192,20492,128,0,20829:0:0:0:0:
448,192,20829,128,0,21840:0:0:0:70:8bitkick.wav
64,192,21166,1,0,0:0:0:70:8bitsnare.wav
192,192,21166,1,0,0:0:0:0:
320,192,21503,1,0,0:0:0:70:8bitkick.wav
64,192,21840,1,0,0:0:0:70:8bitsnare.wav
192,192,21840,1,0,0:0:0:0:
320,192,21953,1,0,0:0:0:0:
448,192,22065,1,0,0:0:0:0:
64,192,22178,128,0,22683:0:0:0:70:8bitkick.wav
192,192,22178,1,0,0:0:0:70:8bitcrash.wav
320,192,22515,1,0,0:0:0:70:8bitsnare.wav
448,192,22515,1,0,0:0:0:0:
192,192,22683,1,0,0:0:0:0:
320,192,22852,128,0,23189:0:0:0:70:8bitkick.wav
192,192,23189,1,0,0:0:0:70:8bitsnare.wav
448,192,23189,128,0,23526:0:0:0:70:8bittom1.wav
64,192,23357,1,0,0:0:0:70:8bittom2.wav
192,192,23526,128,0,24031:0:0:0:70:8bitkick.wav
320,192,23863,1,0,0:0:0:70:8bitsnare.wav
448,192,23863,1,0,0:0:0:0:
64,192,24031,1,0,0:0:0:0:
320,192,24200,128,0,24537:0:0:0:70:8bitkick.wav
64,192,24537,128,0,24874:0:0:0:70:8bitsnare.wav
448,192,24537,1,0,0:0:0:70:8bittom1.wav
192,192,24706,1,0,0:0:0:70:8bittom2.wav
320,192,24874,1,0,0:0:0:70:8bitkick.wav
448,192,24874,128,0,25380:0:0:0:0:
64,192,25211,1,0,0:0:0:70:8bitsnare.wav
192,192,25211,1,0,0:0:0:0:
320,192,25380,1,0,0:0:0:0:
192,192,25548,128,0,25885:0:0:0:70:8bitkick.wav
64,192,25885,128,0,26222:0:0:0:70:8bitsnare.wav
320,192,25885,1,0,0:0:0:70:8bittom1.wav
448,192,26054,1,0,0:0:0:70:8bittom2.wav
320,192,26222,128,0,26728:0:0:0:70:8bitkick.wav
64,192,26560,1,0,0:0:0:70:8bitsnare.wav
192,192,26560,1,0,0:0:0:0:
448,192,26728,1,0,0:0:0:0:
192,192,26897,1,0,0:0:0:70:8bitkick.wav
320,192,27065,1,0,0:0:0:70:8bittom1.wav
64,192,27234,1,0,0:0:0:70:8bitsnare.wav
320,192,27402,1,0,0:0:0:70:8bitkick.wav
64,192,27571,1,0,0:0:0:70:8bitkick.wav
192,192,27571,128,0,28076:0:0:0:70:8bitcrash.wav
320,192,27908,1,0,0:0:0:70:8bitsnare.wav
448,192,27908,1,0,0:0:0:0:
64,192,28076,1,0,0:0:0:0:
448,192,28245,128,0,28582:0:0:0:70:8bitkick.wav
64,192,28582,1,0,0:0:0:70:8bitsnare.wav
320,192,28582,128,0,28919:0:0:0:70:8bittom1.wav
192,192,28751,1,0,0:0:0:70:8bittom2.wav
64,192,28919,128,0,29425:0:0:0:70:8bitkick.wav
320,192,29256,1,0,0:0:0:70:8bitsnare.wav
448,192,29256,1,0,0:0:0:0:
192,192,29425,1,0,0:0:0:0:
448,192,29593,128,0,29930:0:0:0:70:8bitkick.wav
192,192,29930,128,0,30267:0:0:0:70:8bitsnare.wav
320,192,29930,1,0,0:0:0:70:8bittom1.wav
64,192,30099,1,0,0:0:0:70:8bittom2.wav
320,192,30267,128,0,30773:0:0:0:70:8bitkick.wav
448,192,30267,1,0,0:0:0:0:
64,192,30604,1,0,0:0:0:70:8bitsnare.wav
192,192,30604,1,0,0:0:0:0:
448,192,30773,1,0,0:0:0:0:
64,192,30942,1,0,0:0:0:70:8bitkick.wav
320,192,31110,1,0,0:0:0:0:
192,192,31279,1,0,0:0:0:70:8bitsnare.wav
448,192,31279,1,0,0:0:0:70:8bittom1.wav
64,192,31447,1,0,0:0:0:70:8bittom2.wav
320,192,31616,128,0,32290:0:0:0:70:8bitkick.wav
448,192,31616,128,0,32290:0:0:0:0:
64,192,31953,1,0,0:0:0:70:8bitsnare.wav
192,192,31953,1,0,0:0:0:0:
64,192,32290,1,0,0:0:0:70:8bittom1.wav
192,192,32458,1,0,0:0:0:70:8bittom1.wav
320,192,32627,1,0,0:0:0:70:8bittom2.wav
448,192,32796,1,0,0:0:0:70:8bittom2.wav
64,192,32964,1,0,0:0:0:70:8bitkick.wav
64,192,33133,1,0,0:0:0:70:8bitkick.wav
448,192,34312,1,0,0:0:0:70:8bitkick.wav
448,192,34481,1,0,0:0:0:70:8bitkick.wav
192,192,35661,1,0,0:0:0:70:8bitkick.wav
192,192,35829,1,0,0:0:0:70:8bitkick.wav
64,192,35998,128,0,37009:0:0:0:0:
320,192,37009,1,0,0:0:0:70:8bitkick.wav
320,192,37178,1,0,0:0:0:70:8bitkick.wav
448,192,37346,128,0,37683:0:0:0:0:
64,192,37683,1,0,0:0:0:70:8bittom1.wav
192,192,37852,1,0,0:0:0:70:8bittom2.wav
320,192,38020,1,0,0:0:0:70:8bittom1.wav
448,192,38189,1,0,0:0:0:70:8bittom2.wav
