osu file format v14

[General]
AudioFilename: audio.mp3
AudioLeadIn: 0
PreviewTime: 11114
Countdown: 0
SampleSet: Normal
StackLeniency: 0.7
Mode: 3
LetterboxInBreaks: 0
SpecialStyle: 0
WidescreenStoryboard: 0

[Editor]
DistanceSpacing: 0.8
BeatDivisor: 4
GridSize: 16
TimelineZoom: 2.8

[Metadata]
Title:Insert Coin
TitleUnicode:Insert Coin
Artist:Thaehan
ArtistUnicode:Thaehan
Creator:Nepuri
Version:Hard
Source:osu!
Tags:omgwtf! chiptune loki mappers' guild featured artist fa 8bit 8-bit electronic
BeatmapID:2124609
BeatmapSetID:1015169

[Difficulty]
HPDrainRate:7.5
CircleSize:4
OverallDifficulty:7.5
ApproachRate:5
SliderMultiplier:1.4
SliderTickRate:1

[Events]
//Background and Video events
0,0,"alien-arcade-background-1670977.jpg",0,0
//Break Periods
//Storyboard Layer 0 (Background)
//Storyboard Layer 1 (Fail)
//Storyboard Layer 2 (Pass)
//Storyboard Layer 3 (Foreground)
//Storyboard Layer 4 (Overlay)
//Storyboard Sound Samples

[TimingPoints]
665,337.078651685393,4,1,1,100,1,0
11451,-100,4,1,1,100,0,1
22238,-100,4,1,1,100,0,0

[HitObjects]
64,192,665,5,2,0:0:0:0:
320,192,665,1,4,0:0:0:0:
448,192,665,1,0,0:0:0:0:
64,192,1002,1,8,0:0:0:0:
192,192,1002,1,0,0:0:0:0:
320,192,1086,1,8,0:0:0:0:
448,192,1170,1,8,0:3:0:0:
64,192,1254,1,8,0:3:0:0:
192,192,1339,1,2,0:3:0:0:
320,192,1423,1,2,0:3:0:0:
448,192,1507,1,2,0:3:0:0:
64,192,1591,1,2,0:3:0:0:
192,192,1676,1,8,0:3:0:0:
448,192,1760,1,8,0:3:0:0:
320,192,1844,1,2,0:3:0:0:
64,192,1929,1,2,0:3:0:0:
192,192,2013,1,2,0:0:0:0:
448,192,2013,1,4,0:0:0:0:
64,192,2518,1,8,0:0:0:0:
320,192,2518,1,0,0:0:0:0:
192,192,2603,1,8,0:0:0:0:
320,192,2687,1,2,0:0:0:0:
448,192,2687,1,0,0:0:0:0:
320,192,3024,1,2,0:0:0:0:
448,192,3024,1,0,0:0:0:0:
64,192,3193,1,0,0:0:0:0:
192,192,3277,1,0,0:0:0:0:
320,192,3361,1,2,0:0:0:0:
448,192,3361,1,4,0:0:0:0:
192,192,3698,1,8,0:3:0:0:
320,192,3782,1,8,0:3:0:0:
64,192,3867,1,8,0:0:0:0:
192,192,3951,1,8,0:0:0:0:
320,192,4035,1,2,0:0:0:0:
448,192,4035,1,0,0:0:0:0:
64,192,4372,1,2,0:0:0:0:
192,192,4372,1,0,0:0:0:0:
320,192,4709,1,2,0:0:0:0:
448,192,4709,1,4,0:0:0:0:
192,192,4878,1,2,0:0:0:0:
64,192,5047,1,2,0:0:0:0:
320,192,5215,1,8,0:0:0:0:
448,192,5215,1,0,0:0:0:0:
192,192,5299,1,8,0:0:0:0:
64,192,5384,1,8,0:3:0:0:
320,192,5468,1,8,0:3:0:0:
448,192,5552,1,8,0:3:0:0:
192,192,5636,1,8,0:3:0:0:
64,192,5721,1,2,0:3:0:0:
448,192,5805,1,2,0:3:0:0:
320,192,5889,1,2,0:3:0:0:
192,192,5973,1,2,0:3:0:0:
64,192,6058,1,2,0:0:0:0:
448,192,6058,1,4,0:0:0:0:
192,192,6395,1,8,0:0:0:0:
448,192,6395,1,0,0:0:0:0:
320,192,6479,1,8,0:0:0:0:
64,192,6563,1,8,0:3:0:0:
192,192,6648,1,8,0:3:0:0:
448,192,6732,1,2,0:3:0:0:
320,192,6816,1,2,0:3:0:0:
192,192,6900,1,2,0:3:0:0:
64,192,6985,1,2,0:3:0:0:
448,192,7069,1,8,0:3:0:0:
320,192,7153,1,8,0:3:0:0:
64,192,7238,1,2,0:3:0:0:
192,192,7322,1,2,0:3:0:0:
320,192,7406,1,2,0:0:0:0:
448,192,7406,1,4,0:0:0:0:
64,192,7912,1,8,0:0:0:0:
192,192,7912,1,0,0:0:0:0:
320,192,7996,1,8,0:0:0:0:
192,192,8080,1,2,0:0:0:0:
448,192,8080,1,0,0:0:0:0:
192,192,8417,1,2,0:0:0:0:
448,192,8417,1,0,0:0:0:0:
320,192,8586,1,0,0:0:0:0:
192,192,8670,1,0,0:0:0:0:
64,192,8754,1,2,0:0:0:0:
448,192,8754,1,4,0:0:0:0:
192,192,9260,1,8,0:3:0:0:
320,192,9344,1,8,0:3:0:0:
64,192,9429,1,2,0:0:0:0:
448,192,9429,1,0,0:0:0:0:
64,192,9766,1,2,0:0:0:0:
320,192,9766,1,0,0:0:0:0:
64,192,10103,1,2,0:0:0:0:
192,192,10103,1,4,0:0:0:0:
320,192,10271,1,8,0:0:0:0:
448,192,10271,1,0,0:0:0:0:
192,192,10356,1,8,0:0:0:0:
64,192,10440,1,2,0:0:0:0:
320,192,10440,1,0,0:0:0:0:
64,192,10777,1,8,0:3:0:0:
192,192,10861,1,8,0:3:0:0:
448,192,10945,1,8,0:3:0:0:
320,192,11030,1,8,0:3:0:0:
64,192,11114,1,2,0:0:0:0:
192,192,11226,1,2,0:0:0:0:
320,192,11339,1,2,0:0:0:0:
64,192,11451,1,2,0:0:0:0:
192,192,11451,1,4,0:0:0:0:
448,192,11451,1,0,0:0:0:0:
320,192,11620,1,0,0:0:0:0:
64,192,11788,1,8,0:0:0:0:
448,192,11788,1,0,0:0:0:0:
320,192,11957,1,0,0:0:0:0:
64,192,12125,1,2,0:0:0:0:
192,192,12125,1,0,0:0:0:0:
320,192,12294,1,0,0:0:0:0:
64,192,12462,1,8,0:0:0:0:
448,192,12462,1,0,0:0:0:0:
192,192,12631,1,0,0:0:0:0:
320,192,12715,1,0,0:0:0:0:
64,192,12799,1,2,0:0:0:0:
448,192,12799,1,0,0:0:0:0:
192,192,12968,1,0,0:0:0:0:
320,192,13136,1,8,0:0:0:0:
448,192,13136,1,0,0:0:0:0:
64,192,13305,1,0,0:0:0:0:
192,192,13473,1,2,0:0:0:0:
320,192,13473,1,0,0:0:0:0:
448,192,13642,1,0,0:0:0:0:
64,192,13811,1,8,0:0:0:0:
192,192,13811,1,0,0:0:0:0:
320,192,13979,1,0,0:0:0:0:
448,192,14063,1,0,0:0:0:0:
64,192,14148,1,2,0:0:0:0:
192,192,14148,1,0,0:0:0:0:
320,192,14316,1,0,0:0:0:0:
64,192,14485,1,8,0:0:0:0:
448,192,14485,1,0,0:0:0:0:
192,192,14653,1,0,0:0:0:0:
320,192,14822,1,2,0:0:0:0:
448,192,14822,1,0,0:0:0:0:
192,192,14990,1,0,0:0:0:0:
64,192,15159,1,8,0:0:0:0:
448,192,15159,1,0,0:0:0:0:
320,192,15327,1,0,0:0:0:0:
64,192,15496,1,2,0:0:0:0:
192,192,15496,1,0,0:0:0:0:
320,192,15664,1,0,0:0:0:0:
448,192,15664,1,0,0:0:0:0:
64,192,15833,1,8,0:0:0:0:
192,192,15833,1,0,0:0:0:0:
448,192,16002,1,0,0:0:0:0:
192,192,16170,1,2,0:0:0:0:
320,192,16170,1,0,0:0:0:0:
64,192,16339,1,0,0:0:0:0:
320,192,16507,1,8,0:0:0:0:
448,192,16507,1,0,0:0:0:0:
192,192,16676,1,2,0:0:0:0:
64,192,16676,1,0,0:0:0:0:
64,192,16844,1,2,0:0:0:0:
320,192,16844,1,4,0:0:0:0:
448,192,16844,1,0,0:0:0:0:
192,192,17013,1,0,0:0:0:0:
64,192,17181,1,8,0:0:0:0:
448,192,17181,1,0,0:0:0:0:
320,192,17350,1,0,0:0:0:0:
64,192,17518,1,2,0:0:0:0:
192,192,17518,1,0,0:0:0:0:
448,192,17687,1,0,0:0:0:0:
192,192,17856,1,8,0:0:0:0:
320,192,17856,1,0,0:0:0:0:
64,192,18024,1,0,0:0:0:0:
192,192,18108,1,0,0:0:0:0:
320,192,18193,1,2,0:0:0:0:
448,192,18193,1,0,0:0:0:0:
192,192,18361,1,0,0:0:0:0:
64,192,18530,1,8,0:0:0:0:
448,192,18530,1,0,0:0:0:0:
320,192,18698,1,0,0:0:0:0:
192,192,18867,1,2,0:0:0:0:
448,192,18867,1,0,0:0:0:0:
64,192,19035,1,0,0:0:0:0:
448,192,19204,1,8,0:0:0:0:
320,192,19204,1,0,0:0:0:0:
192,192,19372,1,0,0:0:0:0:
320,192,19457,1,0,0:0:0:0:
64,192,19541,1,2,0:0:0:0:
448,192,19541,1,0,0:0:0:0:
192,192,19709,1,0,0:0:0:0:
320,192,19878,1,8,0:0:0:0:
448,192,19878,1,0,0:0:0:0:
192,192,20047,1,0,0:0:0:0:
64,192,20215,1,2,0:0:0:0:
320,192,20215,1,0,0:0:0:0:
448,192,20384,1,0,0:0:0:0:
192,192,20552,1,8,0:0:0:0:
320,192,20552,1,0,0:0:0:0:
64,192,20721,1,0,0:0:0:0:
320,192,20889,1,2,0:0:0:0:
448,192,20889,1,0,0:0:0:0:
192,192,21058,1,0,0:0:0:0:
320,192,21142,1,0,0:0:0:0:
64,192,21226,1,8,0:0:0:0:
448,192,21226,1,0,0:0:0:0:
192,192,21395,1,0,0:0:0:0:
320,192,21563,1,2,0:0:0:0:
448,192,21563,1,0,0:0:0:0:
192,192,21732,1,0,0:0:0:0:
448,192,21900,1,8,0:0:0:0:
320,192,22013,1,0,0:0:0:0:
192,192,22125,1,0,0:0:0:0:
64,192,22238,1,2,0:0:0:0:
320,192,22238,1,4,0:0:0:0:
448,192,22238,1,0,0:0:0:0:
192,192,22406,1,0,0:0:0:0:
64,192,22575,1,8,0:0:0:0:
448,192,22575,1,0,0:0:0:0:
320,192,22743,1,0,0:0:0:0:
192,192,22827,1,0,0:0:0:0:
64,192,22912,1,2,0:0:0:0:
320,192,22912,1,0,0:0:0:0:
448,192,23080,1,0,0:0:0:0:
64,192,23249,1,8,0:0:0:0:
192,192,23249,1,8,0:3:0:0:
448,192,23333,1,8,0:3:0:0:
320,192,23417,1,2,0:3:0:0:
192,192,23502,1,2,0:3:0:0:
64,192,23586,1,2,0:0:0:0:
448,192,23586,1,0,0:0:0:0:
320,192,23754,1,0,0:0:0:0:
64,192,23923,1,8,0:0:0:0:
448,192,23923,1,0,0:0:0:0:
320,192,24091,1,0,0:0:0:0:
192,192,24176,1,0,0:0:0:0:
64,192,24260,1,2,0:0:0:0:
448,192,24260,1,0,0:0:0:0:
320,192,24429,1,0,0:0:0:0:
64,192,24597,1,8,0:0:0:0:
448,192,24597,1,8,0:3:0:0:
320,192,24681,1,2,0:3:0:0:
192,192,24766,1,2,0:3:0:0:
64,192,24850,1,2,0:3:0:0:
320,192,24934,1,2,0:0:0:0:
448,192,24934,1,0,0:0:0:0:
192,192,25103,1,0,0:0:0:0:
64,192,25271,1,8,0:0:0:0:
448,192,25271,1,0,0:0:0:0:
320,192,25440,1,0,0:0:0:0:
192,192,25524,1,0,0:0:0:0:
64,192,25608,1,2,0:0:0:0:
320,192,25608,1,0,0:0:0:0:
448,192,25777,1,0,0:0:0:0:
64,192,25945,1,8,0:0:0:0:
320,192,25945,1,8,0:3:0:0:
448,192,26030,1,8,0:3:0:0:
192,192,26114,1,2,0:3:0:0:
64,192,26198,1,2,0:3:0:0:
320,192,26282,1,2,0:0:0:0:
448,192,26282,1,0,0:0:0:0:
64,192,26451,1,0,0:0:0:0:
192,192,26620,1,8,0:0:0:0:
320,192,26620,1,0,0:0:0:0:
64,192,26788,1,0,0:0:0:0:
192,192,26872,1,0,0:0:0:0:
448,192,26957,1,2,0:0:0:0:
320,192,27041,1,8,0:3:0:0:
64,192,27125,1,8,0:3:0:0:
192,192,27209,1,8,0:3:0:0:
320,192,27294,1,8,0:0:0:0:
448,192,27378,1,2,0:3:0:0:
192,192,27462,1,2,0:3:0:0:
64,192,27547,1,2,0:3:0:0:
320,192,27631,1,2,0:0:0:0:
448,192,27631,1,4,0:0:0:0:
192,192,27799,1,0,0:0:0:0:
64,192,27968,1,8,0:0:0:0:
448,192,27968,1,0,0:0:0:0:
320,192,28136,1,0,0:0:0:0:
192,192,28221,1,0,0:0:0:0:
64,192,28305,1,2,0:0:0:0:
320,192,28305,1,0,0:0:0:0:
448,192,28473,1,0,0:0:0:0:
192,192,28642,1,8,0:0:0:0:
320,192,28642,1,8,0:3:0:0:
64,192,28726,1,8,0:3:0:0:
448,192,28811,1,2,0:3:0:0:
320,192,28895,1,2,0:3:0:0:
192,192,28979,1,2,0:0:0:0:
64,192,28979,1,0,0:0:0:0:
320,192,29148,1,0,0:0:0:0:
64,192,29316,1,8,0:0:0:0:
448,192,29316,1,0,0:0:0:0:
192,192,29485,1,0,0:0:0:0:
64,192,29569,1,0,0:0:0:0:
320,192,29653,1,2,0:0:0:0:
448,192,29653,1,0,0:0:0:0:
192,192,29822,1,0,0:0:0:0:
64,192,29990,1,8,0:0:0:0:
448,192,29990,1,8,0:3:0:0:
320,192,30075,1,2,0:3:0:0:
192,192,30159,1,2,0:3:0:0:
64,192,30243,1,2,0:3:0:0:
320,192,30327,1,2,0:0:0:0:
448,192,30327,1,0,0:0:0:0:
192,192,30496,1,0,0:0:0:0:
64,192,30664,1,8,0:0:0:0:
448,192,30664,1,0,0:0:0:0:
192,192,30833,1,0,0:0:0:0:
320,192,30917,1,0,0:0:0:0:
192,192,31002,1,2,0:0:0:0:
448,192,31002,1,0,0:0:0:0:
64,192,31170,1,0,0:0:0:0:
192,192,31339,1,8,0:0:0:0:
448,192,31339,1,8,0:3:0:0:
320,192,31423,1,8,0:3:0:0:
64,192,31507,1,2,0:3:0:0:
192,192,31591,1,2,0:3:0:0:
320,192,31676,1,2,0:0:0:0:
448,192,31676,1,0,0:0:0:0:
192,192,31844,1,0,0:0:0:0:
64,192,32013,1,8,0:0:0:0:
448,192,32013,1,0,0:0:0:0:
192,192,32181,1,0,0:0:0:0:
448,192,32350,1,8,0:3:0:0:
320,192,32434,1,8,0:3:0:0:
64,192,32518,1,8,0:3:0:0:
192,192,32603,1,8,0:3:0:0:
320,192,32687,1,2,0:3:0:0:
448,192,32771,1,2,0:3:0:0:
192,192,32856,1,2,0:3:0:0:
64,192,32940,1,2,0:3:0:0:
320,192,33024,1,2,0:0:0:0:
448,192,33024,1,0,0:0:0:0:
320,192,33193,1,2,0:0:0:0:
448,192,33193,1,0,0:0:0:0:
64,192,33361,1,0,0:0:0:0:
64,192,33530,1,0,0:0:0:0:
320,192,33698,1,0,0:0:0:0:
320,192,33867,1,0,0:0:0:0:
192,192,34035,1,0,0:0:0:0:
192,192,34204,1,0,0:0:0:0:
320,192,34372,1,2,0:0:0:0:
448,192,34372,1,0,0:0:0:0:
320,192,34541,1,2,0:0:0:0:
448,192,34541,1,0,0:0:0:0:
192,192,34709,1,0,0:0:0:0:
192,192,34878,1,0,0:0:0:0:
320,192,35047,1,0,0:0:0:0:
320,192,35215,1,0,0:0:0:0:
64,192,35384,1,0,0:0:0:0:
64,192,35552,1,0,0:0:0:0:
192,192,35721,1,2,0:0:0:0:
320,192,35721,1,0,0:0:0:0:
192,192,35889,1,2,0:0:0:0:
320,192,35889,1,0,0:0:0:0:
448,192,36058,1,0,0:0:0:0:
448,192,36226,1,0,0:0:0:0:
320,192,36395,1,0,0:0:0:0:
320,192,36563,1,0,0:0:0:0:
64,192,36732,1,0,0:0:0:0:
64,192,36900,1,0,0:0:0:0:
192,192,37069,1,2,0:0:0:0:
320,192,37069,1,0,0:0:0:0:
192,192,37238,1,2,0:0:0:0:
320,192,37238,1,0,0:0:0:0:
448,192,37406,1,0,0:0:0:0:
448,192,37575,1,0,0:0:0:0:
64,192,37743,1,8,0:3:0:0:
192,192,37827,1,8,0:3:0:0:
448,192,37912,1,2,0:3:0:0:
320,192,37996,1,2,0:3:0:0:
64,192,38080,1,8,0:3:0:0:
192,192,38164,1,8,0:3:0:0:
448,192,38249,1,2,0:3:0:0:
320,192,38333,1,2,0:3:0:0:
