osu file format v14

[General]
AudioFilename: audio.mp3
AudioLeadIn: 0
PreviewTime: 11114
Countdown: 0
SampleSet: Normal
StackLeniency: 0.7
Mode: 3
LetterboxInBreaks: 0
SpecialStyle: 0
WidescreenStoryboard: 0

[Editor]
DistanceSpacing: 0.8
BeatDivisor: 4
GridSize: 16
TimelineZoom: 0.5000004

[Metadata]
Title:Insert Coin
TitleUnicode:Insert Coin
Artist:Thaehan
ArtistUnicode:Thaehan
Creator:Nepuri
Version:Easy
Source:osu!
Tags:omgwtf! chiptune loki mappers' guild featured artist fa 8bit 8-bit electronic
BeatmapID:2124608
BeatmapSetID:1015169

[Difficulty]
HPDrainRate:6
CircleSize:4
OverallDifficulty:7
ApproachRate:5
SliderMultiplier:1.4
SliderTickRate:1

[Events]
//Background and Video events
0,0,"alien-arcade-background-1670977.jpg",0,0
//Break Periods
//Storyboard Layer 0 (Background)
//Storyboard Layer 1 (Fail)
//Storyboard Layer 2 (Pass)
//Storyboard Layer 3 (Foreground)
//Storyboard Layer 4 (Overlay)
//Storyboard Sound Samples

[TimingPoints]
665,337.078651685393,4,1,1,100,1,0
11451,-100,4,1,1,100,0,1
22238,-100,4,1,1,100,0,0

[HitObjects]
64,192,665,5,2,0:0:0:0:
448,192,665,1,4,0:0:0:0:
192,192,1002,1,8,0:0:0:0:
320,192,1170,1,8,0:3:0:0:
448,192,1339,1,2,0:3:0:0:
64,192,1676,1,8,0:3:0:0:
192,192,1844,1,2,0:3:0:0:
320,192,2013,1,2,0:0:0:0:
448,192,2013,1,4,0:0:0:0:
448,192,2518,1,8,0:0:0:0:
64,192,2687,1,2,0:0:0:0:
64,192,3024,1,2,0:0:0:0:
192,192,3193,1,0,0:0:0:0:
320,192,3361,1,2,0:0:0:0:
448,192,3361,1,4,0:0:0:0:
192,192,3698,1,8,0:3:0:0:
448,192,3867,1,8,0:0:0:0:
64,192,4035,1,2,0:0:0:0:
192,192,4372,1,2,0:0:0:0:
320,192,4709,1,6,0:0:0:0:
192,192,4878,1,2,0:0:0:0:
64,192,5047,1,2,0:0:0:0:
320,192,5215,1,8,0:0:0:0:
192,192,5384,1,8,0:3:0:0:
448,192,5721,1,2,0:3:0:0:
320,192,5889,1,2,0:3:0:0:
64,192,6058,1,2,0:0:0:0:
192,192,6058,1,4,0:0:0:0:
448,192,6395,1,8,0:0:0:0:
320,192,6563,1,8,0:3:0:0:
192,192,6732,1,2,0:3:0:0:
448,192,7069,1,8,0:3:0:0:
320,192,7238,1,2,0:3:0:0:
64,192,7406,1,2,0:0:0:0:
192,192,7406,1,4,0:0:0:0:
64,192,7912,1,8,0:0:0:0:
448,192,8080,1,2,0:0:0:0:
448,192,8417,1,2,0:0:0:0:
192,192,8586,1,0,0:0:0:0:
64,192,8754,1,2,0:0:0:0:
448,192,8754,1,4,0:0:0:0:
320,192,9260,1,8,0:3:0:0:
64,192,9429,1,2,0:0:0:0:
64,192,9766,1,2,0:0:0:0:
320,192,10103,1,6,0:0:0:0:
192,192,10271,1,8,0:0:0:0:
64,192,10440,1,2,0:0:0:0:
448,192,10777,1,8,0:3:0:0:
320,192,11114,128,2,11451:0:0:0:0:
64,192,11451,1,2,0:0:0:0:
192,192,11451,1,4,0:0:0:0:
448,192,11788,1,8,0:0:0:0:
192,192,12125,1,2,0:0:0:0:
320,192,12125,1,0,0:0:0:0:
64,192,12462,1,8,0:0:0:0:
192,192,12631,1,0,0:0:0:0:
320,192,12799,1,2,0:0:0:0:
448,192,12799,1,0,0:0:0:0:
64,192,13136,1,8,0:0:0:0:
192,192,13473,1,2,0:0:0:0:
320,192,13473,1,0,0:0:0:0:
448,192,13811,1,8,0:0:0:0:
320,192,13979,1,0,0:0:0:0:
64,192,14148,1,2,0:0:0:0:
192,192,14148,1,0,0:0:0:0:
448,192,14485,1,8,0:0:0:0:
192,192,14822,1,2,0:0:0:0:
320,192,14822,1,0,0:0:0:0:
64,192,15159,1,8,0:0:0:0:
320,192,15496,1,2,0:0:0:0:
192,192,15664,1,0,0:0:0:0:
64,192,15833,1,8,0:0:0:0:
192,192,16170,1,2,0:0:0:0:
320,192,16170,1,0,0:0:0:0:
448,192,16507,1,8,0:0:0:0:
320,192,16676,1,2,0:0:0:0:
64,192,16844,1,2,0:0:0:0:
192,192,16844,1,4,0:0:0:0:
448,192,17181,1,8,0:0:0:0:
192,192,17518,1,2,0:0:0:0:
320,192,17518,1,0,0:0:0:0:
64,192,17856,1,8,0:0:0:0:
192,192,18024,1,0,0:0:0:0:
320,192,18193,1,2,0:0:0:0:
448,192,18193,1,0,0:0:0:0:
64,192,18530,1,8,0:0:0:0:
192,192,18867,1,2,0:0:0:0:
448,192,18867,1,0,0:0:0:0:
320,192,19204,1,8,0:0:0:0:
192,192,19372,1,0,0:0:0:0:
64,192,19541,1,2,0:0:0:0:
448,192,19541,1,0,0:0:0:0:
320,192,19878,1,8,0:0:0:0:
64,192,20215,1,2,0:0:0:0:
192,192,20215,1,0,0:0:0:0:
320,192,20552,1,8,0:0:0:0:
448,192,20889,1,2,0:0:0:0:
320,192,21058,1,0,0:0:0:0:
192,192,21226,1,8,0:0:0:0:
320,192,21563,1,2,0:0:0:0:
448,192,21563,1,0,0:0:0:0:
64,192,21900,128,8,22238:0:0:0:0:
320,192,22238,1,2,0:0:0:0:
448,192,22238,1,4,0:0:0:0:
192,192,22575,1,8,0:0:0:0:
320,192,22743,1,0,0:0:0:0:
64,192,22912,1,2,0:0:0:0:
448,192,22912,1,0,0:0:0:0:
320,192,23249,1,8,0:0:0:0:
64,192,23586,1,2,0:0:0:0:
192,192,23586,1,0,0:0:0:0:
320,192,23923,1,8,0:0:0:0:
192,192,24091,1,0,0:0:0:0:
64,192,24260,1,2,0:0:0:0:
448,192,24260,1,0,0:0:0:0:
320,192,24597,1,8,0:0:0:0:
64,192,24934,1,2,0:0:0:0:
192,192,24934,1,0,0:0:0:0:
320,192,25271,1,8,0:0:0:0:
192,192,25440,1,0,0:0:0:0:
64,192,25608,1,2,0:0:0:0:
320,192,25608,1,0,0:0:0:0:
192,192,25945,1,8,0:0:0:0:
320,192,26282,1,2,0:0:0:0:
448,192,26282,1,0,0:0:0:0:
192,192,26620,1,8,0:0:0:0:
320,192,26788,1,0,0:0:0:0:
64,192,26957,1,2,0:0:0:0:
448,192,26957,1,8,0:3:0:0:
320,192,27294,1,8,0:0:0:0:
64,192,27631,1,2,0:0:0:0:
448,192,27631,1,4,0:0:0:0:
320,192,27968,1,8,0:0:0:0:
448,192,28136,1,0,0:0:0:0:
64,192,28305,1,2,0:0:0:0:
192,192,28305,1,0,0:0:0:0:
320,192,28642,1,8,0:0:0:0:
192,192,28979,1,2,0:0:0:0:
448,192,28979,1,0,0:0:0:0:
64,192,29316,1,8,0:0:0:0:
192,192,29485,1,0,0:0:0:0:
320,192,29653,1,2,0:0:0:0:
448,192,29653,1,0,0:0:0:0:
192,192,29990,1,8,0:0:0:0:
64,192,30159,1,2,0:3:0:0:
320,192,30327,1,2,0:0:0:0:
448,192,30327,1,0,0:0:0:0:
192,192,30664,1,8,0:0:0:0:
320,192,30833,1,0,0:0:0:0:
64,192,31002,1,2,0:0:0:0:
448,192,31002,1,0,0:0:0:0:
320,192,31339,1,8,0:0:0:0:
192,192,31507,1,2,0:3:0:0:
64,192,31676,1,2,0:0:0:0:
448,192,31676,1,0,0:0:0:0:
192,192,32013,1,8,0:0:0:0:
448,192,32350,1,8,0:3:0:0:
320,192,32687,1,2,0:3:0:0:
192,192,32856,1,2,0:3:0:0:
64,192,33024,1,2,0:0:0:0:
64,192,33193,1,2,0:0:0:0:
192,192,34372,1,2,0:0:0:0:
192,192,34541,1,2,0:0:0:0:
320,192,35721,1,2,0:0:0:0:
320,192,35889,1,2,0:0:0:0:
448,192,37069,1,2,0:0:0:0:
448,192,37238,1,2,0:0:0:0:
64,192,37743,1,8,0:3:0:0:
192,192,37912,1,2,0:3:0:0:
320,192,38080,1,8,0:3:0:0:
448,192,38249,1,2,0:3:0:0:
