osu file format v14

[General]
AudioFilename: audio.mp3
AudioLeadIn: 0
PreviewTime: 10970
Countdown: 1
SampleSet: Soft
StackLeniency: 0.7
Mode: 0
LetterboxInBreaks: 0
WidescreenStoryboard: 0

[Editor]
Bookmarks: 22178
DistanceSpacing: 0.8
BeatDivisor: 4
GridSize: 16
TimelineZoom: 1.3

[Metadata]
Title:Insert Coin
TitleUnicode:Insert Coin
Artist:Thaehan
ArtistUnicode:Thaehan
Creator:KaedeharaKazuha
Version:Press Start
Source:
Tags:Addy2607 Kaedehara Kazuha Kyouren gokugohan12468 KittyAdventure instrumental bitpop 8bit 8-bit electronic loki chiptune omgwtf omgwtf! fa featured artist mpg mg mappers mappers' guild
BeatmapID:4458267
BeatmapSetID:2121687

[Difficulty]
HPDrainRate:5
CircleSize:3.8
OverallDifficulty:8
ApproachRate:9
SliderMultiplier:1.7
SliderTickRate:1

[Events]
//Background and Video events
0,0,"again-6956363_1920.jpg",0,0
//Break Periods
//Storyboard Layer 0 (Background)
//Storyboard Layer 1 (Fail)
//Storyboard Layer 2 (Pass)
//Storyboard Layer 3 (Foreground)
//Storyboard Layer 4 (Overlay)
//Storyboard Sound Samples

[TimingPoints]
609,337.078651685393,4,2,1,70,1,0
609,-142.857142857143,4,2,1,70,0,0
11395,-100,4,2,1,80,0,0
22182,-117.647058823529,4,2,1,70,0,0
30271,-100,4,2,1,70,0,0
30608,-117.647058823529,4,2,1,70,0,0
32968,-142.857142857143,4,2,1,60,0,0

[Colours]
Combo1 : 219,142,221
Combo2 : 252,92,92
Combo3 : 16,149,248
Combo4 : 126,243,120

[HitObjects]
495,21,609,6,0,P|486:83|481:128,1,89.2499972763062,2|0,3:2|0:0,0:0:0:0:
489,118,946,1,8,0:0:0:0:
413,25,1114,1,8,0:3:0:0:
413,25,1198,1,8,0:3:0:0:
413,25,1283,2,0,P|409:54|405:84,1,59.4999981842042,4|4,0:3|0:3,0:0:0:0:
512,219,1620,5,8,0:3:0:0:
512,219,1704,1,8,0:3:0:0:
512,219,1788,1,4,0:3:0:0:
512,219,1873,1,4,0:3:0:0:
512,219,1957,2,0,P|440:194|386:273,1,178.499994552612,2|8,3:2|0:0,0:0:0:0:
391,276,2547,1,0,0:0:0:0:
396,284,2631,1,0,3:0:0:0:
138,147,2968,1,0,3:0:0:0:
79,212,3137,5,2,0:0:0:0:
79,212,3221,1,0,0:0:0:0:
79,212,3305,2,0,P|87:272|94:337,1,118.999996368408,2|8,3:2|0:3,0:0:0:0:
89,339,3726,1,8,0:3:0:0:
84,347,3811,1,8,0:0:0:0:
161,232,3979,2,0,P|165:266|169:302,1,59.4999981842042,2|0,3:2|0:0,0:0:0:0:
287,376,4316,2,0,P|282:341|278:305,1,59.4999981842042,2|0,3:2|0:0,0:0:0:0:
393,180,4653,5,2,3:2:0:0:
451,234,4822,1,2,0:0:0:0:
512,181,4991,2,0,P|507:146|503:110,1,59.4999981842042,2|8,0:0|0:0,0:0:0:0:
426,44,5328,2,0,P|402:46|378:49,3,29.7499990921021,8|8|8|8,0:3|0:3|0:3|0:3,0:0:0:0:
332,6,5665,2,0,P|308:8|284:11,3,29.7499990921021,4|4|4|4,0:3|0:3|0:3|0:3,0:0:0:0:
240,53,6002,6,0,P|209:87|237:151,1,118.999996368408,2|8,3:2|0:0,0:0:0:0:
390,250,6507,1,8,0:3:0:0:
390,250,6592,1,8,0:3:0:0:
390,250,6676,2,0,L|433:243,3,29.7499990921021,4|4|4|4,0:3|0:3|0:3|0:3,0:0:0:0:
346,329,7012,5,8,0:3:0:0:
346,329,7097,1,8,0:3:0:0:
346,329,7181,1,4,0:3:0:0:
346,329,7265,1,4,0:3:0:0:
346,329,7350,2,0,P|225:318|151:314,1,178.499994552612,2|8,3:2|0:0,0:0:0:0:
161,321,7940,1,0,0:0:0:0:
154,327,8024,1,0,3:0:0:0:
4,135,8361,1,0,3:0:0:0:
68,74,8530,5,2,0:0:0:0:
68,74,8614,1,0,0:0:0:0:
68,74,8698,2,0,P|152:81|203:84,1,118.999996368408,2|0,3:2|0:0,0:0:0:0:
308,12,9204,1,8,0:3:0:0:
308,12,9288,1,8,0:3:0:0:
308,12,9373,2,0,P|350:15|375:17,1,59.4999981842042,2|0,3:2|0:0,0:0:0:0:
499,157,9710,2,0,P|457:154|432:152,1,59.4999981842042,2|0,3:2|0:0,0:0:0:0:
374,200,10047,5,2,3:2:0:0:
319,135,10215,1,8,0:0:0:0:
319,135,10300,1,0,0:0:0:0:
319,135,10384,1,0,3:0:0:0:
86,339,10721,2,0,L|93:385,3,29.7499990921021,8|8|4|4,0:3|0:3|0:3|0:3,0:0:0:0:
18,284,11058,5,2,0:0:0:0:
9,225,11170,5,2,0:0:0:0:
0,166,11282,5,2,0:0:0:0:
46,101,11395,6,0,P|86:105|150:114,1,85,4|2,3:2|0:3,0:0:0:0:
139,105,11648,1,2,0:3:0:0:
148,99,11732,1,8,0:0:0:0:
224,25,11901,1,2,0:3:0:0:
224,25,11985,1,2,0:3:0:0:
224,25,12069,1,0,3:0:0:0:
293,99,12238,2,0,L|299:152,2,42.5,2|2|8,0:3|0:3|0:0,0:0:0:0:
471,36,12575,5,2,0:3:0:0:
471,36,12659,1,2,0:3:0:0:
471,36,12743,2,0,P|478:98|482:137,1,85,0|2,3:0|0:3,0:0:0:0:
395,203,13080,1,8,0:0:0:0:
512,357,13249,1,2,0:3:0:0:
512,357,13334,1,2,0:3:0:0:
512,357,13417,2,0,P|472:307|403:325,1,127.5,0|0,3:0|0:0,0:0:0:0:
408,324,13755,1,8,0:0:0:0:
258,251,13923,5,2,0:3:0:0:
258,251,14007,1,2,0:3:0:0:
258,251,14091,2,0,P|265:313|269:352,1,85,0|2,3:0|0:3,0:0:0:0:
187,375,14344,1,2,0:3:0:0:
187,375,14429,2,0,P|179:312|175:273,1,85,8|2,0:0|0:3,0:0:0:0:
61,181,14766,1,0,3:0:0:0:
14,248,14934,1,2,0:3:0:0:
14,248,15018,1,2,0:3:0:0:
14,248,15102,2,0,P|21:310|25:349,1,85,8|2,0:0|0:3,0:0:0:0:
123,123,15440,5,0,3:0:0:0:
62,63,15608,1,2,0:3:0:0:
122,6,15777,2,0,P|180:3|219:-3,1,85,8|2,0:0|0:3,0:0:0:0:
285,22,16030,1,2,0:3:0:0:
285,22,16114,2,0,P|316:61|297:101,1,85,0|2,3:0|0:3,0:0:0:0:
178,273,16451,1,8,0:0:0:0:
255,331,16620,5,2,0:3:0:0:
255,331,16704,1,2,0:3:0:0:
255,331,16788,2,0,P|348:319|440:314,1,170,0|8,3:0|0:0,0:0:0:0:
512,221,17294,1,2,0:3:0:0:
512,221,17378,1,2,0:3:0:0:
512,221,17462,2,0,P|506:174|503:128,1,85,0|2,3:0|0:3,0:0:0:0:
434,74,17800,1,8,0:0:0:0:
246,186,17968,5,2,0:3:0:0:
246,186,18052,1,2,0:3:0:0:
246,186,18137,2,0,P|240:134|233:89,1,85,0|2,3:0|0:3,0:0:0:0:
147,84,18389,1,2,0:3:0:0:
147,84,18474,2,0,P|153:126|157:168,1,85,8|2,0:0|0:3,0:0:0:0:
98,220,18726,1,2,0:3:0:0:
98,220,18811,2,0,P|48:269|69:321,1,127.5,0|0,3:0|0:0,0:0:0:0:
72,323,19148,1,8,0:0:0:0:
275,363,19316,5,2,0:3:0:0:
275,363,19401,1,2,0:3:0:0:
275,363,19485,2,0,P|336:355|454:347,1,170,0|8,3:0|0:0,0:0:0:0:
512,285,19991,1,2,0:3:0:0:
512,285,20075,1,2,0:3:0:0:
512,285,20159,1,0,3:0:0:0:
421,199,20328,1,2,0:3:0:0:
421,199,20412,1,2,0:3:0:0:
421,199,20496,1,8,0:0:0:0:
507,0,20665,5,2,0:3:0:0:
507,0,20749,1,2,0:3:0:0:
507,0,20833,2,0,P|511:36|515:56,1,42.5,0|0,3:0|0:0,0:0:0:0:
461,103,21002,1,2,0:3:0:0:
461,103,21086,1,2,0:3:0:0:
461,103,21170,2,0,P|365:114|276:129,1,170,8|0,0:0|3:0,0:0:0:0:
197,9,21844,5,2,0:0:0:0:
138,18,21956,5,2,0:0:0:0:
79,27,22068,5,2,0:0:0:0:
30,90,22182,6,0,P|39:161|39:233,1,144.500002756119,0|8,3:0|0:0,0:0:0:0:
127,347,22687,1,2,0:0:0:0:
127,347,22771,1,0,0:0:0:0:
127,347,22856,2,0,P|119:311|116:275,1,72.2500013780594,0|0,3:0|0:0,0:0:0:0:
195,145,23193,1,8,0:0:0:0:
195,145,23277,1,8,0:3:0:0:
195,145,23361,1,4,0:3:0:0:
195,145,23446,1,4,0:3:0:0:
195,145,23530,6,0,L|204:289,1,144.500002756119,0|8,3:0|0:0,0:0:0:0:
270,370,24035,1,2,0:0:0:0:
280,365,24120,1,0,0:0:0:0:
290,360,24204,2,0,B|297:324|297:324|290:289,1,72.2500013780594,0|0,3:0|0:0,0:0:0:0:
470,190,24541,1,8,0:0:0:0:
470,190,24625,1,8,0:3:0:0:
470,190,24709,1,4,0:3:0:0:
470,190,24794,1,4,0:3:0:0:
470,190,24878,6,0,B|447:195|425:190|425:190|390:221|331:212,1,144.500002756119,0|8,3:0|0:0,0:0:0:0:
275,55,25384,1,2,0:0:0:0:
285,65,25468,1,0,0:0:0:0:
295,75,25552,2,0,L|278:170,1,72.2500013780594,0|0,3:0|0:0,0:0:0:0:
210,265,25889,1,8,0:0:0:0:
185,254,25974,1,8,0:3:0:0:
166,235,26058,1,4,0:3:0:0:
156,210,26142,1,4,0:3:0:0:
157,183,26226,6,0,P|93:215|23:205,1,144.500002756119,0|8,3:0|0:0,0:0:0:0:
167,97,26732,1,2,0:0:0:0:
167,97,26816,1,0,0:0:0:0:
167,97,26901,2,0,L|202:102,3,36.1250006890297,8|8|8|8,0:3|0:3|0:3|0:3,0:0:0:0:
275,55,27238,1,8,0:0:0:0:
276,46,27321,1,4,0:3:0:0:
277,37,27406,1,4,0:3:0:0:
279,28,27490,1,4,0:3:0:0:
280,19,27575,6,0,B|365:30|330:53|415:63,1,144.500002756119,0|8,3:0|0:0,0:0:0:0:
512,132,28080,1,2,0:0:0:0:
512,132,28165,1,0,0:0:0:0:
512,132,28249,2,0,P|476:136|440:142,1,72.2500013780594,0|0,3:0|0:0,0:0:0:0:
305,190,28586,1,8,0:0:0:0:
322,191,28670,1,8,0:3:0:0:
340,194,28755,1,4,0:3:0:0:
358,197,28839,1,4,0:3:0:0:
376,200,28923,6,0,L|359:343,1,144.500002756119,0|8,3:0|0:0,0:0:0:0:
255,309,29429,1,2,0:0:0:0:
255,309,29513,1,0,0:0:0:0:
255,309,29597,2,0,P|269:341|278:376,1,72.2500013780594,0|0,3:0|0:0,0:0:0:0:
185,240,29934,1,8,0:0:0:0:
154,259,30019,1,8,0:3:0:0:
120,270,30103,1,4,0:3:0:0:
84,272,30187,1,4,0:3:0:0:
49,264,30271,6,0,P|130:275|172:346,1,170,0|8,3:0|0:0,0:0:0:0:
277,217,30777,1,2,0:0:0:0:
277,217,30861,1,0,0:0:0:0:
277,217,30946,2,0,L|284:145,1,72.2500013780594,2|2,3:2|0:0,0:0:0:0:
125,40,31283,1,10,0:0:0:0:
126,57,31367,1,8,0:3:0:0:
128,75,31451,1,4,0:3:0:0:
130,93,31535,1,4,0:3:0:0:
132,111,31620,5,0,3:0:0:0:
297,11,31788,1,2,0:3:0:0:
297,11,31873,1,2,0:3:0:0:
297,11,31957,1,8,0:0:0:0:
392,192,32125,1,2,0:3:0:0:
392,192,32210,1,2,0:3:0:0:
392,192,32294,2,0,L|427:185,3,36.1250006890297,8|8|8|8,0:3|0:3|0:3|0:3,0:0:0:0:
495,235,32631,2,0,L|501:270,3,36.1250006890297,4|4|4|4,0:3|0:3|0:3|0:3,0:0:0:0:
449,339,32968,5,2,3:2:0:0:
449,339,33137,1,0,3:0:0:0:
275,215,33305,6,0,P|245:215|215:212,1,59.4999981842042,2|0,0:0|0:0,0:0:0:0:
325,350,33642,2,0,P|324:320|327:290,1,59.4999981842042,2|0,0:0|0:0,0:0:0:0:
159,284,33979,5,2,0:0:0:0:
159,284,34148,1,0,0:0:0:0:
254,134,34316,5,2,3:2:0:0:
254,134,34485,1,0,3:0:0:0:
400,235,34653,6,0,P|429:234|459:237,1,59.4999981842042,2|0,0:0|0:0,0:0:0:0:
350,100,34990,2,0,P|350:129|347:159,1,59.4999981842042,2|0,0:0|0:0,0:0:0:0:
164,124,35328,5,2,0:0:0:0:
164,124,35496,1,0,0:0:0:0:
244,229,35665,5,2,3:2:0:0:
244,229,35833,1,0,3:0:0:0:
75,310,36002,6,0,P|74:280|77:250,1,59.4999981842042,2|0,0:0|0:0,0:0:0:0:
164,124,36339,2,0,P|164:153|161:183,1,59.4999981842042,2|0,0:0|0:0,0:0:0:0:
244,319,36676,5,2,0:0:0:0:
244,319,36844,1,0,0:0:0:0:
324,184,37013,5,2,3:2:0:0:
324,184,37182,1,0,3:0:0:0:
455,235,37350,6,0,P|425:235|395:232,1,59.4999981842042,2|0,0:0|0:0,0:0:0:0:
255,120,37687,6,0,L|259:90,3,29.7499990921021,8|8|4|4,0:3|0:3|0:3|0:3,0:0:0:0:
332,47,38024,1,8,0:3:0:0:
332,47,38108,1,8,0:3:0:0:
332,47,38193,2,0,L|361:51,1,29.7499990921021,4|4,0:3|0:3,0:0:0:0:
