osu file format v14

[General]
AudioFilename: audio.mp3
AudioLeadIn: 0
PreviewTime: 19631
Countdown: 1
SampleSet: Normal
StackLeniency: 0.7
Mode: 1
LetterboxInBreaks: 0
WidescreenStoryboard: 1

[Editor]
Bookmarks: 40,9835,19631,29427,39223,49019,58815,78407,88203,97999,107795,117591,137182,142080
DistanceSpacing: 0.8
BeatDivisor: 2
GridSize: 32
TimelineZoom: 2.7

[Metadata]
Title:Help
TitleUnicode:Help
Artist:Thaehan
ArtistUnicode:Thaehan
Creator:incandescence
Version:Ayyri's Muzukashii
Source:osu!
Tags:fa featured artist loki bwa piano taikocracy eiri- ayyri drum bass electronic instrumental
BeatmapID:1854296
BeatmapSetID:887013

[Difficulty]
HPDrainRate:5
CircleSize:2
OverallDifficulty:5
ApproachRate:10
SliderMultiplier:1.4
SliderTickRate:1

[Events]
//Background and Video events
0,0,"thank-you-2441247_1920.jpg",0,-65
//Break Periods
//Storyboard Layer 0 (Background)
//Storyboard Layer 1 (Fail)
//Storyboard Layer 2 (Pass)
//Storyboard Layer 3 (Foreground)
//Storyboard Layer 4 (Overlay)
//Storyboard Sound Samples

[TimingPoints]
40,306.122448979592,4,1,0,25,1,0
18407,-100,4,1,0,50,0,0
19631,-100,4,1,0,75,0,0
58815,-100,4,1,0,75,0,1
78407,-100,4,1,0,75,0,0
117591,-100,4,1,0,75,0,1
137182,-100,4,1,0,50,0,0
140856,-100,4,1,0,75,0,0

[HitObjects]
256,192,40,5,0,0:0:0:0:
256,192,652,1,0,0:0:0:0:
256,192,958,1,0,0:0:0:0:
256,192,1111,1,0,0:0:0:0:
256,192,1264,1,8,0:0:0:0:
256,192,2182,1,0,0:0:0:0:
256,192,2488,1,8,0:0:0:0:
256,192,3101,1,0,0:0:0:0:
256,192,3713,1,8,0:0:0:0:
256,192,4478,1,0,0:0:0:0:
256,192,4631,1,8,0:0:0:0:
256,192,4784,1,8,0:0:0:0:
256,192,4937,1,0,0:0:0:0:
256,192,5550,1,0,0:0:0:0:
256,192,6162,1,8,0:0:0:0:
256,192,6927,1,0,0:0:0:0:
256,192,7080,1,8,0:0:0:0:
256,192,7233,1,0,0:0:0:0:
256,192,7386,1,8,0:0:0:0:
256,192,8611,1,0,0:0:0:0:
256,192,8917,1,0,0:0:0:0:
256,192,9223,1,8,0:0:0:0:
256,192,9529,1,8,0:0:0:0:
256,192,9835,1,0,0:0:0:0:
256,192,10448,1,0,0:0:0:0:
256,192,10754,1,8,0:0:0:0:
256,192,11060,1,0,0:0:0:0:
256,192,11825,1,0,0:0:0:0:
256,192,11978,1,8,0:0:0:0:
256,192,12131,1,8,0:0:0:0:
256,192,12284,1,0,0:0:0:0:
256,192,12897,1,0,0:0:0:0:
256,192,13509,1,8,0:0:0:0:
256,192,14274,1,0,0:0:0:0:
256,192,14427,1,8,0:0:0:0:
256,192,14580,1,0,0:0:0:0:
256,192,14733,1,8,0:0:0:0:
256,192,15346,1,8,0:0:0:0:
256,192,15958,1,0,0:0:0:0:
256,192,16417,1,8,0:0:0:0:
256,192,16570,1,0,0:0:0:0:
256,192,16876,1,8,0:0:0:0:
256,192,17182,1,0,0:0:0:0:
256,192,18407,1,0,0:0:0:0:
256,192,18560,1,0,0:0:0:0:
256,192,18713,1,8,0:0:0:0:
256,192,18866,1,8,0:0:0:0:
256,192,19019,1,0,0:0:0:0:
256,192,19172,1,8,0:0:0:0:
256,192,19325,1,0,0:0:0:0:
256,192,19402,1,0,0:0:0:0:
256,192,19478,1,0,0:0:0:0:
256,192,19631,1,12,0:0:0:0:
256,192,19937,1,8,0:0:0:0:
256,192,20244,1,8,0:0:0:0:
256,192,20397,1,0,0:0:0:0:
256,192,20550,1,8,0:0:0:0:
256,192,20703,1,8,0:0:0:0:
256,192,20856,1,0,0:0:0:0:
256,192,21162,1,8,0:0:0:0:
256,192,21315,1,0,0:0:0:0:
256,192,21392,1,0,0:0:0:0:
256,192,21468,1,0,0:0:0:0:
256,192,21621,1,0,0:0:0:0:
256,192,21774,1,8,0:0:0:0:
256,192,22080,1,0,0:0:0:0:
256,192,22386,1,8,0:0:0:0:
256,192,22693,1,0,0:0:0:0:
256,192,22846,1,0,0:0:0:0:
256,192,22999,1,8,0:0:0:0:
256,192,23152,1,0,0:0:0:0:
256,192,23228,1,0,0:0:0:0:
256,192,23305,1,0,0:0:0:0:
256,192,23611,1,8,0:0:0:0:
256,192,23917,1,0,0:0:0:0:
256,192,24070,1,0,0:0:0:0:
256,192,24223,1,8,0:0:0:0:
256,192,24376,1,8,0:0:0:0:
256,192,24529,1,0,0:0:0:0:
256,192,25142,1,0,0:0:0:0:
256,192,25295,1,0,0:0:0:0:
256,192,25448,1,8,0:0:0:0:
256,192,25601,1,0,0:0:0:0:
256,192,25677,1,0,0:0:0:0:
256,192,25754,1,0,0:0:0:0:
256,192,26060,1,8,0:0:0:0:
256,192,26213,1,0,0:0:0:0:
256,192,26519,1,0,0:0:0:0:
256,192,26672,1,8,0:0:0:0:
256,192,26825,1,8,0:0:0:0:
256,192,26978,1,0,0:0:0:0:
256,192,27055,1,0,0:0:0:0:
256,192,27131,1,0,0:0:0:0:
256,192,27284,1,8,0:0:0:0:
256,192,27437,1,0,0:0:0:0:
256,192,27744,1,0,0:0:0:0:
256,192,27897,1,8,0:0:0:0:
256,192,28050,1,0,0:0:0:0:
256,192,28203,1,8,0:0:0:0:
256,192,28509,1,8,0:0:0:0:
256,192,28662,1,8,0:0:0:0:
256,192,28738,1,8,0:0:0:0:
256,192,28815,1,8,0:0:0:0:
256,192,28968,1,0,0:0:0:0:
256,192,29121,1,8,0:0:0:0:
256,192,29274,1,0,0:0:0:0:
256,192,29427,1,12,0:0:0:0:
256,192,29733,1,8,0:0:0:0:
256,192,30040,1,8,0:0:0:0:
256,192,30193,1,0,0:0:0:0:
256,192,30346,1,8,0:0:0:0:
256,192,30652,1,8,0:0:0:0:
256,192,30958,1,8,0:0:0:0:
256,192,31111,1,0,0:0:0:0:
256,192,31187,1,0,0:0:0:0:
256,192,31264,1,0,0:0:0:0:
256,192,31417,1,8,0:0:0:0:
256,192,31570,1,8,0:0:0:0:
256,192,31723,1,0,0:0:0:0:
256,192,31876,1,8,0:0:0:0:
256,192,32488,1,8,0:0:0:0:
256,192,32642,1,0,0:0:0:0:
256,192,32795,1,8,0:0:0:0:
256,192,32948,1,0,0:0:0:0:
256,192,33024,1,0,0:0:0:0:
256,192,33101,1,0,0:0:0:0:
256,192,33407,1,8,0:0:0:0:
256,192,33713,1,0,0:0:0:0:
256,192,33866,1,0,0:0:0:0:
256,192,34019,1,8,0:0:0:0:
256,192,34172,1,8,0:0:0:0:
256,192,34325,1,0,0:0:0:0:
256,192,34631,1,8,0:0:0:0:
256,192,34937,1,0,0:0:0:0:
256,192,35091,1,0,0:0:0:0:
256,192,35244,1,8,0:0:0:0:
256,192,35397,1,0,0:0:0:0:
256,192,35473,1,0,0:0:0:0:
256,192,35550,1,0,0:0:0:0:
256,192,35856,1,8,0:0:0:0:
256,192,36009,1,0,0:0:0:0:
256,192,36162,1,8,0:0:0:0:
256,192,36468,1,8,0:0:0:0:
256,192,36774,1,0,0:0:0:0:
256,192,36927,1,0,0:0:0:0:
256,192,37080,1,8,0:0:0:0:
256,192,37233,1,0,0:0:0:0:
256,192,37386,1,0,0:0:0:0:
256,192,37540,1,0,0:0:0:0:
256,192,37693,1,8,0:0:0:0:
256,192,37846,1,0,0:0:0:0:
256,192,37999,1,8,0:0:0:0:
256,192,38917,1,0,0:0:0:0:
256,192,38994,1,0,0:0:0:0:
256,192,39070,1,0,0:0:0:0:
256,192,39223,1,12,0:0:0:0:
256,192,39529,1,8,0:0:0:0:
256,192,39682,1,0,0:0:0:0:
256,192,39988,1,0,0:0:0:0:
256,192,40142,1,8,0:0:0:0:
256,192,40448,1,0,0:0:0:0:
256,192,40754,1,8,0:0:0:0:
256,192,40907,1,0,0:0:0:0:
256,192,41213,1,0,0:0:0:0:
256,192,41366,1,8,0:0:0:0:
256,192,41519,1,8,0:0:0:0:
256,192,41672,1,0,0:0:0:0:
256,192,41978,1,8,0:0:0:0:
256,192,42131,1,0,0:0:0:0:
256,192,42284,1,0,0:0:0:0:
256,192,42591,1,8,0:0:0:0:
256,192,42897,1,0,0:0:0:0:
256,192,43203,1,8,0:0:0:0:
256,192,43356,1,0,0:0:0:0:
256,192,43509,1,0,0:0:0:0:
256,192,43662,1,0,0:0:0:0:
256,192,43815,1,8,0:0:0:0:
256,192,44121,1,0,0:0:0:0:
256,192,44427,1,8,0:0:0:0:
256,192,44580,1,0,0:0:0:0:
256,192,45040,1,8,0:0:0:0:
256,192,45346,1,0,0:0:0:0:
256,192,45652,1,8,0:0:0:0:
256,192,45805,1,0,0:0:0:0:
256,192,46111,1,0,0:0:0:0:
256,192,46264,1,8,0:0:0:0:
256,192,46417,1,8,0:0:0:0:
256,192,46570,1,0,0:0:0:0:
256,192,46876,1,8,0:0:0:0:
256,192,47029,1,0,0:0:0:0:
256,192,47182,1,0,0:0:0:0:
256,192,47488,1,8,0:0:0:0:
256,192,47795,1,0,0:0:0:0:
256,192,48101,1,8,0:0:0:0:
256,192,48254,1,0,0:0:0:0:
256,192,48407,1,0,0:0:0:0:
256,192,48560,1,0,0:0:0:0:
256,192,48713,1,0,0:0:0:0:
256,192,48790,1,0,0:0:0:0:
256,192,48866,1,0,0:0:0:0:
256,192,49019,1,12,0:0:0:0:
256,192,49325,1,8,0:0:0:0:
256,192,49478,1,0,0:0:0:0:
256,192,49784,1,0,0:0:0:0:
256,192,49937,1,8,0:0:0:0:
256,192,50244,1,0,0:0:0:0:
256,192,50550,1,8,0:0:0:0:
256,192,51009,1,0,0:0:0:0:
256,192,51162,1,8,0:0:0:0:
256,192,51468,1,0,0:0:0:0:
256,192,51774,1,8,0:0:0:0:
256,192,51927,1,0,0:0:0:0:
256,192,52233,1,0,0:0:0:0:
256,192,52386,1,8,0:0:0:0:
256,192,52693,1,0,0:0:0:0:
256,192,52999,1,8,0:0:0:0:
256,192,53152,1,0,0:0:0:0:
256,192,53458,1,0,0:0:0:0:
256,192,53611,1,8,0:0:0:0:
256,192,53764,1,0,0:0:0:0:
256,192,53917,1,0,0:0:0:0:
256,192,54223,1,8,0:0:0:0:
256,192,54376,1,0,0:0:0:0:
256,192,54682,1,0,0:0:0:0:
256,192,54835,1,8,0:0:0:0:
256,192,55142,1,0,0:0:0:0:
256,192,55448,1,8,0:0:0:0:
256,192,55907,1,0,0:0:0:0:
256,192,56060,1,8,0:0:0:0:
256,192,56366,1,0,0:0:0:0:
256,192,56672,1,8,0:0:0:0:
256,192,56825,1,0,0:0:0:0:
256,192,57131,1,0,0:0:0:0:
256,192,57284,1,8,0:0:0:0:
256,192,57591,1,0,0:0:0:0:
256,192,57744,1,0,0:0:0:0:
256,192,57897,1,8,0:0:0:0:
256,192,58050,1,8,0:0:0:0:
256,192,58203,1,0,0:0:0:0:
256,192,58509,1,0,0:0:0:0:
256,192,58662,1,0,0:0:0:0:
256,192,58815,1,12,0:0:0:0:
256,192,59121,1,8,0:0:0:0:
256,192,59274,1,0,0:0:0:0:
256,192,59427,1,8,0:0:0:0:
256,192,59504,1,8,0:0:0:0:
256,192,59580,1,8,0:0:0:0:
256,192,59733,1,8,0:0:0:0:
256,192,59886,1,0,0:0:0:0:
256,192,60040,1,0,0:0:0:0:
256,192,60346,1,8,0:0:0:0:
256,192,60652,1,0,0:0:0:0:
256,192,60805,1,0,0:0:0:0:
256,192,60958,1,8,0:0:0:0:
256,192,61264,1,0,0:0:0:0:
256,192,61417,1,0,0:0:0:0:
256,192,61570,1,8,0:0:0:0:
256,192,61647,1,8,0:0:0:0:
256,192,61723,1,8,0:0:0:0:
256,192,61876,1,0,0:0:0:0:
256,192,62182,1,8,0:0:0:0:
256,192,62335,1,0,0:0:0:0:
256,192,62488,1,8,0:0:0:0:
256,192,62565,1,8,0:0:0:0:
256,192,62642,1,8,0:0:0:0:
256,192,62795,1,8,0:0:0:0:
256,192,63101,1,0,0:0:0:0:
256,192,63713,1,0,0:0:0:0:
256,192,63866,1,0,0:0:0:0:
256,192,64019,1,8,0:0:0:0:
256,192,64096,1,8,0:0:0:0:
256,192,64172,1,8,0:0:0:0:
256,192,64325,1,8,0:0:0:0:
256,192,64631,1,0,0:0:0:0:
256,192,64784,1,0,0:0:0:0:
256,192,64937,1,8,0:0:0:0:
256,192,65014,1,8,0:0:0:0:
256,192,65091,1,8,0:0:0:0:
256,192,65244,1,8,0:0:0:0:
256,192,65397,1,0,0:0:0:0:
256,192,65550,1,8,0:0:0:0:
256,192,65856,1,8,0:0:0:0:
256,192,66162,1,8,0:0:0:0:
256,192,66315,1,0,0:0:0:0:
256,192,66468,1,8,0:0:0:0:
256,192,66774,1,0,0:0:0:0:
256,192,66927,1,0,0:0:0:0:
256,192,67080,1,8,0:0:0:0:
256,192,67386,1,8,0:0:0:0:
256,192,67540,1,0,0:0:0:0:
256,192,67693,1,8,0:0:0:0:
256,192,67999,1,0,0:0:0:0:
256,192,68152,1,0,0:0:0:0:
256,192,68305,1,8,0:0:0:0:
256,192,68458,1,0,0:0:0:0:
256,192,68611,1,12,0:0:0:0:
256,192,68917,1,8,0:0:0:0:
256,192,69070,1,0,0:0:0:0:
256,192,69223,1,8,0:0:0:0:
256,192,69300,1,8,0:0:0:0:
256,192,69376,1,8,0:0:0:0:
256,192,69529,1,8,0:0:0:0:
256,192,69682,1,0,0:0:0:0:
256,192,69835,1,0,0:0:0:0:
256,192,70142,1,8,0:0:0:0:
256,192,70601,1,0,0:0:0:0:
256,192,70754,1,8,0:0:0:0:
256,192,71060,1,0,0:0:0:0:
256,192,71213,1,0,0:0:0:0:
256,192,71366,1,8,0:0:0:0:
256,192,71443,1,8,0:0:0:0:
256,192,71519,1,8,0:0:0:0:
256,192,71672,1,0,0:0:0:0:
256,192,71978,1,8,0:0:0:0:
256,192,72131,1,0,0:0:0:0:
256,192,72284,1,8,0:0:0:0:
256,192,72361,1,8,0:0:0:0:
256,192,72437,1,8,0:0:0:0:
256,192,72591,1,8,0:0:0:0:
256,192,72897,1,8,0:0:0:0:
256,192,73050,1,0,0:0:0:0:
256,192,73203,1,8,0:0:0:0:
256,192,73509,1,0,0:0:0:0:
256,192,73662,1,0,0:0:0:0:
256,192,73815,1,8,0:0:0:0:
256,192,73892,1,8,0:0:0:0:
256,192,73968,1,8,0:0:0:0:
256,192,74121,1,8,0:0:0:0:
256,192,74427,1,0,0:0:0:0:
256,192,74580,1,0,0:0:0:0:
256,192,74733,1,8,0:0:0:0:
256,192,74810,1,8,0:0:0:0:
256,192,74886,1,8,0:0:0:0:
256,192,75040,1,8,0:0:0:0:
256,192,75193,1,0,0:0:0:0:
256,192,75346,1,8,0:0:0:0:
256,192,75499,1,0,0:0:0:0:
256,192,75652,1,8,0:0:0:0:
256,192,75958,1,0,0:0:0:0:
256,192,76264,1,8,0:0:0:0:
256,192,76876,1,8,0:0:0:0:
256,192,77182,1,8,0:0:0:0:
256,192,77335,1,0,0:0:0:0:
256,192,77488,1,8,0:0:0:0:
256,192,77642,1,0,0:0:0:0:
256,192,77795,1,8,0:0:0:0:
256,192,77948,1,8,0:0:0:0:
256,192,78101,1,0,0:0:0:0:
256,192,78177,1,0,0:0:0:0:
256,192,78254,1,0,0:0:0:0:
256,192,78407,1,12,0:0:0:0:
256,192,78713,1,8,0:0:0:0:
256,192,78866,1,0,0:0:0:0:
256,192,79172,1,0,0:0:0:0:
256,192,79325,1,8,0:0:0:0:
256,192,79631,1,0,0:0:0:0:
256,192,79937,1,8,0:0:0:0:
256,192,80091,1,0,0:0:0:0:
256,192,80397,1,0,0:0:0:0:
256,192,80550,1,8,0:0:0:0:
256,192,80703,1,8,0:0:0:0:
256,192,80856,1,0,0:0:0:0:
256,192,81162,1,8,0:0:0:0:
256,192,81315,1,0,0:0:0:0:
256,192,81468,1,0,0:0:0:0:
256,192,81774,1,8,0:0:0:0:
256,192,82080,1,0,0:0:0:0:
256,192,82386,1,8,0:0:0:0:
256,192,82540,1,0,0:0:0:0:
256,192,82693,1,0,0:0:0:0:
256,192,82846,1,0,0:0:0:0:
256,192,82999,1,8,0:0:0:0:
256,192,83305,1,0,0:0:0:0:
256,192,83611,1,8,0:0:0:0:
256,192,83764,1,0,0:0:0:0:
256,192,84223,1,8,0:0:0:0:
256,192,84529,1,0,0:0:0:0:
256,192,84835,1,8,0:0:0:0:
256,192,84988,1,0,0:0:0:0:
256,192,85295,1,0,0:0:0:0:
256,192,85448,1,8,0:0:0:0:
256,192,85601,1,8,0:0:0:0:
256,192,85754,1,0,0:0:0:0:
256,192,86060,1,8,0:0:0:0:
256,192,86213,1,0,0:0:0:0:
256,192,86366,1,0,0:0:0:0:
256,192,86672,1,8,0:0:0:0:
256,192,86978,1,0,0:0:0:0:
256,192,87284,1,8,0:0:0:0:
256,192,87437,1,0,0:0:0:0:
256,192,87591,1,0,0:0:0:0:
256,192,87744,1,0,0:0:0:0:
256,192,87897,1,0,0:0:0:0:
256,192,87973,1,0,0:0:0:0:
256,192,88050,1,0,0:0:0:0:
256,192,88203,1,12,0:0:0:0:
256,192,88509,1,8,0:0:0:0:
256,192,88662,1,0,0:0:0:0:
256,192,88968,1,0,0:0:0:0:
256,192,89121,1,8,0:0:0:0:
256,192,89427,1,0,0:0:0:0:
256,192,89733,1,8,0:0:0:0:
256,192,90193,1,0,0:0:0:0:
256,192,90346,1,8,0:0:0:0:
256,192,90652,1,0,0:0:0:0:
256,192,90958,1,8,0:0:0:0:
256,192,91111,1,0,0:0:0:0:
256,192,91417,1,0,0:0:0:0:
256,192,91570,1,8,0:0:0:0:
256,192,91876,1,0,0:0:0:0:
256,192,92182,1,8,0:0:0:0:
256,192,92335,1,0,0:0:0:0:
256,192,92642,1,0,0:0:0:0:
256,192,92795,1,8,0:0:0:0:
256,192,92948,1,0,0:0:0:0:
256,192,93101,1,12,0:0:0:0:
256,192,93407,1,8,0:0:0:0:
256,192,93560,1,0,0:0:0:0:
256,192,93866,1,0,0:0:0:0:
256,192,94019,1,8,0:0:0:0:
256,192,94325,1,0,0:0:0:0:
256,192,94631,1,8,0:0:0:0:
256,192,95091,1,0,0:0:0:0:
256,192,95244,1,8,0:0:0:0:
256,192,95550,1,0,0:0:0:0:
256,192,95856,1,8,0:0:0:0:
256,192,96009,1,0,0:0:0:0:
256,192,96315,1,0,0:0:0:0:
256,192,96468,1,8,0:0:0:0:
256,192,96774,1,0,0:0:0:0:
256,192,97080,1,0,0:0:0:0:
256,192,97233,1,8,0:0:0:0:
256,192,97386,1,0,0:0:0:0:
256,192,97540,1,0,0:0:0:0:
256,192,97693,1,0,0:0:0:0:
256,192,97846,1,0,0:0:0:0:
256,192,97999,1,12,0:0:0:0:
256,192,98305,1,8,0:0:0:0:
256,192,98611,1,8,0:0:0:0:
256,192,98764,1,0,0:0:0:0:
256,192,98917,1,8,0:0:0:0:
256,192,99070,1,8,0:0:0:0:
256,192,99223,1,0,0:0:0:0:
256,192,99529,1,8,0:0:0:0:
256,192,99682,1,0,0:0:0:0:
256,192,99759,1,0,0:0:0:0:
256,192,99835,1,0,0:0:0:0:
256,192,99988,1,0,0:0:0:0:
256,192,100142,1,8,0:0:0:0:
256,192,100448,1,0,0:0:0:0:
256,192,100754,1,8,0:0:0:0:
256,192,101060,1,0,0:0:0:0:
256,192,101213,1,0,0:0:0:0:
256,192,101366,1,8,0:0:0:0:
256,192,101519,1,0,0:0:0:0:
256,192,101596,1,0,0:0:0:0:
256,192,101672,1,0,0:0:0:0:
256,192,101978,1,8,0:0:0:0:
256,192,102284,1,0,0:0:0:0:
256,192,102437,1,0,0:0:0:0:
256,192,102591,1,8,0:0:0:0:
256,192,102744,1,8,0:0:0:0:
256,192,102897,1,0,0:0:0:0:
256,192,103509,1,0,0:0:0:0:
256,192,103662,1,0,0:0:0:0:
256,192,103815,1,8,0:0:0:0:
256,192,103968,1,0,0:0:0:0:
256,192,104045,1,0,0:0:0:0:
256,192,104121,1,0,0:0:0:0:
256,192,104427,1,8,0:0:0:0:
256,192,104580,1,0,0:0:0:0:
256,192,104886,1,0,0:0:0:0:
256,192,105040,1,8,0:0:0:0:
256,192,105193,1,8,0:0:0:0:
256,192,105346,1,0,0:0:0:0:
256,192,105422,1,0,0:0:0:0:
256,192,105499,1,0,0:0:0:0:
256,192,105652,1,8,0:0:0:0:
256,192,105805,1,0,0:0:0:0:
256,192,106111,1,0,0:0:0:0:
256,192,106264,1,8,0:0:0:0:
256,192,106417,1,0,0:0:0:0:
256,192,106570,1,8,0:0:0:0:
256,192,106876,1,8,0:0:0:0:
256,192,107029,1,8,0:0:0:0:
256,192,107106,1,8,0:0:0:0:
256,192,107182,1,8,0:0:0:0:
256,192,107335,1,0,0:0:0:0:
256,192,107488,1,8,0:0:0:0:
256,192,107642,1,0,0:0:0:0:
256,192,107795,1,12,0:0:0:0:
256,192,108101,1,8,0:0:0:0:
256,192,108407,1,8,0:0:0:0:
256,192,108560,1,0,0:0:0:0:
256,192,108713,1,8,0:0:0:0:
256,192,109019,1,8,0:0:0:0:
256,192,109325,1,8,0:0:0:0:
256,192,109478,1,0,0:0:0:0:
256,192,109555,1,0,0:0:0:0:
256,192,109631,1,0,0:0:0:0:
256,192,109784,1,8,0:0:0:0:
256,192,109937,1,8,0:0:0:0:
256,192,110091,1,0,0:0:0:0:
256,192,110244,1,8,0:0:0:0:
256,192,110856,1,8,0:0:0:0:
256,192,111009,1,0,0:0:0:0:
256,192,111162,1,8,0:0:0:0:
256,192,111315,1,0,0:0:0:0:
256,192,111392,1,0,0:0:0:0:
256,192,111468,1,0,0:0:0:0:
256,192,111774,1,8,0:0:0:0:
256,192,112080,1,0,0:0:0:0:
256,192,112233,1,0,0:0:0:0:
256,192,112386,1,8,0:0:0:0:
256,192,112540,1,8,0:0:0:0:
256,192,112693,1,0,0:0:0:0:
256,192,112999,1,8,0:0:0:0:
256,192,113305,1,0,0:0:0:0:
256,192,113458,1,0,0:0:0:0:
256,192,113611,1,8,0:0:0:0:
256,192,113764,1,0,0:0:0:0:
256,192,113841,1,0,0:0:0:0:
256,192,113917,1,0,0:0:0:0:
256,192,114223,1,8,0:0:0:0:
256,192,114376,1,8,0:0:0:0:
256,192,114529,1,0,0:0:0:0:
256,192,114682,1,0,0:0:0:0:
256,192,114835,1,8,0:0:0:0:
256,192,115142,1,0,0:0:0:0:
256,192,115295,1,0,0:0:0:0:
256,192,115448,1,8,0:0:0:0:
256,192,115601,1,0,0:0:0:0:
256,192,115754,1,0,0:0:0:0:
256,192,115907,1,0,0:0:0:0:
256,192,116060,1,8,0:0:0:0:
256,192,116213,1,0,0:0:0:0:
256,192,116366,1,8,0:0:0:0:
256,192,116825,1,8,0:0:0:0:
256,192,117131,1,0,0:0:0:0:
256,192,117284,1,0,0:0:0:0:
256,192,117361,1,0,0:0:0:0:
256,192,117437,1,0,0:0:0:0:
256,192,117591,1,12,0:0:0:0:
256,192,117897,1,8,0:0:0:0:
256,192,118203,1,8,0:0:0:0:
256,192,118356,1,0,0:0:0:0:
256,192,118509,1,8,0:0:0:0:
256,192,118662,1,8,0:0:0:0:
256,192,118815,1,8,0:0:0:0:
256,192,119121,1,8,0:0:0:0:
256,192,119274,1,0,0:0:0:0:
256,192,119351,1,0,0:0:0:0:
256,192,119427,1,0,0:0:0:0:
256,192,119580,1,0,0:0:0:0:
256,192,119733,1,8,0:0:0:0:
256,192,120040,1,0,0:0:0:0:
256,192,120346,1,8,0:0:0:0:
256,192,120652,1,8,0:0:0:0:
256,192,120805,1,0,0:0:0:0:
256,192,120958,1,8,0:0:0:0:
256,192,121111,1,8,0:0:0:0:
256,192,121264,1,0,0:0:0:0:
256,192,121570,1,8,0:0:0:0:
256,192,121876,1,0,0:0:0:0:
256,192,122029,1,0,0:0:0:0:
256,192,122182,1,8,0:0:0:0:
256,192,122335,1,8,0:0:0:0:
256,192,122488,1,0,0:0:0:0:
256,192,123101,1,0,0:0:0:0:
256,192,123254,1,0,0:0:0:0:
256,192,123407,1,8,0:0:0:0:
256,192,123560,1,0,0:0:0:0:
256,192,123713,1,8,0:0:0:0:
256,192,124019,1,8,0:0:0:0:
256,192,124172,1,0,0:0:0:0:
256,192,124478,1,0,0:0:0:0:
256,192,124631,1,8,0:0:0:0:
256,192,124784,1,8,0:0:0:0:
256,192,124937,1,0,0:0:0:0:
256,192,125091,1,8,0:0:0:0:
256,192,125244,1,8,0:0:0:0:
256,192,125397,1,0,0:0:0:0:
256,192,125703,1,0,0:0:0:0:
256,192,125856,1,8,0:0:0:0:
256,192,126162,1,8,0:0:0:0:
256,192,126315,1,0,0:0:0:0:
256,192,126392,1,0,0:0:0:0:
256,192,126468,1,0,0:0:0:0:
256,192,126621,1,8,0:0:0:0:
256,192,126774,1,8,0:0:0:0:
256,192,126927,1,0,0:0:0:0:
256,192,127080,1,8,0:0:0:0:
256,192,127233,1,0,0:0:0:0:
256,192,127386,1,12,0:0:0:0:
256,192,127693,1,8,0:0:0:0:
256,192,127999,1,8,0:0:0:0:
256,192,128152,1,0,0:0:0:0:
256,192,128305,1,8,0:0:0:0:
256,192,128611,1,8,0:0:0:0:
256,192,128917,1,8,0:0:0:0:
256,192,129070,1,0,0:0:0:0:
256,192,129147,1,0,0:0:0:0:
256,192,129223,1,0,0:0:0:0:
256,192,129376,1,8,0:0:0:0:
256,192,129529,1,8,0:0:0:0:
256,192,129682,1,0,0:0:0:0:
256,192,129835,1,8,0:0:0:0:
256,192,130142,1,8,0:0:0:0:
256,192,130448,1,8,0:0:0:0:
256,192,130601,1,0,0:0:0:0:
256,192,130754,1,8,0:0:0:0:
256,192,130907,1,0,0:0:0:0:
256,192,131060,1,8,0:0:0:0:
256,192,131672,1,0,0:0:0:0:
256,192,131825,1,0,0:0:0:0:
256,192,131978,1,8,0:0:0:0:
256,192,132131,1,8,0:0:0:0:
256,192,132208,1,8,0:0:0:0:
256,192,132284,1,8,0:0:0:0:
256,192,132591,1,8,0:0:0:0:
256,192,132897,1,8,0:0:0:0:
256,192,133050,1,0,0:0:0:0:
256,192,133203,1,8,0:0:0:0:
256,192,133509,1,8,0:0:0:0:
256,192,133815,1,8,0:0:0:0:
256,192,133968,1,0,0:0:0:0:
256,192,134121,1,8,0:0:0:0:
256,192,134274,1,0,0:0:0:0:
256,192,134427,1,8,0:0:0:0:
256,192,134733,1,0,0:0:0:0:
256,192,134886,1,0,0:0:0:0:
256,192,135040,1,8,0:0:0:0:
256,192,135193,1,0,0:0:0:0:
256,192,135346,1,0,0:0:0:0:
256,192,135499,1,0,0:0:0:0:
256,192,135652,1,8,0:0:0:0:
256,192,135805,1,0,0:0:0:0:
256,192,135958,1,8,0:0:0:0:
256,192,136264,1,0,0:0:0:0:
256,192,136417,1,8,0:0:0:0:
256,192,136723,1,0,0:0:0:0:
256,192,136876,1,0,0:0:0:0:
256,192,136953,1,0,0:0:0:0:
256,192,137029,1,0,0:0:0:0:
256,192,137182,1,8,0:0:0:0:
256,192,137488,1,0,0:0:0:0:
256,192,137795,1,8,0:0:0:0:
256,192,138101,1,0,0:0:0:0:
256,192,138407,1,8,0:0:0:0:
256,192,138713,1,8,0:0:0:0:
256,192,139019,1,0,0:0:0:0:
256,192,139325,1,0,0:0:0:0:
256,192,139631,1,8,0:0:0:0:
256,192,139937,1,0,0:0:0:0:
256,192,140244,1,8,0:0:0:0:
256,192,140550,1,0,0:0:0:0:
256,192,140856,1,12,0:0:0:0:
256,192,141162,1,12,0:0:0:0:
256,192,141468,1,4,0:0:0:0:
256,192,141774,1,4,0:0:0:0:
256,192,142080,1,12,0:0:0:0:
