osu file format v14

[General]
AudioFilename: audio.mp3
AudioLeadIn: 0
PreviewTime: 57591
Countdown: 0
SampleSet: Soft
StackLeniency: 0.3
Mode: 0
LetterboxInBreaks: 0
WidescreenStoryboard: 1

[Editor]
Bookmarks: 19631,39223,44121,49019,53917,58815,78407
DistanceSpacing: 0.5
BeatDivisor: 4
GridSize: 32
TimelineZoom: 1.9

[Metadata]
Title:Help
TitleUnicode:Help
Artist:Thaehan
ArtistUnicode:Thaehan
Creator:bite you death
Version:map
Source:
Tags:
BeatmapID:1754036
BeatmapSetID:837762

[Difficulty]
HPDrainRate:6
CircleSize:3.6
OverallDifficulty:9
ApproachRate:9.6
SliderMultiplier:1.7
SliderTickRate:1

[Events]
//Background and Video events
0,0,"bg.jpg",0,0
//Break Periods
//Storyboard Layer 0 (Background)
//Storyboard Layer 1 (Fail)
//Storyboard Layer 2 (Pass)
//Storyboard Layer 3 (Foreground)
//Storyboard Sound Samples

[TimingPoints]
40,306.122448979592,4,2,0,10,1,0
14733,-100,4,2,0,10,0,0
15040,-100,4,2,0,15,0,0
15346,-100,4,2,0,20,0,0
15652,-100,4,2,0,25,0,0
15958,-100,4,2,0,30,0,0
16264,-100,4,2,0,35,0,0
16570,-100,4,2,0,40,0,0
16876,-100,4,2,0,45,0,0
17182,-100,4,2,0,50,0,0
17488,-100,4,2,0,55,0,0
17795,-100,4,2,0,60,0,0
18101,-100,4,2,0,65,0,0
18330,-100,4,2,0,5,0,0
18407,-100,4,2,1,70,0,0
19631,-100,4,2,1,80,0,1
37999,-125,4,2,1,70,0,0
39223,-80,4,2,1,70,0,0
39376,-111.111111111111,4,2,1,60,0,0
39682,-80,4,2,1,70,0,0
39835,-111.111111111111,4,2,1,60,0,0
40448,-80,4,2,1,70,0,0
40601,-111.111111111111,4,2,1,60,0,0
40907,-80,4,2,1,70,0,0
41060,-111.111111111111,4,2,1,60,0,0
41213,-80,4,2,1,70,0,0
41825,-111.111111111111,4,2,1,60,0,0
42131,-80,4,2,1,70,0,0
42437,-111.111111111111,4,2,1,60,0,0
42897,-80,4,2,1,70,0,0
43050,-111.111111111111,4,2,1,60,0,0
43356,-80,4,2,1,70,0,0
43662,-111.111111111111,4,2,1,60,0,0
44121,-74.0740740740741,4,2,1,75,0,0
44274,-100,4,2,1,65,0,0
44580,-74.0740740740741,4,2,1,75,0,0
44733,-100,4,2,1,65,0,0
45346,-74.0740740740741,4,2,1,75,0,0
45499,-100,4,2,1,65,0,0
45805,-74.0740740740741,4,2,1,75,0,0
45958,-100,4,2,1,65,0,0
46111,-74.0740740740741,4,2,1,75,0,0
46723,-100,4,2,1,65,0,0
47029,-74.0740740740741,4,2,1,75,0,0
47335,-100,4,2,1,65,0,0
47795,-74.0740740740741,4,2,1,75,0,0
47948,-100,4,2,1,65,0,0
48254,-74.0740740740741,4,2,1,75,0,0
48560,-100,4,2,1,65,0,0
49019,-68.9655172413793,4,2,1,80,0,0
49172,-90.9090909090909,4,2,1,70,0,0
49478,-68.9655172413793,4,2,1,80,0,0
49631,-90.9090909090909,4,2,1,70,0,0
51468,-68.9655172413793,4,2,1,80,0,0
51621,-90.9090909090909,4,2,1,70,0,0
51927,-68.9655172413793,4,2,1,80,0,0
52080,-90.9090909090909,4,2,1,70,0,0
52386,-68.9655172413793,4,2,1,80,0,0
52540,-90.9090909090909,4,2,1,70,0,0
52693,-68.9655172413793,4,2,1,80,0,0
52846,-90.9090909090909,4,2,1,70,0,0
53152,-68.9655172413793,4,2,1,80,0,0
53305,-90.9090909090909,4,2,1,70,0,0
53917,-64.5161290322581,4,2,1,85,0,0
54070,-83.3333333333333,4,2,1,75,0,0
54376,-64.5161290322581,4,2,1,85,0,0
54529,-83.3333333333333,4,2,1,75,0,0
56366,-64.5161290322581,4,2,1,85,0,0
56519,-83.3333333333333,4,2,1,75,0,0
56825,-64.5161290322581,4,2,1,85,0,0
56978,-83.3333333333333,4,2,1,75,0,0
57591,-100,4,2,1,60,0,0
57667,-100,4,2,1,5,0,0
57744,-90.9090909090909,4,2,1,65,0,0
57820,-90.9090909090909,4,2,1,5,0,0
57897,-83.3333333333333,4,2,1,70,0,0
57973,-83.3333333333333,4,2,1,5,0,0
58050,-76.9230769230769,4,2,1,75,0,0
58126,-76.9230769230769,4,2,1,5,0,0
58203,-66.6666666666667,4,2,1,40,0,0
58279,-66.6666666666667,4,2,1,45,0,0
58356,-66.6666666666667,4,2,1,50,0,0
58432,-66.6666666666667,4,2,1,55,0,0
58509,-66.6666666666667,4,2,1,60,0,0
58585,-66.6666666666667,4,2,1,65,0,0
58662,-66.6666666666667,4,2,1,70,0,0
58738,-66.6666666666667,4,2,1,75,0,0
58815,-80,4,2,1,80,0,1
59733,-80,4,2,1,65,0,1
59810,-80,4,2,1,50,0,1
59886,-80,4,2,1,35,0,1
59963,-80,4,2,1,20,0,1
60040,-80,4,2,1,80,0,1
63101,-80,4,2,1,65,0,1
63254,-80,4,2,1,50,0,1
63407,-80,4,2,1,35,0,1
63560,-80,4,2,1,20,0,1
63713,-80,4,2,1,80,0,1
65550,-80,4,2,1,65,0,1
65703,-80,4,2,1,50,0,1
65856,-80,4,2,1,35,0,1
66009,-80,4,2,1,20,0,1
66162,-80,4,2,1,80,0,1
66774,-80,4,2,1,65,0,1
66927,-80,4,2,1,50,0,1
67080,-80,4,2,1,35,0,1
67233,-80,4,2,1,20,0,1
67386,-80,4,2,1,80,0,1
67999,-80,4,2,1,65,0,1
68152,-80,4,2,1,50,0,1
68305,-80,4,2,1,35,0,1
68458,-80,4,2,1,50,0,1
68534,-80,4,2,1,65,0,1
68611,-80,4,2,1,80,0,1
69223,-80,4,2,1,65,0,1
69376,-80,4,2,1,50,0,1
69529,-80,4,2,1,35,0,1
69682,-80,4,2,1,20,0,1
69835,-80,4,2,1,80,0,1
78407,-80,4,2,1,80,0,0

[Colours]
Combo1 : 196,255,196
Combo2 : 176,255,255
Combo3 : 255,206,157
Combo4 : 255,176,176

[HitObjects]
256,192,14733,12,0,18330,0:0:0:0:
325,119,18407,5,0,1:0:0:0:
270,350,18560,1,0,1:0:0:0:
260,39,18713,5,0,1:0:0:0:
315,270,18866,1,0,1:0:0:0:
409,29,19019,5,0,1:0:0:0:
256,192,19172,1,0,1:0:0:0:
509,317,19325,5,0,1:0:0:0:
496,287,19401,1,0,1:0:0:0:
476,262,19478,1,0,1:0:0:0:
451,244,19554,1,0,1:0:0:0:
423,233,19631,6,0,P|389:268|293:254,1,127.5,6|0,1:2|0:0,0:0:0:0:
283,92,19937,2,0,P|275:139|270:196,1,85,8|0,0:0|0:0,0:0:0:0:
205,305,20244,2,0,P|239:270|335:284,1,127.5,2|0,1:2|0:0,0:0:0:0:
383,331,20550,6,0,P|405:328|452:317,1,42.5,10|0,0:0|0:0,0:0:0:0:
271,176,20703,2,0,P|293:178|340:190,1,42.5,2|0,0:0|0:0,0:0:0:0:
483,135,20856,6,0,P|475:182|470:239,1,85,2|0,1:2|0:0,0:0:0:0:
396,59,21162,2,0,P|389:32|387:12,1,42.5,8|0,2:0|0:0,2:0:0:0:
283,92,21315,1,0,0:0:0:0:
277,112,21391,1,0,0:0:0:0:
274,133,21468,1,0,0:0:0:0:
177,31,21621,2,0,P|204:24|224:22,1,42.5,0|0,1:0|0:0,2:0:0:0:
139,129,21774,6,0,P|83:101|-4:105,1,127.5,10|0,0:0|0:0,0:0:0:0:
90,232,22080,6,0,P|152:220|231:208,1,127.5,2|0,1:2|0:0,0:0:0:0:
378,263,22386,2,0,P|327:277|276:264,1,85,8|0,0:0|0:0,0:0:0:0:
347,56,22693,2,0,P|335:118|323:197,1,127.5,2|0,1:2|0:0,0:0:0:0:
256,49,22999,2,0,P|250:17|243:-21,1,42.5,8|0,0:0|0:0,0:0:0:0:
420,120,23152,1,0,0:0:0:0:
416,140,23228,1,0,0:0:0:0:
412,161,23305,6,0,P|400:223|388:302,1,127.5,2|0,1:2|0:0,0:0:0:0:
494,257,23611,2,0,P|488:225|482:186,1,42.5,10|0,0:0|0:0,0:0:0:0:
341,366,23764,6,0,P|403:379|470:337,1,127.5,2|0,0:0|0:0,0:0:0:0:
265,298,24070,6,0,P|233:304|194:310,1,42.5,2|0,1:2|0:0,0:0:0:0:
147,222,24223,2,0,P|179:228|218:234,1,42.5,10|0,0:0|0:0,0:0:0:0:
265,146,24376,2,0,P|233:152|194:158,1,42.5,2|0,0:0|0:0,0:0:0:0:
370,53,24529,6,0,P|360:118|350:202,1,127.5,2|0,1:2|0:0,0:0:0:0:
467,84,24835,2,0,P|458:31|450:-36,1,85,8|0,0:0|0:0,0:0:0:0:
292,240,25142,6,0,P|365:265|427:222,1,127.5,2|0,1:2|0:0,0:0:0:0:
265,146,25448,2,0,P|233:152|194:158,1,42.5,8|0,0:0|0:0,0:0:0:0:
328,45,25601,1,0,0:0:0:0:
349,49,25677,1,0,0:0:0:0:
370,53,25754,6,0,P|360:118|350:202,1,127.5,2|0,1:2|0:0,0:0:0:0:
298,282,26060,2,0,P|293:249|288:207,1,42.5,8|0,0:0|0:0,0:0:0:0:
236,341,26213,2,0,B|160:319|183:377|85:347,1,127.5,2|0,1:2|0:0,0:0:0:0:
40,296,26519,6,0,P|42:266|45:225,1,42.5,2|0,1:2|0:0,0:0:0:0:
64,104,26672,2,0,P|66:134|69:175,1,42.5,10|0,0:0|0:0,0:0:0:0:
133,271,26825,2,0,P|135:241|138:200,1,42.5,2|0,0:0|0:0,0:0:0:0:
264,125,26978,6,0,L|203:134,1,42.5,2|0,1:2|0:0,0:0:0:0:
136,228,27131,1,0,0:0:0:0:
157,231,27207,1,0,0:0:0:0:
178,234,27284,2,0,L|239:225,1,42.5,10|0,0:0|0:0,0:0:0:0:
335,73,27437,6,0,P|309:135|318:209,1,127.5,2|0,1:2|0:0,0:0:0:0:
362,276,27744,1,0,1:0:0:0:
492,175,27897,2,0,P|450:183|409:191,1,85,8|0,0:0|0:0,0:0:0:0:
315,360,28203,5,2,1:2:0:0:
264,125,28356,1,2,0:0:0:0:
232,202,28509,2,0,P|276:209|324:183,1,85,10|0,0:0|0:0,0:0:0:0:
383,131,28738,5,0,1:0:0:0:
377,97,28815,2,0,L|365:17,1,42.5,8|0,0:0|0:0,0:0:0:0:
232,202,28968,1,0,1:0:0:0:
226,236,29045,1,0,0:0:0:0:
220,270,29122,2,0,L|208:350,1,42.5,8|0,0:0|0:0,0:0:0:0:
181,135,29274,1,0,0:0:0:0:
177,113,29350,1,0,0:0:0:0:
174,90,29427,6,0,P|225:63|310:75,1,127.5,6|0,1:2|0:0,0:0:0:0:
383,131,29733,2,0,P|410:126|446:120,1,42.5,8|0,0:0|0:0,0:0:0:0:
497,224,29886,1,0,0:0:0:0:
476,220,29962,1,0,0:0:0:0:
455,216,30040,2,0,P|459:259|464:305,1,85,2|0,1:2|0:0,0:0:0:0:
329,373,30346,2,0,P|333:329|338:284,1,85,10|0,0:0|0:0,0:0:0:0:
383,131,30652,6,0,P|332:157|260:123,1,127.5,2|0,1:2|0:0,0:0:0:0:
218,58,30958,2,0,P|221:33|226:0,1,42.5,8|0,0:0|0:0,0:0:0:0:
178,141,31111,1,0,0:0:0:0:
180,162,31187,1,0,0:0:0:0:
183,183,31264,1,0,0:0:0:0:
325,77,31417,1,2,1:2:0:0:
337,288,31570,1,10,0:0:0:0:
410,34,31723,1,2,0:0:0:0:
213,270,31876,6,0,B|143:285|150:248|89:262,1,127.5,2|0,1:2|0:0,0:0:0:0:
24,355,32182,2,0,P|66:351|108:342,1,85,8|0,0:0|0:0,0:0:0:0:
281,175,32488,6,0,P|240:197|213:277,1,127.5,2|0,1:2|0:0,0:0:0:0:
303,304,32795,2,0,P|300:275|294:241,1,42.5,8|0,0:0|0:0,0:0:0:0:
369,162,32948,1,0,0:0:0:0:
366,183,33024,1,0,0:0:0:0:
364,204,33101,6,0,P|423:196|511:188,1,127.5,2|0,1:2|0:0,0:0:0:0:
378,79,33407,2,0,P|331:73|261:66,1,85,8|0,0:2|0:0,0:0:0:0:
164,56,33713,1,0,1:0:0:0:
281,175,33866,1,2,1:2:0:0:
65,91,34019,1,10,0:0:0:0:
293,69,34172,1,2,0:0:0:0:
194,274,34325,6,0,P|186:212|176:130,1,127.5,2|0,1:2|0:0,0:0:0:0:
293,69,34631,2,0,P|286:117|278:182,1,85,8|0,0:0|0:0,0:0:0:0:
309,301,34937,6,0,P|266:270|176:285,1,127.5,2|0,1:2|0:0,0:0:0:0:
133,336,35244,2,0,P|129:366|124:408,1,42.5,8|0,0:2|0:0,0:0:0:0:
109,252,35397,1,0,0:0:0:0:
106,230,35473,1,0,0:0:0:0:
103,209,35550,6,0,P|95:147|85:65,1,127.5,2|0,1:2|0:0,0:0:0:0:
74,0,35856,1,8,0:0:0:0:
11,183,36009,1,2,0:0:0:0:
170,68,36162,6,0,P|126:75|77:83,1,85,2|0,1:2|1:0,0:0:0:0:
329,183,36468,2,0,P|285:175|236:168,1,85,10|0,0:2|0:0,0:0:0:0:
404,110,36774,5,2,1:2:0:0:
420,137,36850,1,0,0:0:0:0:
428,167,36927,1,0,0:0:0:0:
427,199,37003,1,0,0:0:0:0:
418,229,37080,1,8,0:0:0:0:
245,169,37233,1,0,1:0:0:0:
508,134,37386,5,0,1:0:0:0:
329,183,37540,1,0,1:0:0:0:
428,314,37693,2,0,P|422:273|417:216,1,85,8|0,0:0|0:0,0:0:0:0:
308,100,37999,6,0,P|344:98|392:125,1,68
245,169,38305,2,0,P|213:180|179:178,1,68
207,28,38611,2,0,P|202:64|197:112,1,68
336,250,38917,1,0,1:0:0:0:
334,233,38993,1,0,1:0:0:0:
332,216,39070,1,0,1:0:0:0:
330,199,39146,1,0,1:0:0:0:
328,182,39223,6,0,L|397:189,1,53.125,6|0,1:2|0:0,0:0:0:0:
278,315,39376,2,0,P|236:319|180:326,1,76.4999976654053,0|8,0:0|0:0,0:0:0:0:
126,172,39682,6,0,L|195:179,1,53.125,2|0,1:2|0:0,0:0:0:0:
43,212,39835,2,0,P|35:160|50:122,1,76.4999976654053
117,9,40142,2,0,P|124:46|115:83,1,76.4999976654053,8|0,0:0|0:0,0:0:0:0:
184,230,40448,6,0,L|177:161,1,53.125,2|0,1:2|0:0,0:0:0:0:
270,49,40601,2,0,P|264:93|258:141,1,76.4999976654053,0|8,0:0|0:0,0:0:0:0:
278,315,40907,6,0,L|271:246,1,53.125,2|0,1:2|0:0,0:0:0:0:
260,124,41060,1,0,0:0:0:0:
438,188,41213,6,0,L|369:181,1,53.125,2|0,1:2|0:0,0:0:0:0:
278,315,41366,6,0,L|347:308,1,53.125,10|0,1:2|0:0,0:0:0:0:
490,193,41519,6,0,L|421:186,1,53.125,2|0,1:2|0:0,0:0:0:0:
357,32,41672,6,0,P|351:76|345:124,1,53.125,2|0,1:2|0:0,0:0:0:0:
184,230,41825,2,0,P|178:185|172:137,1,76.4999976654053,0|8,0:0|0:0,0:0:0:0:
278,315,42131,6,0,P|234:309|186:303,1,53.125,2|0,1:2|0:0,0:0:0:0:
174,154,42284,6,0,P|218:148|266:142,1,53.125,2|0,1:2|0:0,0:0:0:0:
110,273,42437,2,0,P|71:268|23:261,1,76.4999976654053,0|8,0:0|0:0,0:0:0:0:
174,154,42744,1,0,0:0:0:0:
278,315,42897,6,0,B|271:348|271:348|269:394,1,53.125,2|0,1:2|0:0,0:0:0:0:
360,249,43050,2,0,P|345:209|347:151,1,76.4999976654053,0|8,0:0|0:0,0:0:0:0:
487,294,43356,6,0,P|458:290|427:287,1,53.125,2|0,1:2|0:0,0:0:0:0:
290,169,43509,6,0,P|318:172|350:176,1,53.125,2|0,1:2|0:0,0:0:0:0:
183,290,43662,2,0,P|145:286|110:272,1,76.4999976654053,0|8,0:0|0:0,0:0:0:0:
42,204,43968,1,0,0:0:0:0:
167,96,44121,6,0,P|170:128|174:165,1,57.3750002188683,2|0,1:2|0:0,0:0:0:0:
216,22,44274,2,0,P|174:10|128:18,1,85,0|8,0:0|0:0,0:0:0:0:
256,102,44580,6,0,P|288:98|325:94,1,57.3750002188683,2|0,1:2|0:0,0:0:0:0:
461,162,44733,2,0,P|412:168|372:148,1,85,0|0,0:0|0:0,0:0:0:0:
279,256,45040,2,0,P|318:241|359:248,1,85,8|0,0:0|0:0,0:0:0:0:
251,342,45346,6,0,P|218:337|183:333,1,57.3750002188683,2|0,1:2|0:0,0:0:0:0:
102,249,45499,2,0,P|106:293|111:342,1,85,0|8,0:0|0:0,0:0:0:0:
168,173,45805,6,0,P|172:140|177:105,1,57.3750002188683,2|0,1:2|0:0,0:0:0:0:
102,249,45958,1,0,0:0:0:0:
144,43,46111,6,0,P|169:35|207:43,1,57.3750002188683,2|0,1:2|0:0,0:0:0:0:
308,156,46264,6,0,P|279:160|252:152,1,57.3750002188683,10|0,1:2|0:0,0:0:0:0:
361,42,46417,6,0,P|388:33|416:38,1,57.3750002188683,2|0,1:2|0:0,0:0:0:0:
397,171,46570,6,0,P|393:142|390:110,1,57.3750002188683,2|0,1:2|0:0,0:0:0:0:
489,218,46723,1,0,0:0:0:0:
485,246,46799,1,0,0:0:0:0:
482,274,46876,1,8,0:0:0:0:
349,323,47029,6,0,P|384:339|413:338,1,57.3750002188683,2|0,1:2|0:0,0:0:0:0:
216,274,47182,6,0,P|241:260|269:257,1,57.3750002188683,2|0,1:2|0:0,0:0:0:0:
136,339,47335,2,0,L|35:327,1,85,0|8,0:0|0:0,0:0:0:0:
216,274,47642,1,0,0:0:0:0:
101,127,47795,6,0,P|105:162|111:210,1,57.3750002188683,2|0,1:2|0:0,0:0:0:0:
253,44,47948,2,0,P|206:38|163:61,1,85,0|8,0:0|0:0,0:0:0:0:
226,170,48254,6,0,P|223:141|220:112,1,57.3750002188683,2|0,1:2|0:0,0:0:0:0:
344,27,48407,6,0,P|341:55|338:85,1,57.3750002188683,2|0,1:2|0:0,0:0:0:0:
320,240,48560,1,0,0:0:0:0:
462,168,48713,5,8,1:2:0:0:
434,163,48789,1,0,1:0:0:0:
406,166,48866,1,0,1:0:0:0:
380,178,48942,1,0,1:0:0:0:
320,240,49019,6,0,P|325:278|329:325,1,61.6250018806458,6|0,1:2|0:0,0:0:0:0:
226,170,49172,2,0,P|232:125|239:71,1,93.5000028533936,0|8,0:0|0:0,0:0:0:0:
184,256,49478,6,0,P|189:292|193:329,1,61.6250018806458,2|0,1:2|0:0,0:0:0:0:
136,173,49631,6,0,P|196:161|255:191,1,93.5000028533936,0|0,0:0|1:0,0:0:0:0:
89,255,49937,2,0,P|43:264|0:251,1,93.5000028533936,8|0,0:0|0:0,0:0:0:0:
57,88,50244,6,0,P|52:137|47:196,1,93.5000028533936,0|0,1:0|0:0,0:0:0:0:
188,333,50550,5,8,0:0:0:0:
177,299,50626,1,0,0:0:0:0:
154,273,50703,1,0,0:0:0:0:
123,257,50779,1,0,0:0:0:0:
88,254,50856,1,0,0:0:0:0:
191,368,51009,1,0,1:0:0:0:
311,197,51162,2,0,P|265:203|217:210,1,93.5000028533936,8|0,0:0|0:0,0:0:0:0:
346,53,51468,6,0,P|339:90|335:129,1,61.6250018806458,2|0,1:2|0:0,0:0:0:0:
398,217,51621,2,0,P|349:195|295:202,1,93.5000028533936,0|8,0:0|0:0,0:0:0:0:
350,299,51927,6,0,P|382:306|424:312,1,61.6250018806458,2|0,1:2|0:0,0:0:0:0:
489,199,52080,2,0,P|440:209|379:218,1,93.5000028533936
273,343,52386,6,0,P|265:310|260:269,1,61.6250018806458,10|0,1:2|0:0,0:0:0:0:
410,157,52540,5,0,0:0:0:0:
403,187,52616,1,0,0:0:0:0:
398,217,52693,6,0,P|430:209|472:204,1,61.6250018806458,2|0,1:2|0:0,0:0:0:0:
267,141,52846,1,0,0:0:0:0:
350,299,52999,1,8,0:0:0:0:
428,46,53152,6,0,P|396:54|354:59,1,61.6250018806458,2|0,1:2|0:0,0:0:0:0:
145,28,53305,1,0,0:0:0:0:
410,157,53458,1,0,1:0:0:0:
180,268,53611,2,0,P|184:243|189:211,1,46.7500014266968,8|0,0:0|0:0,0:0:0:0:
74,113,53764,1,0,0:0:0:0:
78,136,53840,1,0,0:0:0:0:
82,159,53917,6,0,P|86:192|90:237,1,65.8750005025864,2|0,1:2|0:0,0:0:0:0:
207,125,54070,1,0,0:0:0:0:
58,21,54223,1,8,0:0:0:0:
207,125,54376,6,0,P|241:121|285:116,1,65.8750005025864,2|0,1:2|0:0,0:0:0:0:
448,96,54529,1,0,0:0:0:0:
304,43,54682,1,0,0:0:0:0:
460,184,54835,2,0,P|489:174|518:165,1,50.9999984436036,8|0,0:0|0:0,0:0:0:0:
416,270,54988,1,0,0:0:0:0:
392,261,55064,1,0,0:0:0:0:
368,254,55142,6,0,P|374:302|379:359,1,101.999996887207,0|0,1:0|0:0,0:0:0:0:
262,218,55448,2,0,P|268:169|273:113,1,101.999996887207,8|0,0:0|0:0,0:0:0:0:
190,285,55754,6,0,P|137:295|84:276,1,101.999996887207,0|0,0:0|1:0,0:0:0:0:
273,116,56060,2,0,P|322:101|371:112,1,101.999996887207,8|0,0:0|0:0,0:0:0:0:
156,192,56366,6,0,P|162:143|167:87,1,65.8750005025864,2|0,1:2|0:0,0:0:0:0:
47,16,56519,1,0,0:0:0:0:
52,48,56595,1,0,0:0:0:0:
55,81,56672,1,8,0:0:0:0:
206,39,56825,6,0,P|170:30|139:32,1,65.8750005025864,2|0,1:2|0:0,0:0:0:0:
273,116,56978,2,0,P|322:130|371:119,1,101.999996887207
499,207,57284,2,0,P|450:196|402:210,1,101.999996887207,8|0,0:0|0:0,0:0:0:0:
331,284,57591,6,0,P|337:312|342:351,1,42.5,0|0,1:0|0:0,0:0:0:0:
265,161,57744,2,0,P|271:132|276:94,1,46.7500014266968,0|0,1:0|0:0,0:0:0:0:
199,284,57897,2,0,P|205:312|210:351,1,50.9999984436036,0|0,1:0|0:0,0:0:0:0:
134,165,58050,2,0,P|140:136|145:98,1,55.2499974708558,0|0,1:0|0:0,0:0:0:0:
91,282,58203,5,2,1:2:0:0:
80,283,58279,1,0,1:0:0:0:
69,284,58356,2,0,P|38:281|6:278,1,63.7500024318696,2|0,1:2|1:2,0:0:0:0:
229,155,58509,1,2,1:2:0:0:
213,156,58585,1,0,1:0:0:0:
197,158,58662,6,0,P|166:160|134:164,1,63.7500024318696,2|0,1:2|1:2,0:0:0:0:
423,45,58815,5,6,1:2:0:0:
402,81,58891,1,0,0:0:0:0:
403,123,58968,1,0,0:0:0:0:
427,157,59044,1,0,0:0:0:0:
466,174,59121,5,10,0:0:0:0:
419,151,59197,1,2,0:0:0:0:
369,167,59274,1,2,0:0:0:0:
343,212,59351,1,2,0:0:0:0:
354,262,59427,6,0,P|378:270|407:279,1,53.125,2|2,0:2|0:0,0:0:0:0:
265,161,59580,2,0,P|240:168|212:177,1,53.125,2|2,1:2|0:0,0:0:0:0:
243,371,59733,1,10,0:0:0:0:
254,353,59809,1,2,0:0:0:0:
262,333,59886,1,2,0:0:0:0:
264,312,59962,1,2,0:0:0:0:
263,291,60040,6,0,P|238:298|210:307,1,53.125,0|0,1:0|0:0,0:0:0:0:
91,201,60193,2,0,P|116:208|144:217,1,53.125
265,161,60346,1,8,0:0:0:0:
279,138,60422,1,0,0:0:0:0:
287,113,60499,1,0,0:0:0:0:
289,87,60575,1,0,0:0:0:0:
285,61,60652,6,0,P|274:35|255:12,1,53.125
369,167,60805,2,0,P|357:193|338:216,1,53.125,0|0,1:0|0:0,0:0:0:0:
452,61,60958,2,0,P|440:34|421:11,3,53.125,8|0|0|0,0:0|0:0|0:0|0:0,0:0:0:0:
503,166,61264,5,0,1:2:0:0:
490,189,61340,1,0,0:0:0:0:
482,214,61417,1,0,0:0:0:0:
479,240,61493,1,0,0:0:0:0:
480,267,61570,5,10,0:0:0:0:
443,250,61646,1,2,0:0:0:0:
404,249,61723,1,2,0:0:0:0:
367,264,61799,1,2,0:0:0:0:
339,291,61876,6,0,P|337:322|340:352,1,53.125,2|2,0:0|0:0,0:0:0:0:
265,213,62029,2,0,P|262:186|264:160,1,53.125,2|2,1:2|0:0,0:0:0:0:
190,291,62182,5,10,0:0:0:0:
149,312,62258,1,2,0:0:0:0:
103,316,62335,1,2,0:0:0:0:
59,302,62411,1,2,0:0:0:0:
23,272,62488,6,0,P|28:239|35:187,1,53.125,2|2,1:2|0:0,0:0:0:0:
136,110,62642,2,0,P|140:142|147:195,1,53.125,2|2,0:0|0:0,0:0:0:0:
63,30,62795,5,10,0:0:0:0:
109,5,62871,1,2,0:0:0:0:
162,4,62948,1,2,0:0:0:0:
209,28,63024,1,2,0:0:0:0:
240,70,63101,5,2,1:2:0:0:
276,86,63177,1,2,0:0:0:0:
316,90,63254,1,2,1:2:0:0:
354,81,63330,1,2,0:0:0:0:
388,60,63407,5,10,0:0:0:0:
374,82,63483,1,2,0:0:0:0:
366,108,63560,1,2,0:0:0:0:
364,134,63636,1,2,0:0:0:0:
369,160,63713,6,0,P|377:195|404:232,1,53.125,0|0,1:0|0:0,0:0:0:0:
437,320,63866,2,0,P|402:309|357:314,1,53.125
245,305,64019,1,10,0:0:0:0:
255,301,64096,1,2,0:0:0:0:
264,297,64172,2,0,P|290:272|308:230,1,53.125,2|2,0:0|0:0,0:0:0:0:
213,117,64325,5,2,0:0:0:0:
204,142,64401,1,2,0:0:0:0:
201,168,64478,1,2,1:2:0:0:
205,194,64554,1,2,0:0:0:0:
214,219,64631,5,10,0:0:0:0:
184,192,64707,1,2,0:0:0:0:
148,176,64784,1,2,0:0:0:0:
108,174,64860,1,2,0:0:0:0:
70,185,64937,6,0,P|64:207|62:237,1,53.125,2|2,1:2|0:0,0:0:0:0:
162,52,65091,2,0,P|155:29|153:0,1,53.125,2|2,0:0|0:0,0:0:0:0:
296,168,65244,5,10,0:0:0:0:
338,185,65320,1,2,0:0:0:0:
384,184,65397,1,2,0:0:0:0:
426,164,65473,1,2,0:0:0:0:
455,128,65550,5,2,0:0:0:0:
426,155,65626,1,2,0:0:0:0:
408,190,65703,1,2,1:2:0:0:
403,230,65779,1,2,0:0:0:0:
413,268,65856,5,10,0:0:0:0:
423,293,65932,1,2,0:0:0:0:
427,319,66009,1,2,0:0:0:0:
424,345,66085,1,2,0:0:0:0:
416,371,66162,5,2,1:2:0:0:
363,367,66238,1,2,0:0:0:0:
310,363,66315,1,2,1:2:0:0:
257,359,66391,1,2,0:0:0:0:
204,355,66468,6,0,P|177:361|146:368,1,53.125,10|2,0:0|0:0,0:0:0:0:
68,262,66621,2,0,P|94:268|126:274,1,53.125,2|2,0:0|0:0,0:0:0:0:
289,137,66774,5,2,0:0:0:0:
250,145,66850,1,2,0:0:0:0:
220,171,66927,1,2,1:2:0:0:
205,209,67003,1,2,0:0:0:0:
211,247,67080,5,10,0:0:0:0:
216,208,67157,1,2,0:0:0:0:
202,171,67234,1,2,0:0:0:0:
172,145,67310,1,2,0:0:0:0:
134,137,67387,5,2,1:2:0:0:
114,139,67463,1,2,0:0:0:0:
94,141,67540,2,0,L|33:147,1,53.125,2|0,0:0|0:0,0:0:0:0:
207,46,67693,5,10,0:0:0:0:
227,48,67770,1,2,0:0:0:0:
247,50,67846,2,0,L|308:56,1,53.125,2|0,0:0|0:0,0:0:0:0:
424,140,67998,6,0,L|363:146,1,53.125,2|0,1:2|0:0,0:0:0:0:
216,208,68152,2,0,L|277:214,1,53.125,2|0,1:2|0:0,0:0:0:0:
393,298,68305,6,0,L|341:304,1,53.125,10|0,0:0|0:0,0:0:0:0:
494,211,68458,1,0,1:0:0:0:
492,231,68534,1,0,1:0:0:0:
490,252,68611,6,0,L|485:304,1,53.125,6|2,1:2|0:0,0:0:0:0:
417,99,68764,1,2,0:0:0:0:
421,120,68841,1,2,0:0:0:0:
424,140,68917,5,10,0:0:0:0:
384,140,68993,1,2,0:0:0:0:
346,128,69070,1,2,0:0:0:0:
315,103,69146,1,2,0:0:0:0:
294,70,69223,6,0,P|265:71|235:77,1,53.125,2|2,0:0|0:0,0:0:0:0:
163,202,69376,2,0,P|189:206|215:207,1,53.125,2|2,1:2|0:0,0:0:0:0:
98,103,69529,5,10,0:0:0:0:
77,119,69605,1,2,0:0:0:0:
61,140,69682,1,2,0:0:0:0:
50,165,69758,1,2,0:0:0:0:
47,191,69835,6,0,P|53:231|59:274,1,53.125,0|0,1:2|0:0,0:0:0:0:
