osu file format v14

[General]
AudioFilename: audio.mp3
AudioLeadIn: 0
PreviewTime: 19631
Countdown: 0
SampleSet: Soft
StackLeniency: 0.4
Mode: 0
LetterboxInBreaks: 0
WidescreenStoryboard: 0

[Editor]
Bookmarks: 97999
DistanceSpacing: 0.8
BeatDivisor: 4
GridSize: 4
TimelineZoom: 1

[Metadata]
Title:Help
TitleUnicode:Help
Artist:Thaehan
ArtistUnicode:Thaehan
Creator:Nozhomi
Version:Virtuosu!
Source:
Tags:Pachiru xfraczynho piano osu! featured artist bwa
BeatmapID:1330828
BeatmapSetID:630407

[Difficulty]
HPDrainRate:6
CircleSize:4.5
OverallDifficulty:9
ApproachRate:9.6
SliderMultiplier:1.8
SliderTickRate:1

[Events]
//Background and Video events
0,0,"anime.jpg",0,0
//Break Periods
//Storyboard Layer 0 (Background)
//Storyboard Layer 1 (Fail)
//Storyboard Layer 2 (Pass)
//Storyboard Layer 3 (Foreground)
//Storyboard Sound Samples

[TimingPoints]
40,306.122448979592,4,2,1,30,1,0
40,-200,4,2,1,30,0,0
14733,-200,4,2,1,35,0,0
15958,-200,4,2,1,40,0,0
17182,-133.333333333333,4,2,1,50,0,0
18254,-133.333333333333,4,2,1,10,0,0
18407,-133.333333333333,4,2,1,60,0,0
19019,-133.333333333333,4,2,1,70,0,0
19631,-100,4,2,1,80,0,0
39223,-83.3333333333333,4,2,1,80,0,0
39682,-125,4,2,1,80,0,0
40448,-83.3333333333333,4,2,1,80,0,0
40907,-125,4,2,1,80,0,0
41213,-76.9230769230769,4,2,1,80,0,0
41366,-71.4285714285714,4,2,1,80,0,0
41519,-66.6666666666667,4,2,1,80,0,0
41672,-125,4,2,1,80,0,0
41978,-83.3333333333333,4,2,1,80,0,0
44580,-125,4,2,1,80,0,0
45346,-83.3333333333333,4,2,1,80,0,0
45805,-125,4,2,1,80,0,0
46111,-76.9230769230769,4,2,1,80,0,0
46264,-71.4285714285714,4,2,1,80,0,0
46417,-66.6666666666667,4,2,1,80,0,0
46570,-83.3333333333333,4,2,1,80,0,0
52693,-100,4,2,1,80,0,0
53917,-83.3333333333333,4,2,1,80,0,0
57591,-100,4,2,1,60,0,0
57897,-142.857142857143,4,2,1,35,0,0
57973,-142.857142857143,4,2,1,20,0,0
58050,-125,4,2,1,40,0,0
58126,-125,4,2,1,20,0,0
58203,-111.111111111111,4,2,1,50,0,0
58279,-111.111111111111,4,2,1,20,0,0
58356,-100,4,2,1,60,0,0
58432,-100,4,2,1,20,0,0
58509,-90.9090909090909,4,2,1,70,0,0
58585,-90.9090909090909,4,2,1,20,0,0
58662,-83.3333333333333,4,2,1,80,0,0
58738,-83.3333333333333,4,2,1,20,0,0
58815,-100,4,2,1,80,0,1
77182,-100,4,2,1,50,0,1
77488,-100,4,2,1,60,0,1
77795,-100,4,2,1,70,0,1
78101,-100,4,2,1,80,0,1
78407,-83.3333333333333,4,2,1,80,0,0
78866,-125,4,2,1,80,0,0
79631,-83.3333333333333,4,2,1,80,0,0
80091,-125,4,2,1,80,0,0
80397,-76.9230769230769,4,2,1,80,0,0
80550,-71.4285714285714,4,2,1,80,0,0
80703,-66.6666666666667,4,2,1,80,0,0
80856,-125,4,2,1,80,0,0
81162,-83.3333333333333,4,2,1,80,0,0
83764,-125,4,2,1,80,0,0
84529,-83.3333333333333,4,2,1,80,0,0
84988,-125,4,2,1,80,0,0
85295,-76.9230769230769,4,2,1,80,0,0
85448,-71.4285714285714,4,2,1,80,0,0
85601,-66.6666666666667,4,2,1,80,0,0
85754,-83.3333333333333,4,2,1,80,0,0
91876,-100,4,2,1,80,0,0
93101,-83.3333333333333,4,2,1,80,0,0
97999,-100,4,2,1,80,0,0
117591,-83.3333333333333,4,2,1,80,0,1
135958,-100,4,2,1,80,0,1
136264,-90.9090909090909,4,2,1,80,0,1
136570,-83.3333333333333,4,2,1,80,0,1
136876,-76.9230769230769,4,2,1,80,0,1
137182,-100,4,2,1,60,0,0
140856,-100,4,2,1,70,0,0
146902,-100,4,2,1,5,0,0

[Colours]
Combo1 : 211,158,48
Combo2 : 103,39,173
Combo3 : 0,221,221
Combo4 : 206,96,137

[HitObjects]
108,96,40,6,0,P|143:123|186:132,1,90,2|0,0:0|0:0,0:0:0:0:
256,60,652,1,2,0:0:0:0:
318,139,958,1,2,0:0:0:0:
318,139,1111,1,2,0:0:0:0:
318,139,1264,2,0,P|329:183|305:239,2,90,2|0|0,0:0|0:0|0:0,0:0:0:0:
238,180,2182,1,2,0:0:0:0:
364,272,2488,6,0,L|464:264,1,90,2|0,0:0|0:0,0:0:0:0:
344,344,3101,2,0,L|244:336,1,90,2|0,0:0|0:0,0:0:0:0:
164,336,3713,2,0,P|136:360|80:368,2,90,2|0|0,0:0|0:0|0:0,0:0:0:0:
200,272,4478,1,2,0:0:0:0:
192,200,4631,1,2,0:0:0:0:
126,168,4784,1,2,0:0:0:0:
62,196,4937,6,0,P|91:230|142:236,1,90,2|0,0:0|0:0,0:0:0:0:
126,168,5550,2,0,P|170:171|210:139,1,90,2|0,0:0|0:0,0:0:0:0:
152,100,6162,2,0,L|60:108,2,90,2|0|0,0:0|0:0|0:0,0:0:0:0:
208,48,6927,1,2,0:0:0:0:
248,112,7080,1,2,0:0:0:0:
304,60,7233,1,2,0:0:0:0:
344,124,7386,6,0,B|352:168|352:168|340:232,1,90,2|0,0:0|0:0,0:0:0:0:
324,280,7846,1,2,0:0:0:0:
324,280,7999,2,0,B|315:324|315:324|323:368,1,90,2|0,0:0|0:0,0:0:0:0:
344,212,8611,1,2,0:0:0:0:
268,228,8764,1,0,0:0:0:0:
324,280,8917,2,0,P|356:283|380:272,1,45,2|0,0:0|0:0,0:0:0:0:
472,244,9223,2,0,P|449:239|428:244,1,45,2|0,0:0|0:0,0:0:0:0:
367,279,9529,1,2,0:0:0:0:
436,328,9682,1,2,0:0:0:0:
428,244,9835,6,0,L|424:148,1,90,2|0,0:0|0:0,0:0:0:0:
420,56,10447,1,2,0:0:0:0:
328,92,10753,1,2,0:0:0:0:
240,48,11060,2,0,P|196:32|140:36,2,90,2|0|0,0:0|0:0|0:0,0:0:0:0:
256,128,11825,1,2,0:0:0:0:
332,168,11978,1,2,0:0:0:0:
328,92,12131,1,2,0:0:0:0:
260,203,12284,6,0,P|251:247|263:290,1,90,2|0,0:0|0:0,0:0:0:0:
172,356,12897,2,0,P|183:312|175:269,1,90,2|0,0:0|0:0,0:0:0:0:
88,204,13509,2,0,P|45:188|14:157,2,90,2|0|0,0:0|0:0|0:0,0:0:0:0:
160,208,14274,1,2,0:0:0:0:
216,156,14427,1,2,0:0:0:0:
224,80,14580,1,2,0:0:0:0:
164,32,14733,6,0,P|149:68|163:129,1,90,2|0,0:0|0:0,0:0:0:0:
355,117,15346,2,0,P|363:73|348:32,1,90,2|0,0:0|0:0,0:0:0:0:
256,144,15958,2,0,B|244:192|268:192|257:232,1,90,2|0,0:0|0:0,0:0:0:0:
192,288,16417,1,2,0:0:0:0:
260,340,16570,2,0,L|320:332,1,45,2|0,0:0|0:0,0:0:0:0:
380,324,16876,1,2,0:0:0:0:
412,184,17182,6,0,B|428:144|412:100|412:100|412:60|460:24|528:52|528:124|456:160|412:100|412:100|372:96|340:76|340:76|304:96|269:95,1,472.500018024445,2|0,0:0|0:0,0:0:0:0:
192,56,18407,5,2,3:2:0:0:
272,95,18560,1,0,3:2:0:0:
293,180,18713,1,2,3:2:0:0:
277,273,18866,1,0,3:2:0:0:
203,332,19019,1,2,3:2:0:0:
102,323,19172,1,0,3:2:0:0:
43,240,19325,1,2,3:2:0:0:
39,228,19401,1,0,3:2:0:0:
35,216,19478,1,0,3:2:0:0:
31,204,19555,1,0,3:2:0:0:
27,192,19631,6,0,B|39:44|39:44|67:76,1,180,4|0,3:1|1:0,0:0:0:0:
152,124,20091,1,2,0:0:0:0:
172,128,20168,1,0,0:0:0:0:
192,124,20244,1,2,0:0:0:0:
256,36,20397,1,0,3:0:0:0:
368,140,20550,1,0,1:0:0:0:
392,16,20703,1,2,0:0:0:0:
284,136,20856,6,0,L|292:248,1,90,0|0,3:0|0:0,0:0:0:0:
376,336,21162,1,0,1:0:0:0:
397,322,21238,1,0,0:0:0:0:
415,300,21315,1,2,0:0:0:0:
426,275,21392,1,0,0:0:0:0:
431,248,21468,1,2,0:0:0:0:
368,140,21621,1,0,3:0:0:0:
260,204,21774,2,0,P|220:216|144:192,1,90,0|2,1:0|0:0,0:0:0:0:
274,46,22080,6,0,P|304:128|260:204,1,180,0|0,3:0|1:0,0:0:0:0:
156,236,22540,1,2,0:0:0:0:
276,276,22693,2,0,L|396:268,1,90,0|0,0:0|3:0,0:0:0:0:
472,256,22999,1,0,1:0:0:0:
344,352,23152,1,2,0:0:0:0:
344,352,23229,1,0,0:0:0:0:
344,352,23305,6,0,B|186:342|186:342|196:364,1,180,0|0,3:0|1:0,0:0:0:0:
248,268,23764,1,2,0:0:0:0:
244,160,23917,1,0,3:0:0:0:
196,64,24070,1,0,3:0:0:0:
348,48,24223,1,0,1:0:0:0:
251,167,24376,1,2,0:0:0:0:
251,167,24453,1,0,0:0:0:0:
251,167,24529,6,0,B|187:191|187:191|55:167,1,180,0|0,3:0|1:0,0:0:0:0:
20,80,24988,1,2,0:0:0:0:
77,171,25142,2,0,P|85:211|61:271,1,90,0|0,0:0|3:0,0:0:0:0:
16,352,25448,1,0,1:0:0:0:
148,308,25601,1,2,0:0:0:0:
148,308,25678,1,0,0:0:0:0:
148,308,25754,6,0,P|224:284|336:320,1,180,0|0,3:0|1:0,0:0:0:0:
412,364,26213,2,0,L|408:272,1,90,2|0,0:0|0:0,0:0:0:0:
404,148,26519,1,2,3:2:0:0:
484,288,26672,1,0,1:0:0:0:
336,224,26825,1,2,0:0:0:0:
496,200,26978,5,0,3:0:0:0:
501,173,27054,1,0,0:0:0:0:
499,145,27131,1,0,3:0:0:0:
489,119,27208,1,0,0:0:0:0:
473,97,27284,2,0,L|468:0,2,90,0|2|0,1:0|0:0|0:0,0:0:0:0:
384,160,27744,1,0,3:0:0:0:
292,92,27897,2,0,P|248:84|200:96,1,90,0|2,1:0|0:0,0:0:0:0:
88,208,28203,5,0,3:0:0:0:
72,80,28356,1,0,0:0:0:0:
168,176,28509,2,0,P|176:218|152:272,1,90,0|2,1:0|0:0,0:0:0:0:
156,272,28738,1,0,3:0:0:0:
149,282,28815,1,0,1:0:0:0:
36,192,28968,1,0,3:0:0:0:
152,104,29121,1,0,1:0:0:0:
256,228,29274,1,0,1:0:0:0:
256,228,29351,1,0,1:0:0:0:
256,228,29427,6,0,B|248:296|216:336|216:336|272:304|308:312,1,180,2|0,3:2|1:0,0:0:0:0:
380,328,29886,1,2,0:0:0:0:
400,340,29963,1,0,0:0:0:0:
412,360,30039,1,0,0:0:0:0:
336,260,30193,1,0,3:0:0:0:
404,176,30346,2,0,P|412:120|384:68,1,90,0|2,1:0|0:0,0:0:0:0:
336,260,30652,6,0,L|436:252,1,90,0|0,3:0|0:0,0:0:0:0:
320,188,30958,1,0,1:0:0:0:
292,184,31034,1,0,0:0:0:0:
264,180,31111,1,2,0:0:0:0:
236,176,31188,1,0,0:0:0:0:
208,172,31264,1,2,0:0:0:0:
244,288,31417,1,0,3:0:0:0:
320,188,31570,1,0,1:0:0:0:
372,324,31723,1,2,0:0:0:0:
212,288,31876,6,0,L|24:296,1,180,0|0,3:0|1:0,0:0:0:0:
108,220,32335,1,2,0:0:0:0:
140,356,32488,2,0,L|229:352,1,90,0|0,0:0|3:0,0:0:0:0:
312,268,32795,1,0,1:0:0:0:
208,156,32948,1,0,0:0:0:0:
208,156,33025,1,2,0:0:0:0:
208,156,33101,6,0,P|214:56|292:38,1,180,0|0,3:0|1:0,0:0:0:0:
372,88,33560,1,2,0:0:0:0:
267,109,33713,1,0,3:0:0:0:
320,232,33866,1,0,3:0:0:0:
372,88,34019,1,0,1:0:0:0:
487,240,34172,1,2,0:0:0:0:
487,240,34249,1,0,0:0:0:0:
487,240,34325,6,0,P|405:208|320:232,1,180,0|0,3:0|1:0,0:0:0:0:
268,328,34784,1,2,0:0:0:0:
252,220,34937,2,0,P|232:184|156:160,1,90,0|0,0:0|3:0,0:0:0:0:
64,168,35244,1,0,1:0:0:0:
176,52,35397,1,2,0:0:0:0:
176,52,35474,1,0,0:0:0:0:
176,52,35550,6,0,L|372:56,1,180,0|0,3:0|1:0,0:0:0:0:
444,120,36009,1,2,0:0:0:0:
308,128,36162,2,0,L|218:126,1,90,2|0,0:0|3:0,0:0:0:0:
356,56,36468,2,0,L|445:54,1,90,0|0,1:0|0:0,0:0:0:0:
396,184,36774,5,0,3:0:0:0:
385,208,36850,1,0,0:0:0:0:
383,235,36927,1,0,3:0:0:0:
388,261,37004,1,0,0:0:0:0:
403,282,37080,2,0,P|354:271|309:285,1,90,0|0,1:0|3:0,0:0:0:0:
208,384,37386,2,0,P|242:347|252:301,1,90,0|0,3:0|3:0,0:0:0:0:
216,164,37693,2,0,P|230:211|265:243,1,90,0|0,1:0|3:0,0:0:0:0:
403,282,37999,5,2,3:2:0:0:
396,156,38152,1,0,0:0:0:0:
316,281,38305,1,2,0:0:0:0:
305,119,38458,1,0,0:0:0:0:
228,280,38611,1,2,0:0:0:0:
213,82,38764,1,0,0:0:0:0:
32,184,38917,1,2,3:2:0:0:
36,216,38993,1,0,3:0:0:0:
40,248,39070,1,0,3:0:0:0:
44,280,39147,1,0,3:0:0:0:
55,322,39223,6,0,L|41:210,1,107.999996704102,4|0,3:2|0:0,0:0:0:0:
128,356,39529,1,0,1:0:0:0:
128,356,39682,2,0,L|137:284,1,72,0|0,3:0|0:0,0:0:0:0:
163,99,39988,1,0,3:0:0:0:
48,196,40142,1,0,1:0:0:0:
200,264,40295,1,2,0:0:0:0:
163,99,40448,6,0,P|215:113|267:102,1,107.999996704102,0|0,3:0|0:0,0:0:0:0:
428,56,40754,1,0,1:0:0:0:
428,56,40907,2,0,P|390:49|348:60,1,72,0|0,3:0|0:0,0:0:0:0:
364,152,41213,6,0,L|440:144,1,58.4999973220826,0|0,3:0|0:0,0:0:0:0:
296,192,41366,2,0,L|224:184,1,62.9999980773926,0|0,1:0|0:0,0:0:0:0:
368,232,41519,2,0,L|436:225,1,67.5000025749208,2|0,0:0|0:0,0:0:0:0:
296,276,41672,6,0,P|291:306|321:297,1,72,0|0,3:0|0:0,0:0:0:0:
364,152,41978,1,0,1:0:0:0:
208,283,42131,6,0,P|207:310|215:336,1,53.9999983520508,0|0,3:0|0:0,0:0:0:0:
376,348,42284,2,0,P|390:320|384:269,1,53.9999983520508,0|0,3:0|0:0,0:0:0:0:
368,232,42437,1,0,0:0:0:0:
288,364,42591,1,0,1:0:0:0:
276,212,42744,1,2,0:0:0:0:
156,368,42897,6,0,P|136:304|160:216,1,107.999996704102,0|0,3:0|0:0,0:0:0:0:
192,124,43203,1,0,1:0:0:0:
323,192,43356,6,0,P|352:200|396:192,1,53.9999983520508,0|0,3:0|0:0,0:0:0:0:
244,130,43509,2,0,P|218:123|192:124,1,53.9999983520508,0|0,3:0|0:0,0:0:0:0:
96,172,43662,1,0,3:0:0:0:
240,304,43815,1,0,1:0:0:0:
244,130,43968,1,2,0:0:0:0:
420,256,44121,6,0,P|446:222|408:136,1,107.999996704102,0|0,3:0|0:0,0:0:0:0:
332,44,44427,1,0,1:0:0:0:
332,44,44580,2,0,P|368:48|428:40,1,72,0|0,3:0|0:0,0:0:0:0:
264,16,44886,1,0,3:0:0:0:
306,170,45040,1,0,1:0:0:0:
403,45,45193,1,2,0:0:0:0:
208,92,45346,6,0,L|84:84,1,107.999996704102,0|0,3:0|0:0,0:0:0:0:
234,175,45652,1,0,1:0:0:0:
234,175,45805,2,0,L|325:169,1,72,0|0,3:0|0:0,0:0:0:0:
155,164,46111,6,0,P|157:193|168:219,1,58.4999973220826,0|0,3:0|0:0,0:0:0:0:
280,280,46264,2,0,P|254:266|220:264,1,62.9999980773926,0|0,1:0|0:0,0:0:0:0:
108,332,46417,2,0,P|132:316|156:284,1,67.5000025749208,2|0,0:0|0:0,0:0:0:0:
155,164,46570,6,0,L|144:44,1,107.999996704102,0|0,3:0|0:0,0:0:0:0:
12,128,46876,1,0,1:0:0:0:
224,176,47029,6,0,L|218:110,1,53.9999983520508,0|0,3:0|0:0,0:0:0:0:
84,144,47182,2,0,L|87:197,1,53.9999983520508,0|0,3:0|0:0,0:0:0:0:
96,280,47335,1,0,0:0:0:0:
224,176,47488,1,0,1:0:0:0:
84,144,47642,1,2,0:0:0:0:
224,308,47795,6,0,B|281:320|281:320|329:308,1,107.999996704102,0|0,3:0|0:0,0:0:0:0:
460,232,48101,1,0,1:0:0:0:
332,144,48254,6,0,P|312:176|308:212,1,53.9999983520508,0|0,3:0|0:0,0:0:0:0:
329,307,48407,2,0,P|309:275|305:239,1,53.9999983520508,0|0,3:0|0:0,0:0:0:0:
332,144,48560,1,0,3:0:0:0:
184,212,48713,1,0,1:0:0:0:
152,208,48789,1,0,3:0:0:0:
120,204,48866,1,0,3:0:0:0:
88,200,48943,1,0,3:0:0:0:
56,196,49019,6,0,P|92:248|92:304,1,107.999996704102,4|2,3:2|0:0,0:0:0:0:
0,148,49325,1,0,1:0:0:0:
94,291,49478,2,0,P|100:238|132:195,1,107.999996704102,0|0,3:0|0:0,0:0:0:0:
96,360,49784,1,0,3:0:0:0:
264,312,49937,1,0,1:0:0:0:
131,195,50091,1,2,0:0:0:0:
190,372,50244,5,0,3:0:0:0:
256,212,50397,1,2,0:0:0:0:
376,336,50550,1,0,1:0:0:0:
396,332,50626,1,0,0:0:0:0:
416,328,50703,1,2,0:0:0:0:
436,324,50779,1,0,0:0:0:0:
456,320,50856,1,2,0:0:0:0:
384,164,51009,1,0,3:0:0:0:
376,336,51162,1,0,1:0:0:0:
488,204,51315,1,2,0:0:0:0:
296,240,51468,6,0,L|168:236,1,107.999996704102,0|2,3:0|0:0,0:0:0:0:
8,228,51774,1,0,1:0:0:0:
188,236,51927,2,0,L|80:232,1,107.999996704102,0|0,3:0|0:0,0:0:0:0:
128,376,52233,1,0,3:0:0:0:
188,236,52386,2,0,P|200:180|172:100,1,107.999996704102,0|2,1:0|0:0,0:0:0:0:
48,44,52693,6,0,P|92:60|156:56,1,90,0|2,3:0|0:0,0:0:0:0:
256,20,52999,1,0,1:0:0:0:
464,44,53152,2,0,P|420:60|356:56,1,90,0|0,3:0|0:0,0:0:0:0:
256,20,53458,1,0,3:0:0:0:
324,148,53611,1,0,1:0:0:0:
188,236,53764,1,2,3:2:0:0:
400,284,53917,6,0,L|507:276,1,107.999996704102,0|2,3:0|0:0,0:0:0:0:
432,120,54223,1,0,1:0:0:0:
336,312,54376,2,0,L|228:304,1,107.999996704102,0|0,3:0|0:0,0:0:0:0:
304,172,54682,1,0,3:0:0:0:
392,352,54835,1,0,1:0:0:0:
480,196,54989,1,2,0:0:0:0:
480,196,55065,1,0,0:0:0:0:
480,196,55142,5,0,3:0:0:0:
316,244,55295,1,2,0:0:0:0:
316,244,55448,1,0,1:0:0:0:
256,60,55601,1,0,0:0:0:0:
196,244,55754,1,0,0:0:0:0:
352,128,55907,1,0,3:0:0:0:
160,128,56060,1,0,1:0:0:0:
256,296,56213,1,2,0:0:0:0:
352,128,56366,6,0,P|400:160|364:188,1,107.999996704102,0|2,3:0|0:0,0:0:0:0:
256,96,56672,1,0,1:0:0:0:
134,186,56825,2,0,P|114:143|160:128,1,107.999996704102,0|0,3:0|0:0,0:0:0:0:
256,244,57131,1,0,3:0:0:0:
88,284,57284,1,0,1:0:0:0:
160,128,57437,1,2,0:0:0:0:
280,276,57591,6,0,L|276:372,1,90,2|0,0:0|3:0,0:0:0:0:
188,332,57897,6,0,L|184:280,1,31.4999990386963,0|0,3:0|0:0,0:0:0:0:
280,276,58050,6,0,L|284:220,1,36,0|0,3:0|0:0,0:0:0:0:
180,232,58203,6,0,L|176:168,1,40.4999987640381,0|0,3:0|0:0,0:0:0:0:
288,172,58356,6,0,L|292:104,1,45,0|0,3:0|0:0,0:0:0:0:
176,124,58509,6,0,L|172:52,1,49.5000015106202,0|0,3:0|0:0,0:0:0:0:
296,60,58662,6,0,L|298:6,1,53.9999983520508,0|0,3:0|0:0,0:0:0:0:
172,4,58815,5,4,3:2:0:0:
150,37,58891,1,0,0:0:0:0:
147,77,58968,1,0,0:0:0:0:
159,115,59045,1,0,0:0:0:0:
187,143,59121,1,0,1:0:0:0:
224,157,59198,1,0,0:0:0:0:
263,148,59274,1,0,0:0:0:0:
295,124,59351,1,0,0:0:0:0:
329,103,59427,1,2,0:0:0:0:
369,97,59504,1,0,0:0:0:0:
406,112,59580,1,0,3:0:0:0:
435,140,59657,1,0,0:0:0:0:
448,177,59733,1,0,1:0:0:0:
439,216,59810,1,0,0:0:0:0:
412,246,59886,1,2,0:0:0:0:
371,245,59963,1,0,0:0:0:0:
335,225,60040,5,0,3:0:0:0:
328,199,60116,1,0,0:0:0:0:
336,173,60193,1,0,0:0:0:0:
347,148,60270,1,0,0:0:0:0:
341,121,60346,1,0,1:0:0:0:
321,102,60423,1,0,0:0:0:0:
297,89,60499,1,0,0:0:0:0:
270,93,60576,1,0,0:0:0:0:
247,107,60652,1,2,0:0:0:0:
221,115,60729,1,0,0:0:0:0:
194,113,60805,1,0,3:0:0:0:
167,106,60882,1,0,0:0:0:0:
144,91,60958,1,0,1:0:0:0:
128,68,61035,1,0,0:0:0:0:
120,42,61111,1,2,0:0:0:0:
132,17,61188,1,0,0:0:0:0:
179,6,61264,5,0,3:0:0:0:
218,26,61340,1,0,0:0:0:0:
223,70,61417,1,0,0:0:0:0:
205,111,61494,1,0,0:0:0:0:
177,145,61570,1,0,1:0:0:0:
147,179,61647,1,0,0:0:0:0:
139,223,61723,1,0,0:0:0:0:
149,266,61800,1,0,0:0:0:0:
186,295,61876,1,2,0:0:0:0:
231,296,61953,1,0,0:0:0:0:
267,270,62029,1,0,3:0:0:0:
283,228,62106,1,0,0:0:0:0:
270,185,62182,1,0,1:0:0:0:
234,157,62259,1,0,0:0:0:0:
189,157,62335,1,2,0:0:0:0:
153,181,62412,1,0,0:0:0:0:
139,223,62488,6,0,P|117:222|85:210,3,45,0|0|0|0,3:0|0:0|0:0|0:0,0:0:0:0:
186,295,62795,2,0,P|178:315|156:342,3,45,0|0|0|0,1:0|0:0|0:0|0:0,0:0:0:0:
268,280,63101,2,0,P|285:293|304:322,1,45,2|0,3:2|0:0,0:0:0:0:
264,200,63254,2,0,P|282:187|315:178,1,45,0|0,3:0|0:0,0:0:0:0:
188,157,63407,2,0,P|182:135|183:101,3,45,0|0|2|0,1:0|0:0|0:0|0:0,0:0:0:0:
192,80,63713,5,0,3:0:0:0:
215,52,63789,1,0,0:0:0:0:
249,41,63866,1,0,0:0:0:0:
282,55,63943,1,0,0:0:0:0:
295,88,64019,1,0,1:0:0:0:
321,112,64096,1,0,0:0:0:0:
350,131,64172,1,0,0:0:0:0:
386,128,64249,1,0,0:0:0:0:
415,107,64325,2,0,P|408:64|339:30,1,90,2|0,0:0|3:0,0:0:0:0:
249,41,64631,1,0,1:0:0:0:
176,139,64784,2,0,L|128:136,1,45,2|0,0:0|0:0,0:0:0:0:
153,219,64937,5,0,3:0:0:0:
201,214,65014,1,0,0:0:0:0:
239,182,65091,1,0,0:0:0:0:
251,134,65167,1,0,0:0:0:0:
232,88,65244,1,0,1:0:0:0:
191,61,65320,1,0,0:0:0:0:
141,65,65397,1,0,0:0:0:0:
104,98,65473,1,0,0:0:0:0:
91,145,65550,1,2,0:0:0:0:
110,191,65626,1,0,0:0:0:0:
153,219,65703,1,0,3:0:0:0:
184,257,65780,1,0,0:0:0:0:
184,306,65856,1,0,1:0:0:0:
156,347,65933,1,0,0:0:0:0:
108,357,66009,1,2,0:0:0:0:
62,336,66086,1,0,0:0:0:0:
39,293,66162,5,0,3:0:0:0:
47,253,66238,1,0,0:0:0:0:
74,222,66315,1,0,3:0:0:0:
113,211,66392,1,0,0:0:0:0:
153,219,66468,1,0,1:0:0:0:
187,240,66545,1,0,0:0:0:0:
224,254,66621,1,0,0:0:0:0:
264,257,66698,1,0,0:0:0:0:
301,242,66774,1,2,0:0:0:0:
325,209,66851,1,0,0:0:0:0:
324,168,66927,1,0,3:0:0:0:
301,133,67004,1,0,0:0:0:0:
261,124,67080,1,0,1:0:0:0:
224,141,67157,1,0,0:0:0:0:
203,175,67233,1,2,0:0:0:0:
208,215,67310,1,0,0:0:0:0:
224,254,67386,6,0,P|220:276|207:298,3,45,0|0|0|0,3:0|0:0|0:0|0:0,0:0:0:0:
151,344,67693,2,0,P|132:356|107:363,3,45,0|0|0|0,1:0|0:0|0:0|0:0,0:0:0:0:
39,342,67999,1,2,3:2:0:0:
224,254,68152,1,0,3:0:0:0:
51,140,68305,1,0,1:0:0:0:
260,48,68458,1,0,3:0:0:0:
260,48,68534,1,0,1:0:0:0:
260,48,68611,5,4,3:2:0:0:
295,66,68687,1,0,0:0:0:0:
334,74,68764,1,0,0:0:0:0:
374,66,68841,1,0,0:0:0:0:
408,44,68917,1,0,1:0:0:0:
448,48,68994,1,0,0:0:0:0:
478,73,69070,1,0,0:0:0:0:
480,113,69147,1,0,0:0:0:0:
457,145,69223,1,2,0:0:0:0:
418,158,69300,1,0,0:0:0:0:
389,186,69376,1,0,3:0:0:0:
380,225,69453,1,0,0:0:0:0:
390,263,69529,1,0,1:0:0:0:
416,294,69606,1,0,0:0:0:0:
455,302,69682,1,2,0:0:0:0:
493,288,69759,1,0,0:0:0:0:
493,247,69836,5,0,3:0:0:0:
472,229,69912,1,0,0:0:0:0:
445,222,69989,1,0,0:0:0:0:
418,225,70066,1,0,0:0:0:0:
392,234,70142,1,0,1:0:0:0:
372,253,70219,1,0,0:0:0:0:
351,270,70295,1,0,0:0:0:0:
324,277,70372,1,0,0:0:0:0:
297,274,70448,1,2,0:0:0:0:
273,260,70525,1,0,0:0:0:0:
258,237,70601,1,0,3:0:0:0:
265,210,70678,1,0,0:0:0:0:
283,190,70754,1,0,1:0:0:0:
294,165,70831,1,0,0:0:0:0:
294,138,70907,1,2,0:0:0:0:
281,113,70984,1,0,0:0:0:0:
260,96,71060,5,0,3:0:0:0:
216,84,71136,1,0,0:0:0:0:
173,100,71213,1,0,0:0:0:0:
130,112,71290,1,0,0:0:0:0:
89,94,71366,1,0,1:0:0:0:
69,53,71443,1,0,0:0:0:0:
93,15,71519,1,0,0:0:0:0:
136,21,71595,1,0,0:0:0:0:
166,55,71672,1,2,0:0:0:0:
173,100,71749,1,0,0:0:0:0:
165,143,71825,1,0,3:0:0:0:
136,178,71902,1,0,0:0:0:0:
108,213,71978,1,0,1:0:0:0:
93,255,72055,1,0,0:0:0:0:
85,299,72131,1,2,0:0:0:0:
101,341,72208,1,0,0:0:0:0:
122,380,72284,6,0,L|169:376,3,45,0|0|0|0,3:0|0:0|0:0|0:0,0:0:0:0:
57,327,72591,2,0,L|12:322,3,45,0|0|0|0,1:0|0:0|0:0|0:0,0:0:0:0:
129,302,72897,2,0,L|182:297,1,45,2|0,3:2|0:0,0:0:0:0:
73,257,73050,2,0,L|28:252,1,45,0|0,3:0|0:0,0:0:0:0:
137,224,73203,2,0,L|181:219,3,45,0|0|2|0,1:0|0:0|0:0|0:0,0:0:0:0:
216,207,73509,5,0,3:0:0:0:
244,185,73585,1,0,0:0:0:0:
258,151,73662,1,0,0:0:0:0:
263,115,73739,1,0,0:0:0:0:
255,80,73815,1,0,1:0:0:0:
232,51,73892,1,0,0:0:0:0:
199,35,73968,1,0,0:0:0:0:
163,39,74045,1,0,0:0:0:0:
135,61,74121,2,0,P|113:102|138:162,1,90,2|0,0:0|3:0,0:0:0:0:
171,272,74427,1,0,1:0:0:0:
277,178,74580,2,0,P|312:175|350:181,1,45,2|0,0:0|0:0,0:0:0:0:
402,206,74733,5,0,3:0:0:0:
448,224,74810,1,0,0:0:0:0:
493,206,74886,1,0,0:0:0:0:
512,160,74963,1,0,0:0:0:0:
493,114,75040,1,0,1:0:0:0:
448,95,75116,1,0,0:0:0:0:
402,114,75193,1,0,0:0:0:0:
383,160,75269,1,0,0:0:0:0:
402,206,75346,1,2,0:0:0:0:
406,254,75422,1,0,0:0:0:0:
389,301,75499,1,0,3:0:0:0:
349,331,75576,1,0,0:0:0:0:
300,335,75652,1,0,1:0:0:0:
256,311,75729,1,0,0:0:0:0:
240,264,75805,1,0,0:0:0:0:
257,217,75882,1,0,0:0:0:0:
273,174,75958,5,2,0:0:0:0:
282,143,76035,1,0,0:0:0:0:
273,111,76111,1,0,0:0:0:0:
247,90,76188,1,0,0:0:0:0:
216,85,76264,1,0,1:0:0:0:
186,99,76341,1,0,0:0:0:0:
169,127,76417,1,0,0:0:0:0:
169,159,76494,1,0,0:0:0:0:
186,186,76571,1,2,0:0:0:0:
216,200,76647,1,0,0:0:0:0:
247,195,76724,1,0,0:0:0:0:
273,174,76800,1,0,0:0:0:0:
303,164,76876,1,0,1:0:0:0:
336,165,76953,1,0,0:0:0:0:
365,174,77029,1,2,0:0:0:0:
382,201,77106,1,0,0:0:0:0:
377,233,77182,5,0,3:0:0:0:
396,104,77335,1,0,3:0:0:0:
238,140,77488,1,0,3:0:0:0:
377,233,77642,1,0,3:0:0:0:
441,39,77795,1,0,3:0:0:0:
238,140,77948,1,0,3:0:0:0:
468,280,78101,5,0,3:0:0:0:
472,236,78177,1,0,3:0:0:0:
476,192,78254,1,0,3:0:0:0:
480,148,78331,1,0,3:0:0:0:
484,104,78407,6,0,P|416:124|360:112,1,107.999996704102,4|0,3:2|0:0,0:0:0:0:
225,69,78713,1,0,1:0:0:0:
225,69,78866,2,0,P|246:97|260:130,1,72,0|0,3:0|0:0,0:0:0:0:
192,244,79172,1,0,3:0:0:0:
72,128,79326,1,0,1:0:0:0:
225,69,79479,1,2,0:0:0:0:
192,244,79632,6,0,L|200:364,1,107.999996704102,0|0,3:0|0:0,0:0:0:0:
256,204,79938,1,0,1:0:0:0:
256,204,80091,2,0,L|261:279,1,72,0|0,3:0|0:0,0:0:0:0:
128,352,80397,6,0,L|124:293,1,58.4999973220826,0|0,3:0|0:0,0:0:0:0:
261,276,80550,2,0,L|264:338,1,62.9999980773926,0|0,1:0|0:0,0:0:0:0:
125,294,80703,2,0,L|121:214,1,67.5000025749208,2|0,0:0|0:0,0:0:0:0:
20,171,80856,6,0,P|7:202|17:265,1,72,0|0,3:0|0:0,0:0:0:0:
68,112,81162,1,0,1:0:0:0:
68,112,81315,6,0,B|92:100|92:100|136:96,1,53.9999983520508,0|0,3:0|0:0,0:0:0:0:
260,168,81468,2,0,B|237:153|237:153|212:117,1,53.9999983520508,0|0,3:0|0:0,0:0:0:0:
200,20,81621,1,0,0:0:0:0:
349,49,81775,1,0,1:0:0:0:
222,131,81928,1,2,0:0:0:0:
411,171,82081,6,0,B|453:176|498:165|498:165|484:184|480:200,1,107.999996704102,0|0,3:0|0:0,0:0:0:0:
440,328,82387,1,0,1:0:0:0:
344,204,82540,6,0,P|336:176|343:143,1,53.9999983520508,0|0,3:0|0:0,0:0:0:0:
312,276,82693,2,0,P|286:261|268:233,1,53.9999983520508,0|0,3:0|0:0,0:0:0:0:
222,131,82846,1,0,3:0:0:0:
104,284,82999,1,0,1:0:0:0:
271,242,83152,1,2,0:0:0:0:
88,128,83305,6,0,P|71:77|88:27,1,107.999996704102,0|0,3:0|0:0,0:0:0:0:
152,180,83611,1,0,1:0:0:0:
152,180,83764,2,0,P|159:214|151:249,1,72,0|0,3:0|0:0,0:0:0:0:
12,212,84070,1,0,3:0:0:0:
160,104,84224,1,0,1:0:0:0:
0,20,84377,1,2,0:0:0:0:
152,180,84530,6,0,P|208:165|234:93,1,107.999996704102,0|0,3:0|0:0,0:0:0:0:
84,200,84835,1,0,1:0:0:0:
84,200,84989,2,0,P|104:232|152:252,1,72,0|0,3:0|0:0,0:0:0:0:
296,252,85295,6,0,L|364:248,1,58.4999973220826,0|0,3:0|0:0,0:0:0:0:
392,128,85448,2,0,L|395:190,1,62.9999980773926,0|0,1:0|0:0,0:0:0:0:
508,240,85601,2,0,L|440:243,1,67.5000025749208,2|0,0:0|0:0,0:0:0:0:
316,168,85754,6,0,P|308:104|352:52,1,107.999996704102,0|0,3:0|0:0,0:0:0:0:
464,156,86060,1,0,1:0:0:0:
252,200,86213,6,0,L|176:196,1,53.9999983520508,0|0,3:0|0:0,0:0:0:0:
316,168,86366,2,0,L|369:165,1,53.9999983520508,0|0,3:0|0:0,0:0:0:0:
248,128,86519,1,0,0:0:0:0:
351,253,86672,1,0,1:0:0:0:
198,197,86826,1,2,0:0:0:0:
360,340,86979,6,0,P|304:324|220:344,1,107.999996704102,0|0,3:0|0:0,0:0:0:0:
112,376,87285,1,0,1:0:0:0:
199,197,87438,6,0,P|205:168|197:136,1,53.9999983520508,0|0,3:0|0:0,0:0:0:0:
83,144,87591,2,0,P|79:170|84:196,1,53.9999983520508,0|0,3:0|0:0,0:0:0:0:
148,280,87744,1,0,3:0:0:0:
200,144,87897,1,0,3:0:0:0:
224,124,87973,1,0,3:0:0:0:
256,116,88050,1,0,3:0:0:0:
288,124,88127,1,0,3:0:0:0:
312,144,88203,6,0,P|364:160|440:136,1,107.999996704102,0|0,3:0|0:0,0:0:0:0:
268,60,88509,1,0,1:0:0:0:
318,219,88662,2,0,P|379:227|464:202,1,107.999996704102,0|0,3:0|0:0,0:0:0:0:
288,124,88968,1,0,3:0:0:0:
251,294,89121,1,0,1:0:0:0:
121,177,89274,1,2,0:0:0:0:
318,219,89427,5,0,3:0:0:0:
152,273,89580,1,0,0:0:0:0:
188,102,89733,1,0,1:0:0:0:
184,80,89810,1,0,0:0:0:0:
180,60,89887,1,2,0:0:0:0:
176,40,89963,1,0,0:0:0:0:
172,20,90040,1,2,0:0:0:0:
16,93,90193,1,0,3:0:0:0:
188,102,90346,1,0,1:0:0:0:
36,184,90499,1,2,0:0:0:0:
252,195,90652,6,0,L|384:188,1,107.999996704102,0|0,3:0|0:0,0:0:0:0:
259,330,90958,1,0,1:0:0:0:
144,201,91111,2,0,L|251:194,1,107.999996704102,0|0,3:0|0:0,0:0:0:0:
147,339,91417,1,0,3:0:0:0:
28,248,91570,2,0,P|10:198|32:150,1,107.999996704102,0|2,1:0|0:0,0:0:0:0:
176,72,91877,6,0,L|265:79,1,90,0|0,3:0|0:0,0:0:0:0:
392,96,92183,1,0,1:0:0:0:
200,144,92335,2,0,L|110:151,1,90,0|0,3:0|0:0,0:0:0:0:
172,260,92642,1,0,3:0:0:0:
276,148,92795,1,0,1:0:0:0:
312,316,92948,1,0,3:0:0:0:
312,316,93024,1,0,3:0:0:0:
312,316,93101,6,0,P|336:264|324:208,1,107.999996704102,0|0,3:0|0:0,0:0:0:0:
256,60,93407,1,0,1:0:0:0:
92,195,93560,2,0,P|122:240|172:260,1,107.999996704102,0|0,3:0|0:0,0:0:0:0:
232,120,93866,1,0,3:0:0:0:
36,120,94019,1,0,1:0:0:0:
179,267,94173,1,2,0:0:0:0:
179,267,94249,1,0,0:0:0:0:
179,267,94325,5,0,3:0:0:0:
256,88,94479,1,0,0:0:0:0:
256,88,94632,1,0,1:0:0:0:
336,264,94785,1,0,0:0:0:0:
416,88,94938,1,0,0:0:0:0:
260,200,95091,1,0,3:0:0:0:
340,24,95244,1,0,1:0:0:0:
420,200,95397,1,2,0:0:0:0:
256,88,95550,6,0,P|184:92|152:152,1,107.999996704102,0|0,3:0|0:0,0:0:0:0:
256,248,95856,1,0,1:0:0:0:
350,115,96009,2,0,P|308:82|256:88,1,107.999996704102,0|0,3:0|0:0,0:0:0:0:
168,237,96315,1,0,3:0:0:0:
340,237,96468,1,0,1:0:0:0:
256,88,96621,1,2,0:0:0:0:
168,237,96774,5,2,0:0:0:0:
288,306,96927,1,0,0:0:0:0:
272,156,97080,1,2,0:0:0:0:
203,316,97233,1,0,0:0:0:0:
373,221,97386,1,2,3:2:0:0:
174,136,97539,1,0,3:0:0:0:
319,325,97692,1,2,3:2:0:0:
344,68,97845,1,0,3:0:0:0:
132,244,97999,6,0,L|320:228,1,180,4|0,3:2|1:0,0:0:0:0:
227,132,98458,1,2,0:0:0:0:
201,134,98533,1,0,0:0:0:0:
174,136,98611,1,0,0:0:0:0:
228,20,98764,1,0,3:0:0:0:
300,124,98918,1,0,1:0:0:0:
174,136,99071,1,2,0:0:0:0:
305,43,99224,6,0,P|353:61|380:120,1,90,0|0,3:0|0:0,0:0:0:0:
392,216,99530,1,0,1:0:0:0:
388,244,99606,1,0,0:0:0:0:
384,272,99683,1,2,0:0:0:0:
380,300,99759,1,0,0:0:0:0:
376,328,99835,1,2,0:0:0:0:
276,252,99989,1,0,3:0:0:0:
396,182,100142,2,0,L|384:272,1,90,0|2,1:0|0:0,0:0:0:0:
216,368,100448,6,0,B|196:228|196:228|181:245|160:256,1,180,0|0,3:0|1:0,0:0:0:0:
48,292,100908,1,2,0:0:0:0:
156,172,101061,2,0,P|198:158|253:192,1,90,0|0,0:0|3:0,0:0:0:0:
348,228,101367,1,0,1:0:0:0:
468,116,101519,1,2,0:0:0:0:
468,116,101597,1,0,0:0:0:0:
467,115,101672,6,0,P|500:198|470:281,1,180,0|0,3:0|1:0,0:0:0:0:
368,352,102132,1,2,0:0:0:0:
348,228,102285,1,0,3:0:0:0:
251,311,102437,1,0,3:0:0:0:
200,156,102591,1,0,1:0:0:0:
355,235,102744,1,2,0:0:0:0:
355,235,102821,1,0,0:0:0:0:
355,235,102897,6,0,P|334:315|251:311,1,180,0|0,3:0|1:0,0:0:0:0:
224,188,103356,1,2,0:0:0:0:
344,152,103510,2,0,L|448:160,1,90,0|0,0:0|3:0,0:0:0:0:
304,60,103816,1,0,1:0:0:0:
231,195,103969,1,2,0:0:0:0:
231,195,104046,1,0,0:0:0:0:
231,195,104122,6,0,B|79:207|79:207|111:159,1,180,0|0,3:0|1:0,0:0:0:0:
176,280,104581,2,0,P|180:332|160:380,1,90,2|0,0:0|0:0,0:0:0:0:
40,304,104886,1,2,3:2:0:0:
176,280,105040,1,2,1:2:0:0:
95,184,105193,1,2,0:0:0:0:
236,112,105346,5,0,3:0:0:0:
264,116,105422,1,0,0:0:0:0:
292,120,105499,1,0,3:0:0:0:
320,124,105576,1,0,0:0:0:0:
348,128,105652,2,0,P|396:128|444:104,2,90,0|2|0,1:0|0:0|0:0,0:0:0:0:
368,4,106111,1,0,3:0:0:0:
496,76,106265,2,0,P|506:118|490:160,1,90,0|2,1:0|0:0,0:0:0:0:
368,268,106571,5,0,3:0:0:0:
292,168,106724,1,0,0:0:0:0:
200,252,106877,2,0,P|158:265|100:243,1,90,0|2,1:0|0:0,0:0:0:0:
64,208,107106,1,0,3:0:0:0:
64,208,107183,1,0,1:0:0:0:
96,344,107336,1,0,3:0:0:0:
156,192,107489,1,0,1:0:0:0:
280,336,107642,1,0,1:0:0:0:
280,336,107719,1,0,1:0:0:0:
280,336,107795,6,0,B|316:356|368:340|368:340|384:288|336:240,1,180,2|0,3:2|1:0,0:0:0:0:
248,184,108254,1,2,0:0:0:0:
220,188,108331,1,0,0:0:0:0:
192,192,108407,1,0,0:0:0:0:
280,336,108561,1,0,3:0:0:0:
334,146,108714,2,0,P|344:91|308:31,1,90,0|2,1:0|0:0,0:0:0:0:
279,249,109019,6,0,P|268:292|280:336,1,90,0|0,3:0|0:0,0:0:0:0:
416,248,109326,1,0,1:0:0:0:
415,218,109402,1,0,0:0:0:0:
413,190,109479,1,2,0:0:0:0:
412,162,109556,1,0,0:0:0:0:
410,134,109632,1,2,0:0:0:0:
276,212,109785,1,0,3:0:0:0:
417,276,109938,1,0,1:0:0:0:
408,105,110091,1,2,0:0:0:0:
276,212,110244,6,0,P|193:245|108:220,1,180,0|0,3:0|1:0,0:0:0:0:
52,108,110703,1,2,0:0:0:0:
44,235,110857,2,0,L|36:328,1,90,0|0,0:0|3:0,0:0:0:0:
156,292,111163,1,0,1:0:0:0:
100,152,111316,1,2,0:0:0:0:
100,152,111393,1,0,0:0:0:0:
100,152,111468,6,0,P|182:119|267:143,1,180,0|0,3:0|1:0,0:0:0:0:
360,232,111928,1,2,0:0:0:0:
244,280,112081,1,0,3:0:0:0:
267,143,112233,1,0,3:0:0:0:
320,296,112387,1,0,1:0:0:0:
180,200,112540,1,2,0:0:0:0:
180,200,112617,1,0,0:0:0:0:
180,200,112693,6,0,P|174:96|237:43,1,180,0|0,3:0|1:0,0:0:0:0:
344,84,113152,1,2,0:0:0:0:
392,200,113305,2,0,L|388:296,1,90,0|0,0:0|3:0,0:0:0:0:
504,240,113612,1,0,1:0:0:0:
336,160,113765,1,2,0:0:0:0:
336,160,113842,1,0,0:0:0:0:
336,160,113917,6,0,P|296:248|344:336,1,180,0|0,3:0|1:0,0:0:0:0:
444,360,114377,1,2,0:0:0:0:
326,320,114530,2,0,P|283:310|240:321,1,90,0|0,0:0|3:0,0:0:0:0:
88,348,114835,2,0,P|131:358|174:347,1,90,0|2,1:0|0:0,0:0:0:0:
168,208,115142,5,0,3:0:0:0:
156,184,115218,1,0,0:0:0:0:
152,156,115295,1,0,3:0:0:0:
156,128,115372,1,0,0:0:0:0:
168,104,115448,2,0,B|176:58|176:58|168:16,1,90,0|0,1:0|3:0,0:0:0:0:
152,176,115754,2,0,B|187:205|187:205|228:220,1,90,0|0,3:0|3:0,0:0:0:0:
97,126,116060,2,0,B|53:142|53:142|20:170,1,90,0|0,1:0|3:0,0:0:0:0:
168,104,116366,5,2,0:0:0:0:
140,244,116519,1,0,0:0:0:0:
252,124,116672,1,2,0:0:0:0:
288,300,116825,1,0,0:0:0:0:
336,108,116978,1,2,0:0:0:0:
456,288,117131,1,0,0:0:0:0:
232,172,117284,1,0,3:0:0:0:
200,160,117360,1,0,3:0:0:0:
168,152,117437,1,0,3:0:0:0:
136,160,117514,1,0,3:0:0:0:
100,172,117591,6,0,P|136:120|136:44,1,107.999996704102,4|0,3:1|0:0,0:0:0:0:
232,172,117897,2,0,P|241:224|274:267,1,107.999996704102,0|0,1:0|3:0,0:0:0:0:
340,304,118126,1,0,1:0:0:0:
340,304,118204,1,0,3:0:0:0:
392,152,118357,1,0,3:0:0:0:
232,172,118510,1,0,1:0:0:0:
408,252,118663,1,2,0:0:0:0:
312,112,118815,6,0,L|316:-8,1,107.999996704102,0|0,3:0|0:0,0:0:0:0:
432,64,119121,1,0,1:0:0:0:
312,188,119274,1,0,3:0:0:0:
272,180,119350,1,0,1:0:0:0:
232,172,119427,1,0,3:0:0:0:
268,340,119580,1,0,3:0:0:0:
144,220,119733,2,0,P|124:168|186:104,1,107.999996704102,0|2,1:0|0:0,0:0:0:0:
169,296,120040,6,0,L|56:292,1,107.999996704102,0|0,3:0|0:0,0:0:0:0:
17,159,120346,1,0,1:0:0:0:
144,220,120499,1,0,0:0:0:0:
272,120,120652,2,0,P|288:72|256:-4,1,107.999996704102,2|0,0:0|3:0,0:0:0:0:
284,208,120958,2,0,P|329:185|360:109,1,107.999996704102,0|2,1:0|0:0,0:0:0:0:
224,288,121264,6,0,L|360:300,1,107.999996704102,0|0,3:0|0:0,0:0:0:0:
460,272,121570,1,0,1:0:0:0:
284,208,121723,1,0,3:0:0:0:
284,208,121799,1,0,1:0:0:0:
284,208,121876,1,0,3:0:0:0:
372,368,122029,1,0,3:0:0:0:
424,192,122182,1,0,1:0:0:0:
260,328,122335,1,0,1:0:0:0:
260,328,122411,1,0,1:0:0:0:
260,328,122488,6,0,P|207:342|152:328,1,107.999996704102,0|0,3:0|0:0,0:0:0:0:
88,220,122795,2,0,L|92:76,1,107.999996704102,0|0,1:0|3:0,0:0:0:0:
96,44,123024,1,0,1:0:0:0:
96,44,123102,1,0,3:0:0:0:
200,120,123255,1,0,3:0:0:0:
339,40,123407,2,0,P|391:26|442:42,1,107.999996704102,0|2,1:0|0:0,0:0:0:0:
392,200,123713,6,0,L|276:192,1,107.999996704102,0|0,3:0|0:0,0:0:0:0:
424,136,124019,2,0,P|461:180|446:243,2,107.999996704102,0|0|2,1:0|0:0|0:0,0:0:0:0:
284,192,124478,1,0,3:0:0:0:
412,308,124631,1,0,1:0:0:0:
424,136,124784,1,2,0:0:0:0:
248,264,124937,5,0,3:0:0:0:
248,264,125091,1,0,3:0:0:0:
352,156,125244,2,0,P|352:100|328:48,1,107.999996704102,0|0,1:0|3:0,0:0:0:0:
272,20,125473,1,0,1:0:0:0:
272,20,125551,1,0,3:0:0:0:
208,132,125703,1,0,3:0:0:0:
352,228,125856,2,0,P|352:284|328:336,1,107.999996704102,0|2,1:0|0:0,0:0:0:0:
208,372,126162,5,0,3:0:0:0:
120,248,126315,1,0,3:0:0:0:
120,248,126391,1,0,3:0:0:0:
120,248,126468,2,0,L|116:136,1,107.999996704102,0|0,1:0|3:0,0:0:0:0:
116,68,126698,1,0,3:0:0:0:
116,68,126774,1,0,1:0:0:0:
280,156,126927,1,0,3:0:0:0:
120,248,127080,1,0,1:0:0:0:
304,304,127233,1,0,1:0:0:0:
304,304,127309,1,0,1:0:0:0:
304,304,127386,6,0,P|356:315|408:304,1,107.999996704102,4|0,3:2|0:0,0:0:0:0:
225,248,127693,2,0,P|172:237|120:248,1,107.999996704102,0|0,1:0|3:0,0:0:0:0:
64,292,127922,1,0,1:0:0:0:
64,292,128000,1,0,3:0:0:0:
172,364,128152,1,0,3:0:0:0:
296,232,128305,2,0,P|308:176|288:112,1,107.999996704102,0|2,1:0|0:0,0:0:0:0:
136,28,128611,6,0,P|178:66|243:81,1,107.999996704102,0|0,3:0|0:0,0:0:0:0:
336,12,128917,1,0,1:0:0:0:
228,156,129070,1,0,3:0:0:0:
228,156,129146,1,0,1:0:0:0:
228,156,129223,1,0,3:0:0:0:
72,104,129376,1,0,3:0:0:0:
128,272,129529,1,0,1:0:0:0:
226,80,129682,1,2,0:0:0:0:
356,252,129835,6,0,L|476:248,1,107.999996704102,0|0,3:0|0:0,0:0:0:0:
376,124,130142,2,0,P|363:72|375:20,1,107.999996704102,0|0,1:0|0:0,0:0:0:0:
508,72,130448,1,2,0:0:0:0:
376,124,130601,1,0,3:0:0:0:
484,244,130754,2,0,P|496:295|484:347,1,107.999996704102,0|2,1:0|0:0,0:0:0:0:
312,256,131060,6,0,P|350:218|401:203,1,107.999996704102,0|0,3:0|0:0,0:0:0:0:
372,352,131366,1,0,1:0:0:0:
240,260,131519,1,0,3:0:0:0:
244,228,131595,1,0,1:0:0:0:
248,196,131672,1,0,3:0:0:0:
72,248,131825,1,0,3:0:0:0:
232,336,131978,1,0,1:0:0:0:
260,132,132131,1,0,1:0:0:0:
260,132,132207,1,0,1:0:0:0:
260,132,132284,6,0,P|208:80|148:72,1,107.999996704102,0|0,3:0|0:0,0:0:0:0:
316,176,132591,2,0,P|387:156|423:109,1,107.999996704102,0|0,1:0|3:0,0:0:0:0:
452,72,132820,1,0,1:0:0:0:
452,72,132898,1,0,3:0:0:0:
324,68,133050,1,0,3:0:0:0:
249,201,133203,2,0,P|238:253|255:303,1,107.999996704102,0|2,1:0|0:0,0:0:0:0:
396,240,133509,6,0,P|364:196|315:175,1,107.999996704102,0|0,3:0|0:0,0:0:0:0:
256,304,133815,1,0,1:0:0:0:
396,240,133968,1,0,0:0:0:0:
256,124,134121,2,0,L|108:132,1,107.999996704102,2|0,0:0|3:0,0:0:0:0:
16,224,134427,2,0,L|123:228,1,107.999996704102,0|2,1:0|0:0,0:0:0:0:
256,124,134733,5,0,3:0:0:0:
379,247,134886,1,0,3:0:0:0:
256,369,135040,1,0,1:0:0:0:
134,246,135193,1,0,3:0:0:0:
366,138,135346,5,0,3:0:0:0:
366,355,135499,1,0,3:0:0:0:
151,354,135652,1,0,1:0:0:0:
152,138,135805,1,0,3:0:0:0:
375,267,135958,6,0,P|379:312|365:355,1,90,2|0,3:2|0:0,0:0:0:0:
151,354,136264,2,0,P|137:311|144:256,1,99.0000030212403,2|0,0:0|0:0,0:0:0:0:
320,136,136570,2,0,P|376:148|432:144,1,107.999996704102,2|0,0:0|0:0,0:0:0:0:
192,136,136876,2,0,P|136:148|76:144,1,116.999994644165,2|0,0:0|0:0,0:0:0:0:
256,50,137182,5,2,0:0:0:0:
397,191,137335,1,0,0:0:0:0:
355,92,137488,1,2,0:0:0:0:
355,291,137641,1,0,0:0:0:0:
397,191,137794,1,2,0:0:0:0:
256,333,137947,1,0,0:0:0:0:
355,291,138100,1,2,0:0:0:0:
156,291,138253,1,2,0:0:0:0:
256,252,138407,5,2,0:0:0:0:
356,151,138560,1,0,0:0:0:0:
326,222,138713,1,2,0:0:0:0:
326,80,138866,1,0,0:0:0:0:
356,151,139019,1,2,0:0:0:0:
256,51,139172,1,0,0:0:0:0:
326,80,139325,1,2,0:0:0:0:
185,80,139478,1,2,0:0:0:0:
256,252,139631,5,2,0:0:0:0:
326,80,139784,1,0,0:0:0:0:
155,151,139937,1,2,0:0:0:0:
326,222,140090,1,0,0:0:0:0:
256,51,140243,1,2,0:0:0:0:
185,222,140396,1,0,0:0:0:0:
356,151,140549,1,2,0:0:0:0:
185,80,140702,1,2,0:0:0:0:
256,329,140856,5,2,0:0:0:0:
351,91,141009,1,0,0:0:0:0:
116,189,141162,1,2,0:0:0:0:
351,287,141315,1,0,0:0:0:0:
256,51,141468,1,2,0:0:0:0:
157,287,141621,1,0,0:0:0:0:
392,189,141774,1,2,0:0:0:0:
157,91,141927,1,2,0:0:0:0:
256,192,142080,5,2,0:0:0:0:
256,192,142157,12,0,146978,0:0:0:0:
