osu file format v14

[General]
AudioFilename: audio.mp3
AudioLeadIn: 0
PreviewTime: 19631
Countdown: 0
SampleSet: Soft
StackLeniency: 0.7
Mode: 0
LetterboxInBreaks: 0
WidescreenStoryboard: 0

[Editor]
DistanceSpacing: 1.1
BeatDivisor: 2
GridSize: 4
TimelineZoom: 1

[Metadata]
Title:Help
TitleUnicode:Help
Artist:Thaehan
ArtistUnicode:Thaehan
Creator:Nozhomi
Version:Easy
Source:
Tags:Pachiru xfraczynho piano osu! featured artist bwa
BeatmapID:1432510
BeatmapSetID:630407

[Difficulty]
HPDrainRate:2
CircleSize:2.7
OverallDifficulty:2.7
ApproachRate:3.3
SliderMultiplier:0.9
SliderTickRate:1

[Events]
//Background and Video events
0,0,"anime.jpg",0,0
//Break Periods
//Storyboard Layer 0 (Background)
//Storyboard Layer 1 (Fail)
//Storyboard Layer 2 (Pass)
//Storyboard Layer 3 (Foreground)
//Storyboard Sound Samples

[TimingPoints]
40,306.122448979592,4,2,1,30,1,0
40,-133.333333333333,4,2,1,30,0,0
14733,-133.333333333333,4,2,1,35,0,0
15958,-133.333333333333,4,2,1,40,0,0
17182,-100,4,2,1,40,0,0
18254,-100,4,2,1,10,0,0
18407,-100,4,2,1,60,0,0
19019,-100,4,2,1,70,0,0
19631,-100,4,2,1,80,0,0
53917,-100,4,2,1,80,0,0
57591,-100,4,2,1,60,0,0
57897,-100,4,2,1,35,0,0
58050,-100,4,2,1,40,0,0
58203,-100,4,2,1,50,0,0
58356,-100,4,2,1,60,0,0
58509,-100,4,2,1,70,0,0
58662,-100,4,2,1,80,0,0
58815,-100,4,2,1,80,0,1
77182,-100,4,2,1,50,0,1
77488,-100,4,2,1,60,0,1
77795,-100,4,2,1,70,0,1
78101,-100,4,2,1,80,0,1
78407,-100,4,2,1,80,0,0
117591,-100,4,2,1,80,0,1
137182,-100,4,2,1,60,0,0
140856,-100,4,2,1,70,0,0
146902,-100,4,2,1,5,0,0

[Colours]
Combo1 : 211,158,48
Combo2 : 103,39,173
Combo3 : 0,221,221
Combo4 : 206,96,137

[HitObjects]
76,140,40,6,0,P|139:120|203:139,1,135.000005149842,2|2,0:0|0:0,0:0:0:0:
308,244,1264,2,0,P|372:263|436:244,1,135.000005149842,2|0,0:0|0:0,0:0:0:0:
435,96,2488,2,0,P|371:77|308:96,1,135.000005149842,2|2,0:0|0:0,0:0:0:0:
192,188,3713,2,0,P|208:120|177:57,1,135.000005149842,2|0,0:0|0:0,0:0:0:0:
96,44,4631,1,2,0:0:0:0:
96,132,4937,6,0,L|99:266,1,135.000005149842,2|2,0:0|0:0,0:0:0:0:
236,208,6161,2,0,P|296:192|364:244,1,135.000005149842,2|0,0:0|0:0,0:0:0:0:
400,304,7080,1,2,0:0:0:0:
332,360,7386,2,0,P|272:376|204:324,1,135.000005149842,2|2,0:0|0:0,0:0:0:0:
140,208,8611,2,0,P|156:148|235:115,1,135.000005149842,2|2,0:0|0:0,0:0:0:0:
304,118,9530,1,2,0:0:0:0:
336,199,9835,6,0,L|333:334,1,135.000005149842,2|2,0:0|0:0,0:0:0:0:
179,334,11060,2,0,L|176:200,1,135.000005149842,2|0,0:0|0:0,0:0:0:0:
293,108,12284,2,0,P|325:172|309:255,1,135.000005149842,2|2,0:0|0:0,0:0:0:0:
236,356,13509,2,0,P|308:336|384:360,1,135.000005149842,2|0,0:0|0:0,0:0:0:0:
451,372,14426,1,2,0:0:0:0:
427,286,14733,5,2,0:0:0:0:
256,192,14886,12,2,17182,0:0:0:0:
88,64,19631,6,0,P|144:120|248:116,1,180,4|2,3:1|0:0,0:0:0:0:
316,56,20550,1,0,1:0:0:0:
400,108,20856,2,0,L|396:300,1,180,0|2,3:0|0:0,0:0:0:0:
316,344,21774,1,0,1:0:0:0:
236,287,22080,6,0,P|212:179|252:107,1,180,0|2,3:0|0:0,0:0:0:0:
416,28,23305,2,0,L|505:24,2,90,0|0|0,3:0|1:0|3:0,0:0:0:0:
336,84,24223,1,0,1:0:0:0:
248,36,24529,6,0,P|164:30|96:128,1,180,0|2,3:0|0:0,0:0:0:0:
101,289,25754,2,0,P|160:352|248:348,1,180,0|0,3:0|0:0,0:0:0:0:
340,308,26672,1,0,1:0:0:0:
372,216,26978,6,0,L|368:88,1,90,0|0,3:0|1:0,0:0:0:0:
188,48,27897,1,0,1:0:0:0:
134,130,28203,2,0,P|122:172|132:216,2,90,0|0|0,3:0|1:0|1:0,0:0:0:0:
220,176,29121,1,0,1:0:0:0:
200,272,29427,6,0,P|87:293|47:232,1,180,2|2,3:2|0:0,0:0:0:0:
38,153,30346,1,0,1:0:0:0:
135,131,30652,2,0,L|335:135,1,180,0|2,3:0|0:0,0:0:0:0:
386,66,31570,1,0,1:0:0:0:
452,140,31876,6,0,P|480:223|450:306,1,180,0|2,3:0|0:0,0:0:0:0:
252,296,33101,2,0,P|221:213|250:129,1,180,0|0,3:0|3:0,0:0:0:0:
324,63,34019,1,0,1:0:0:0:
405,120,34325,6,0,P|330:163|250:130,1,180,0|2,3:0|0:0,0:0:0:0:
80,24,35550,2,0,L|84:164,2,135,0|2|0,3:0|0:0|1:0,0:0:0:0:
172,60,36774,6,0,L|173:149,1,90,0|0,3:0|1:0,0:0:0:0:
136,240,37386,2,0,L|137:329,1,90,0|0,3:0|1:0,0:0:0:0:
228,376,37999,2,0,B|268:288|228:212|228:212|288:224|342:185,1,270,2|2,3:2|3:2,0:0:0:0:
396,128,39223,6,0,P|462:135|511:179,2,135,4|0|0,3:2|3:0|1:0,0:0:0:0:
324,196,40448,2,0,P|257:188|208:144,1,135,0|0,3:0|3:0,0:0:0:0:
156,60,41213,2,0,L|88:64,1,45,0|0,3:0|1:0,0:0:0:0:
40,132,41672,6,0,L|44:292,2,135,0|0|0,3:0|3:0|1:0,0:0:0:0:
128,176,42897,2,0,L|132:336,2,135,0|0|0,3:0|3:0|1:0,0:0:0:0:
216,220,44121,6,0,B|280:240|280:240|345:220,2,135,0|0|0,3:0|3:0|1:0,0:0:0:0:
216,120,45346,2,0,B|280:100|280:100|345:119,1,135,0|0,3:0|3:0,0:0:0:0:
424,180,46111,2,0,L|469:180,1,45,0|0,3:0|1:0,0:0:0:0:
469,280,46570,6,0,P|393:287|329:232,2,135,0|0|0,3:0|3:0|1:0,0:0:0:0:
439,376,47795,2,0,P|351:363|278:312,1,180,0|0,3:0|3:0,0:0:0:0:
260,216,48713,1,0,1:0:0:0:
324,140,49019,6,0,P|358:82|355:15,2,135,4|0|0,3:2|3:0|1:0,0:0:0:0:
260,216,50244,2,0,L|140:212,1,90,0|0,3:0|1:0,0:0:0:0:
136,120,50856,2,0,L|225:123,1,90,2|0,0:0|1:0,0:0:0:0:
324,140,51468,6,0,L|458:134,2,135,0|0|0,3:0|3:0|1:0,0:0:0:0:
368,228,52693,2,0,L|502:222,2,135,0|0|0,3:0|3:0|1:0,0:0:0:0:
272,244,53917,6,0,P|308:316|296:372,2,135,0|0|0,3:0|3:0|1:0,0:0:0:0:
180,208,55142,2,0,L|80:212,1,90,0|0,3:0|1:0,0:0:0:0:
48,120,55754,2,0,L|137:116,1,90,2|0,0:0|1:0,0:0:0:0:
168,20,56366,6,0,L|33:25,2,135,0|0|0,3:0|3:0|1:0,0:0:0:0:
251,67,57591,2,0,P|267:109|264:154,1,90,2|0,0:0|3:0,0:0:0:0:
236,248,58203,2,0,P|233:292|248:334,1,90,0|0,3:0|3:0,0:0:0:0:
344,364,58815,6,0,P|372:268|344:172,1,180,4|2,3:2|0:0,0:0:0:0:
296,112,59734,1,0,1:0:0:0:
208,61,60040,2,0,P|109:109|207:159,1,270,0|0,3:0|1:0,0:0:0:0:
296,112,61264,6,0,B|334:190|263:206|303:285,1,180,0|2,3:0|0:0,0:0:0:0:
354,372,62183,1,0,1:0:0:0:
420,300,62489,2,0,P|452:260|456:208,1,90,0|0,3:0|1:0,0:0:0:0:
452,124,63101,2,0,P|443:80|413:46,1,90,2|0,3:2|1:0,0:0:0:0:
320,76,63713,6,0,P|228:104|132:80,1,180,0|2,3:0|0:0,0:0:0:0:
56,48,64632,1,0,1:0:0:0:
72,144,64938,2,0,B|88:228|68:312|68:312|116:256|176:256,1,270,0|0,3:0|1:0,0:0:0:0:
248,280,66162,6,0,P|333:305|419:283,1,180,0|2,3:0|0:0,0:0:0:0:
488,212,67081,1,0,1:0:0:0:
420,140,67387,2,0,P|377:124|333:125,1,90,0|0,3:0|1:0,0:0:0:0:
256,184,67999,1,2,3:2:0:0:
179,125,68305,1,0,1:0:0:0:
99,183,68611,6,0,P|84:98|141:32,1,180,4|2,3:2|0:0,0:0:0:0:
240,52,69530,1,0,1:0:0:0:
336,32,69836,2,0,B|416:136|344:239|344:239|356:264|356:282,1,270,0|0,3:0|1:0,0:0:0:0:
280,344,71060,6,0,L|472:340,1,180,0|2,3:0|0:0,0:0:0:0:
508,252,71979,1,0,1:0:0:0:
432,188,72285,2,0,P|420:144|435:98,1,90,0|0,3:0|1:0,0:0:0:0:
484,16,72897,2,0,L|364:24,1,90,2|0,3:2|1:0,0:0:0:0:
316,84,73509,6,0,P|232:116|140:84,1,180,0|2,3:0|0:0,0:0:0:0:
76,24,74428,1,0,1:0:0:0:
12,100,74734,2,0,L|16:376,1,270,0|0,3:0|1:0,0:0:0:0:
104,324,75958,6,0,L|101:144,1,180,2|2,0:0|0:0,0:0:0:0:
162,64,76877,1,0,1:0:0:0:
236,128,77183,2,0,P|338:113|252:36,1,270,0|0,3:0|3:0,0:0:0:0:
162,64,78407,6,0,P|96:77|33:56,2,135,4|0|0,3:2|3:0|1:0,0:0:0:0:
257,34,79631,2,0,P|322:20|385:41,1,135,0|0,3:0|3:0,0:0:0:0:
452,112,80397,2,0,L|452:160,1,45,0|0,3:0|1:0,0:0:0:0:
396,240,80856,6,0,P|419:302|410:368,2,135,0|0|0,3:0|3:0|1:0,0:0:0:0:
296,240,82080,2,0,P|272:302|281:368,2,135,0|0|0,3:0|3:0|1:0,0:0:0:0:
348,156,83305,6,0,B|208:160,2,135,0|0|0,3:0|3:0|1:0,0:0:0:0:
348,56,84529,2,0,B|213:59,1,135,0|0,3:0|3:0,0:0:0:0:
124,108,85295,2,0,L|59:110,1,45,0|0,3:0|1:0,0:0:0:0:
108,204,85754,6,0,P|124:268|106:333,2,135,0|0|0,3:0|3:0|1:0,0:0:0:0:
20,160,86979,2,0,L|199:155,1,180,0|0,3:0|3:0,0:0:0:0:
256,236,87897,1,0,3:0:0:0:
311,155,88203,6,0,P|328:90|304:28,2,135,0|0|0,3:0|3:0|1:0,0:0:0:0:
256,236,89427,2,0,L|256:340,1,90,0|0,3:0|1:0,0:0:0:0:
352,340,90040,2,0,L|352:250,1,90,2|0,0:0|1:0,0:0:0:0:
312,155,90652,6,0,P|380:164|444:124,2,135,0|0|0,3:0|3:0|1:0,0:0:0:0:
224,108,91876,2,0,P|197:44|131:9,2,135,0|0|0,3:0|3:0|1:0,0:0:0:0:
184,200,93101,6,0,L|16:192,2,135,0|0|0,3:0|3:0|1:0,0:0:0:0:
272,244,94325,2,0,P|259:286|212:319,1,90,0|0,3:0|1:0,0:0:0:0:
130,338,94937,2,0,P|87:325|54:278,1,90,2|0,0:0|1:0,0:0:0:0:
49,193,95550,6,0,L|48:32,2,135,0|0|0,3:0|3:0|1:0,0:0:0:0:
140,236,96774,2,0,P|184:216|240:216,1,90,2|2,0:0|0:0,0:0:0:0:
324,228,97386,2,0,P|369:244|408:284,1,90,2|2,3:2|3:2,0:0:0:0:
452,356,97999,6,0,L|448:176,1,180,4|2,3:2|0:0,0:0:0:0:
444,76,98918,1,0,1:0:0:0:
360,128,99223,2,0,P|272:148|184:104,1,180,0|2,3:0|0:0,0:0:0:0:
128,38,100142,1,0,1:0:0:0:
96,132,100448,6,0,L|88:344,1,180,0|2,3:0|0:0,0:0:0:0:
272,236,101673,2,0,L|268:146,2,90,0|0|0,3:0|1:0|3:0,0:0:0:0:
340,308,102591,1,0,1:0:0:0:
248,348,102897,6,0,P|175:298|159:211,1,180,0|2,3:0|0:0,0:0:0:0:
328,104,104121,2,0,P|400:153|416:240,1,180,0|0,3:0|0:0,0:0:0:0:
340,308,105040,1,0,1:0:0:0:
256,256,105346,6,0,L|256:128,1,90,0|0,3:0|1:0,0:0:0:0:
96,48,106265,1,0,1:0:0:0:
28,120,106571,2,0,P|16:160|38:222,2,90,0|0|0,3:0|1:0|1:0,0:0:0:0:
116,164,107489,1,0,1:0:0:0:
112,264,107795,6,0,P|180:240|208:127,1,180,2|2,3:2|0:0,0:0:0:0:
256,56,108714,1,0,1:0:0:0:
298,144,109019,2,0,P|320:228|400:264,1,180,0|2,3:0|0:0,0:0:0:0:
500,272,109938,1,0,1:0:0:0:
440,352,110244,6,0,L|236:348,1,180,0|2,3:0|0:0,0:0:0:0:
84,260,111468,2,0,L|263:263,1,180,0|0,3:0|3:0,0:0:0:0:
364,267,112387,1,0,1:0:0:0:
443,208,112693,6,0,P|477:126|440:47,1,180,0|2,3:0|0:0,0:0:0:0:
264,129,113918,2,0,L|264:269,2,135,0|2|0,3:0|0:0|1:0,0:0:0:0:
179,76,115142,6,0,P|146:104|131:146,1,90,0|0,3:0|1:0,0:0:0:0:
131,246,115754,2,0,P|145:287|179:316,1,90,0|0,3:0|1:0,0:0:0:0:
272,352,116366,2,0,B|310:328|358:335|358:335|380:288|423:278|423:278|400:228|416:156,1,270,2|0,0:0|3:0,0:0:0:0:
452,100,117591,6,0,P|396:156|292:144,1,180,4|0,3:1|3:0,0:0:0:0:
256,60,118510,1,0,1:0:0:0:
211,150,118816,2,0,P|199:194|239:266,1,90,0|0,3:0|1:0,0:0:0:0:
116,268,119427,2,0,P|138:307|217:330,1,90,0|0,3:0|1:0,0:0:0:0:
272,352,120040,6,0,L|492:348,1,180,0|2,3:0|0:0,0:0:0:0:
488,256,120958,1,0,1:0:0:0:
389,258,121264,2,0,L|299:259,2,90,0|0|0,3:0|1:0|3:0,0:0:0:0:
437,171,122183,1,0,1:0:0:0:
400,80,122489,6,0,P|306:93|280:184,1,180,0|0,3:0|3:0,0:0:0:0:
299,259,123407,1,0,1:0:0:0:
224,320,123714,2,0,L|36:312,1,180,0|0,3:0|0:0,0:0:0:0:
92,228,124632,1,0,1:0:0:0:
140,144,124938,6,0,L|136:16,1,90,0|0,3:0|1:0,0:0:0:0:
232,76,125550,2,0,L|234:165,1,90,0|0,3:0|1:0,0:0:0:0:
256,263,126163,2,0,P|296:245|324:210,2,90,0|0|0,3:0|1:0|1:0,0:0:0:0:
162,233,127081,1,0,1:0:0:0:
235,166,127387,6,0,L|419:158,1,180,4|0,3:2|3:0,0:0:0:0:
508,192,128306,1,0,1:0:0:0:
428,248,128612,2,0,L|338:251,1,90,0|0,3:0|1:0,0:0:0:0:
260,312,129223,2,0,L|170:315,1,90,0|0,3:0|1:0,0:0:0:0:
94,250,129836,6,0,P|61:168|91:85,1,180,0|2,3:0|0:0,0:0:0:0:
170,26,130754,1,0,1:0:0:0:
248,85,131060,2,0,P|278:167|245:249,1,180,0|0,3:0|3:0,0:0:0:0:
170,315,131979,1,0,1:0:0:0:
264,348,132285,6,0,L|460:336,1,180,0|0,3:0|3:0,0:0:0:0:
480,244,133203,1,0,1:0:0:0:
380,240,133510,2,0,L|245:248,2,135,0|0|0,3:0|0:0|1:0,0:0:0:0:
434,156,134734,6,0,P|406:108|358:84,1,90,0|0,3:0|1:0,0:0:0:0:
284,64,135346,2,0,P|228:59|181:84,1,90,0|0,3:0|1:0,0:0:0:0:
132,148,135959,2,0,B|136:238|136:238|56:199|56:199|60:320,1,270,2|0,3:2|0:0,0:0:0:0:
131,356,137182,6,0,P|263:353|355:259,1,270,2|2,0:0|0:0,0:0:0:0:
355,160,138407,2,0,P|263:65|131:63,1,270,2|2,0:0|0:0,0:0:0:0:
84,152,139631,2,0,P|175:246|307:248,1,270,2|2,0:0|0:0,0:0:0:0:
355,160,140856,2,0,B|411:37|411:37|467:160,1,270,2|2,0:0|0:0,0:0:0:0:
412,244,142080,5,2,0:0:0:0:
256,192,142233,12,0,146978,0:0:0:0:
