osu file format v14

[General]
AudioFilename: audio.mp3
AudioLeadIn: 0
PreviewTime: 19631
Countdown: 1
SampleSet: Normal
StackLeniency: 0.7
Mode: 1
LetterboxInBreaks: 0
WidescreenStoryboard: 0

[Editor]
Bookmarks: 39223,78407
DistanceSpacing: 0.8
BeatDivisor: 4
GridSize: 16
TimelineZoom: 2.7

[Metadata]
Title:Help
TitleUnicode:Help
Artist:Thaehan
ArtistUnicode:Thaehan
Creator:DarkVortex
Version:Inner Oni
Source:
Tags:Ayyri
BeatmapID:1512689
BeatmapSetID:715912

[Difficulty]
HPDrainRate:5
CircleSize:5
OverallDifficulty:6
ApproachRate:5
SliderMultiplier:1.4
SliderTickRate:1

[Events]
//Background and Video events
0,0,"anime-girl-piano-train-angel-wings-birds-artwork-train.jpg",0,-20
//Break Periods
//Storyboard Layer 0 (Background)
//Storyboard Layer 1 (Fail)
//Storyboard Layer 2 (Pass)
//Storyboard Layer 3 (Foreground)
//Storyboard Sound Samples

[TimingPoints]
40,306.122448979592,4,1,0,30,1,0
40,-133.333333333333,4,1,0,30,0,0
18407,-119.047619047619,4,1,0,70,0,0
18560,-116.279069767442,4,1,0,70,0,0
18713,-113.636363636364,4,1,0,70,0,0
18866,-111.111111111111,4,1,0,70,0,0
19019,-108.695652173913,4,1,0,70,0,0
19172,-106.382978723404,4,1,0,70,0,0
19325,-104.166666666667,4,1,0,70,0,0
19402,-103.092783505155,4,1,0,70,0,0
19478,-102.040816326531,4,1,0,70,0,0
19555,-101.010101010101,4,1,0,70,0,0
19631,-100,4,1,0,80,0,0
57591,-99.009900990099,4,1,0,80,0,0
57897,-98.0392156862745,4,1,0,80,0,0
58203,-97.0873786407767,4,1,0,80,0,0
58509,-96.1538461538461,4,1,0,80,0,0
58815,-95.2380952380952,4,1,0,80,0,1
75958,-96.1538461538461,4,1,0,80,0,0
76264,-97.0873786407767,4,1,0,80,0,0
76570,-98.0392156862745,4,1,0,80,0,0
76876,-99.009900990099,4,1,0,80,0,0
77182,-100,4,1,0,80,0,0
117284,-98.0392156862745,4,1,0,80,0,0
117361,-96.1538461538461,4,1,0,80,0,0
117437,-94.3396226415094,4,1,0,80,0,0
117514,-92.5925925925926,4,1,0,80,0,0
117591,-90.9090909090909,4,1,0,80,0,1
135958,-90.9090909090909,4,1,0,80,0,0
137182,-100,4,1,0,30,0,0
140856,-83.3333333333333,4,1,0,80,0,0

[HitObjects]
256,192,40,5,0,0:0:0:0:
256,200,346,1,0,0:0:0:0:
248,192,652,1,8,0:0:0:0:
248,192,958,1,8,0:0:0:0:
248,192,1111,1,8,0:0:0:0:
248,192,1264,1,0,0:0:0:0:
248,192,2182,1,0,0:0:0:0:
248,192,2488,1,0,0:0:0:0:
248,192,3101,1,8,0:0:0:0:
248,192,3713,1,0,0:0:0:0:
248,192,4478,1,8,0:0:0:0:
248,192,4631,1,0,0:0:0:0:
248,192,4784,1,0,0:0:0:0:
248,192,4937,1,0,0:0:0:0:
248,192,5244,1,0,0:0:0:0:
248,192,5550,1,8,0:0:0:0:
240,192,6162,1,0,0:0:0:0:
248,192,6927,1,8,0:0:0:0:
248,192,7080,1,8,0:0:0:0:
248,192,7233,1,0,0:0:0:0:
248,192,7386,1,8,0:0:0:0:
248,192,7693,1,0,0:0:0:0:
248,192,7846,1,0,0:0:0:0:
248,192,7999,1,8,0:0:0:0:
248,192,8305,1,0,0:0:0:0:
248,192,8611,1,8,0:0:0:0:
248,192,8764,1,8,0:0:0:0:
248,192,8917,1,0,0:0:0:0:
248,192,9070,1,0,0:0:0:0:
248,192,9223,1,8,0:0:0:0:
248,192,9376,1,0,0:0:0:0:
248,192,9529,1,8,0:0:0:0:
248,192,9682,1,8,0:0:0:0:
248,192,9835,1,0,0:0:0:0:
248,192,10142,1,0,0:0:0:0:
248,192,10448,1,8,0:0:0:0:
248,192,10754,1,8,0:0:0:0:
248,192,11060,1,8,0:0:0:0:
248,192,11825,1,0,0:0:0:0:
240,192,11978,1,8,0:0:0:0:
248,192,12131,1,8,0:0:0:0:
248,192,12284,1,0,0:0:0:0:
248,192,12591,1,0,0:0:0:0:
248,192,12897,1,8,0:0:0:0:
248,192,13203,1,0,0:0:0:0:
248,192,13509,1,8,0:0:0:0:
248,192,14274,1,8,0:0:0:0:
248,192,14427,1,8,0:0:0:0:
240,192,14580,1,8,0:0:0:0:
248,192,14733,1,0,0:0:0:0:
248,192,15040,1,0,0:0:0:0:
248,192,15346,1,8,0:0:0:0:
248,192,15652,1,0,0:0:0:0:
248,192,15958,1,8,0:0:0:0:
248,192,16417,1,8,0:0:0:0:
248,192,16570,1,0,0:0:0:0:
248,192,16876,1,0,0:0:0:0:
248,192,17182,1,8,0:0:0:0:
248,192,18407,1,0,0:0:0:0:
248,192,18560,1,0,0:0:0:0:
248,192,18713,1,0,0:0:0:0:
248,192,18866,1,0,0:0:0:0:
248,192,19019,1,8,0:0:0:0:
248,192,19172,1,8,0:0:0:0:
248,192,19325,1,8,0:0:0:0:
248,192,19402,1,8,0:0:0:0:
248,192,19478,1,8,0:0:0:0:
248,192,19631,1,4,0:0:0:0:
248,192,19784,1,0,0:0:0:0:
248,192,19937,1,8,0:0:0:0:
248,192,20091,1,0,0:0:0:0:
248,192,20167,1,0,0:0:0:0:
248,192,20244,1,8,0:0:0:0:
248,192,20397,1,0,0:0:0:0:
248,192,20550,1,8,0:0:0:0:
248,192,20626,1,0,0:0:0:0:
248,192,20703,1,8,0:0:0:0:
248,192,20779,1,8,0:0:0:0:
248,192,20856,1,0,0:0:0:0:
248,192,21009,1,0,0:0:0:0:
248,192,21162,1,8,0:0:0:0:
248,192,21315,1,0,0:0:0:0:
248,192,21392,1,0,0:0:0:0:
248,192,21468,1,0,0:0:0:0:
248,192,21621,1,0,0:0:0:0:
248,192,21774,1,8,0:0:0:0:
248,192,22080,1,0,0:0:0:0:
248,192,22233,1,0,0:0:0:0:
248,192,22386,1,8,0:0:0:0:
248,192,22540,1,0,0:0:0:0:
248,192,22616,1,0,0:0:0:0:
248,192,22693,1,8,0:0:0:0:
248,192,22846,1,0,0:0:0:0:
248,192,22999,1,8,0:0:0:0:
248,192,23152,1,8,0:0:0:0:
248,192,23305,1,0,0:0:0:0:
248,192,23611,1,8,0:0:0:0:
248,192,23917,1,0,0:0:0:0:
248,192,24070,1,0,0:0:0:0:
248,192,24223,1,8,0:0:0:0:
248,192,24376,1,8,0:0:0:0:
248,192,24453,1,8,0:0:0:0:
248,192,24529,1,0,0:0:0:0:
248,192,24682,1,0,0:0:0:0:
248,192,24835,1,8,0:0:0:0:
248,192,24988,1,0,0:0:0:0:
248,192,25065,1,0,0:0:0:0:
248,192,25142,1,8,0:0:0:0:
248,192,25295,1,0,0:0:0:0:
248,192,25448,1,8,0:0:0:0:
248,192,25601,1,8,0:0:0:0:
248,192,25677,1,8,0:0:0:0:
248,192,25754,1,0,0:0:0:0:
248,192,25907,1,0,0:0:0:0:
248,192,26060,1,8,0:0:0:0:
248,192,26213,1,8,0:0:0:0:
248,192,26519,1,8,0:0:0:0:
248,192,26672,1,8,0:0:0:0:
248,192,26825,1,8,0:0:0:0:
248,192,26978,1,0,0:0:0:0:
248,192,27055,1,0,0:0:0:0:
248,192,27131,1,0,0:0:0:0:
248,192,27208,1,0,0:0:0:0:
248,192,27284,1,8,0:0:0:0:
248,192,27361,1,0,0:0:0:0:
248,192,27437,1,8,0:0:0:0:
248,192,27591,1,0,0:0:0:0:
248,192,27744,1,0,0:0:0:0:
248,192,27897,1,8,0:0:0:0:
248,192,27973,1,0,0:0:0:0:
248,192,28050,1,8,0:0:0:0:
248,192,28203,1,8,0:0:0:0:
256,192,28279,1,0,0:0:0:0:
248,192,28356,1,8,0:0:0:0:
248,192,28432,1,8,0:0:0:0:
248,192,28509,1,0,0:0:0:0:
248,192,28662,1,0,0:0:0:0:
248,192,28738,1,8,0:0:0:0:
248,192,28815,1,8,0:0:0:0:
248,192,28968,1,0,0:0:0:0:
248,192,29045,1,0,0:0:0:0:
248,192,29121,1,8,0:0:0:0:
248,192,29274,1,8,0:0:0:0:
248,192,29427,1,4,0:0:0:0:
256,192,29733,1,8,0:0:0:0:
256,192,29886,1,0,0:0:0:0:
256,192,29963,1,0,0:0:0:0:
256,192,30040,1,8,0:0:0:0:
256,192,30193,1,0,0:0:0:0:
256,192,30346,1,8,0:0:0:0:
256,192,30499,1,8,0:0:0:0:
256,192,30652,1,0,0:0:0:0:
256,192,30958,1,8,0:0:0:0:
256,192,31111,1,8,0:0:0:0:
256,192,31187,1,0,0:0:0:0:
256,192,31264,1,0,0:0:0:0:
256,192,31417,1,0,0:0:0:0:
256,192,31570,1,8,0:0:0:0:
256,192,31647,1,0,0:0:0:0:
256,192,31723,1,8,0:0:0:0:
256,192,31876,1,0,0:0:0:0:
256,192,32029,1,0,0:0:0:0:
256,192,32182,1,8,0:0:0:0:
256,192,32335,1,0,0:0:0:0:
256,192,32412,1,0,0:0:0:0:
256,192,32488,1,8,0:0:0:0:
256,192,32642,1,0,0:0:0:0:
256,192,32795,1,8,0:0:0:0:
256,192,32948,1,8,0:0:0:0:
256,192,33024,1,8,0:0:0:0:
256,192,33101,1,0,0:0:0:0:
256,192,33407,1,8,0:0:0:0:
256,192,33560,1,0,0:0:0:0:
256,192,33636,1,0,0:0:0:0:
256,192,33713,1,0,0:0:0:0:
256,192,33866,1,0,0:0:0:0:
256,192,34019,1,8,0:0:0:0:
256,192,34172,1,8,0:0:0:0:
256,192,34249,1,8,0:0:0:0:
256,192,34325,1,0,0:0:0:0:
256,192,34478,1,0,0:0:0:0:
256,192,34631,1,8,0:0:0:0:
256,192,34937,1,8,0:0:0:0:
256,192,35091,1,0,0:0:0:0:
256,192,35244,1,8,0:0:0:0:
256,192,35397,1,8,0:0:0:0:
256,192,35473,1,8,0:0:0:0:
256,192,35550,1,0,0:0:0:0:
256,192,35703,1,0,0:0:0:0:
256,192,35856,1,8,0:0:0:0:
256,192,36009,1,8,0:0:0:0:
256,192,36085,1,8,0:0:0:0:
256,192,36162,1,0,0:0:0:0:
256,192,36315,1,0,0:0:0:0:
256,192,36392,1,0,0:0:0:0:
256,192,36468,1,8,0:0:0:0:
256,192,36621,1,0,0:0:0:0:
256,192,36774,1,8,0:0:0:0:
256,192,36851,1,0,0:0:0:0:
256,192,36927,1,8,0:0:0:0:
256,192,37004,1,0,0:0:0:0:
256,192,37080,1,8,0:0:0:0:
256,192,37233,1,0,0:0:0:0:
256,192,37310,1,0,0:0:0:0:
256,192,37386,1,8,0:0:0:0:
256,192,37463,1,0,0:0:0:0:
256,192,37540,1,8,0:0:0:0:
256,192,37616,1,8,0:0:0:0:
256,192,37693,1,0,0:0:0:0:
256,192,37769,1,0,0:0:0:0:
256,192,37846,1,8,0:0:0:0:
256,192,37999,1,0,0:0:0:0:
256,192,38152,1,0,0:0:0:0:
256,192,38305,1,0,0:0:0:0:
256,192,38611,1,8,0:0:0:0:
256,192,38764,1,8,0:0:0:0:
256,192,38917,1,0,0:0:0:0:
256,192,38994,1,0,0:0:0:0:
256,192,39070,1,0,0:0:0:0:
256,192,39223,1,4,0:0:0:0:
256,192,39376,1,8,0:0:0:0:
256,192,39529,1,8,0:0:0:0:
256,192,39682,1,0,0:0:0:0:
256,192,39759,1,0,0:0:0:0:
256,192,39835,1,8,0:0:0:0:
256,192,39988,1,0,0:0:0:0:
256,192,40142,1,8,0:0:0:0:
256,192,40295,1,8,0:0:0:0:
256,192,40448,1,0,0:0:0:0:
256,192,40524,1,0,0:0:0:0:
256,192,40601,1,8,0:0:0:0:
256,192,40754,1,8,0:0:0:0:
256,192,40907,1,0,0:0:0:0:
256,192,40983,1,0,0:0:0:0:
256,192,41060,1,8,0:0:0:0:
256,192,41213,1,0,0:0:0:0:
256,192,41290,1,0,0:0:0:0:
256,192,41366,1,8,0:0:0:0:
256,192,41443,1,0,0:0:0:0:
256,192,41519,1,8,0:0:0:0:
256,192,41596,1,8,0:0:0:0:
256,192,41672,1,0,0:0:0:0:
256,192,41749,1,0,0:0:0:0:
256,192,41825,1,0,0:0:0:0:
256,192,41978,1,8,0:0:0:0:
256,192,42131,1,0,0:0:0:0:
256,192,42208,1,0,0:0:0:0:
256,192,42284,1,0,0:0:0:0:
256,192,42437,1,0,0:0:0:0:
256,192,42591,1,8,0:0:0:0:
256,192,42744,1,8,0:0:0:0:
256,192,42897,1,0,0:0:0:0:
256,192,42973,1,0,0:0:0:0:
256,192,43050,1,8,0:0:0:0:
256,192,43203,1,8,0:0:0:0:
256,192,43356,1,0,0:0:0:0:
256,192,43432,1,0,0:0:0:0:
256,192,43509,1,0,0:0:0:0:
256,192,43662,1,0,0:0:0:0:
256,192,43815,1,8,0:0:0:0:
256,192,43968,1,8,0:0:0:0:
256,192,44121,1,0,0:0:0:0:
256,192,44198,1,0,0:0:0:0:
256,192,44274,1,8,0:0:0:0:
256,192,44427,1,8,0:0:0:0:
256,192,44580,1,0,0:0:0:0:
256,192,44657,1,0,0:0:0:0:
256,192,44733,1,8,0:0:0:0:
256,192,44886,1,0,0:0:0:0:
256,192,45040,1,8,0:0:0:0:
256,192,45193,1,8,0:0:0:0:
256,192,45346,1,0,0:0:0:0:
256,192,45422,1,0,0:0:0:0:
256,192,45499,1,8,0:0:0:0:
256,192,45652,1,8,0:0:0:0:
256,192,45805,1,0,0:0:0:0:
256,192,45881,1,0,0:0:0:0:
256,192,45958,1,8,0:0:0:0:
256,192,46111,1,0,0:0:0:0:
256,192,46187,1,0,0:0:0:0:
256,192,46264,1,8,0:0:0:0:
256,192,46341,1,0,0:0:0:0:
256,192,46417,1,8,0:0:0:0:
256,192,46570,1,8,0:0:0:0:
256,192,46647,1,8,0:0:0:0:
256,192,46723,1,0,0:0:0:0:
240,192,46876,1,8,0:0:0:0:
256,192,47029,1,0,0:0:0:0:
256,192,47106,1,0,0:0:0:0:
256,192,47182,1,0,0:0:0:0:
256,192,47335,1,0,0:0:0:0:
256,192,47488,1,8,0:0:0:0:
256,192,47642,1,8,0:0:0:0:
256,192,47795,1,0,0:0:0:0:
256,192,47871,1,0,0:0:0:0:
256,192,47948,1,8,0:0:0:0:
256,192,48101,1,8,0:0:0:0:
256,192,48254,1,8,0:0:0:0:
256,192,48330,1,0,0:0:0:0:
256,192,48407,1,0,0:0:0:0:
256,192,48560,1,8,0:0:0:0:
256,192,48713,1,0,0:0:0:0:
256,192,48790,1,0,0:0:0:0:
256,192,48866,1,0,0:0:0:0:
256,192,49019,1,12,0:0:0:0:
256,192,49172,1,8,0:0:0:0:
256,192,49325,1,8,0:0:0:0:
256,192,49478,1,0,0:0:0:0:
256,192,49555,1,0,0:0:0:0:
256,192,49631,1,8,0:0:0:0:
256,192,49784,1,0,0:0:0:0:
256,192,49937,1,8,0:0:0:0:
256,192,50091,1,8,0:0:0:0:
256,192,50244,1,0,0:0:0:0:
256,192,50397,1,8,0:0:0:0:
256,192,50550,1,8,0:0:0:0:
256,192,50703,1,8,0:0:0:0:
256,192,50856,1,8,0:0:0:0:
256,192,51009,1,0,0:0:0:0:
256,192,51162,1,8,0:0:0:0:
256,192,51315,1,8,0:0:0:0:
256,192,51468,1,0,0:0:0:0:
256,192,51545,1,0,0:0:0:0:
256,192,51621,1,8,0:0:0:0:
256,192,51774,1,8,0:0:0:0:
256,192,51927,1,0,0:0:0:0:
256,192,52004,1,0,0:0:0:0:
256,192,52080,1,8,0:0:0:0:
256,192,52233,1,0,0:0:0:0:
256,192,52386,1,8,0:0:0:0:
256,192,52463,1,8,0:0:0:0:
256,192,52540,1,0,0:0:0:0:
256,192,52693,1,0,0:0:0:0:
256,192,52769,1,0,0:0:0:0:
256,192,52846,1,8,0:0:0:0:
256,192,52999,1,8,0:0:0:0:
256,192,53152,1,0,0:0:0:0:
256,192,53228,1,0,0:0:0:0:
256,192,53305,1,8,0:0:0:0:
256,192,53458,1,0,0:0:0:0:
256,192,53611,1,8,0:0:0:0:
256,192,53764,1,0,0:0:0:0:
256,192,53917,1,0,0:0:0:0:
256,192,53994,1,0,0:0:0:0:
256,192,54070,1,8,0:0:0:0:
256,192,54223,1,8,0:0:0:0:
256,192,54376,1,0,0:0:0:0:
256,192,54453,1,0,0:0:0:0:
256,192,54529,1,8,0:0:0:0:
256,192,54682,1,0,0:0:0:0:
256,192,54835,1,8,0:0:0:0:
256,192,54988,1,8,0:0:0:0:
256,192,55142,1,0,0:0:0:0:
256,192,55295,1,8,0:0:0:0:
256,192,55448,1,8,0:0:0:0:
256,192,55601,1,8,0:0:0:0:
256,192,55754,1,8,0:0:0:0:
256,192,55907,1,0,0:0:0:0:
256,192,56060,1,8,0:0:0:0:
256,192,56213,1,8,0:0:0:0:
256,192,56366,1,0,0:0:0:0:
256,192,56443,1,0,0:0:0:0:
256,192,56519,1,8,0:0:0:0:
256,192,56672,1,8,0:0:0:0:
256,192,56825,1,0,0:0:0:0:
256,192,56902,1,0,0:0:0:0:
256,192,56978,1,8,0:0:0:0:
256,192,57131,1,0,0:0:0:0:
256,192,57284,1,8,0:0:0:0:
256,192,57437,1,8,0:0:0:0:
256,192,57591,1,0,0:0:0:0:
256,192,57744,1,0,0:0:0:0:
256,192,57897,1,0,0:0:0:0:
256,192,58050,1,0,0:0:0:0:
256,192,58126,1,0,0:0:0:0:
256,192,58203,1,8,0:0:0:0:
256,192,58356,1,8,0:0:0:0:
256,192,58509,1,8,0:0:0:0:
256,192,58585,1,8,0:0:0:0:
256,192,58662,1,0,0:0:0:0:
256,192,58738,1,0,0:0:0:0:
256,192,58815,1,12,0:0:0:0:
256,192,59121,1,0,0:0:0:0:
256,192,59198,1,8,0:0:0:0:
256,192,59274,1,0,0:0:0:0:
256,192,59351,1,0,0:0:0:0:
256,192,59427,1,8,0:0:0:0:
256,192,59504,1,8,0:0:0:0:
256,192,59580,1,0,0:0:0:0:
256,192,59657,1,0,0:0:0:0:
256,192,59733,1,8,0:0:0:0:
256,192,59810,1,0,0:0:0:0:
256,192,59886,1,8,0:0:0:0:
256,192,59963,1,8,0:0:0:0:
256,192,60040,1,0,0:0:0:0:
256,192,60193,1,0,0:0:0:0:
256,192,60346,1,8,0:0:0:0:
256,192,60499,1,8,0:0:0:0:
256,192,60575,1,8,0:0:0:0:
256,192,60652,1,0,0:0:0:0:
256,192,60728,1,8,0:0:0:0:
256,192,60805,1,0,0:0:0:0:
256,192,60881,1,0,0:0:0:0:
256,192,60958,1,8,0:0:0:0:
256,192,61111,1,8,0:0:0:0:
256,192,61264,1,0,0:0:0:0:
256,192,61417,1,0,0:0:0:0:
256,192,61570,1,8,0:0:0:0:
256,192,61723,1,0,0:0:0:0:
256,192,61800,1,0,0:0:0:0:
256,192,61876,1,8,0:0:0:0:
256,192,61953,1,8,0:0:0:0:
256,192,62029,1,0,0:0:0:0:
256,192,62106,1,0,0:0:0:0:
256,192,62182,1,8,0:0:0:0:
256,192,62259,1,0,0:0:0:0:
256,192,62335,1,8,0:0:0:0:
256,192,62412,1,0,0:0:0:0:
256,192,62488,1,8,0:0:0:0:
256,192,62565,1,8,0:0:0:0:
256,192,62642,1,0,0:0:0:0:
256,192,62718,1,0,0:0:0:0:
256,192,62795,1,8,0:0:0:0:
256,192,62871,1,0,0:0:0:0:
256,192,62948,1,8,0:0:0:0:
256,192,63024,1,8,0:0:0:0:
256,192,63101,1,0,0:0:0:0:
256,192,63254,1,0,0:0:0:0:
256,192,63407,1,8,0:0:0:0:
240,192,63560,1,0,0:0:0:0:
256,192,63713,1,0,0:0:0:0:
256,192,63866,1,0,0:0:0:0:
256,192,64019,1,8,0:0:0:0:
256,192,64172,1,0,0:0:0:0:
256,192,64249,1,8,0:0:0:0:
256,192,64325,1,0,0:0:0:0:
240,192,64478,1,0,0:0:0:0:
240,192,64555,1,0,0:0:0:0:
240,192,64631,1,8,0:0:0:0:
256,192,64784,1,0,0:0:0:0:
256,192,64861,1,8,0:0:0:0:
256,192,64937,1,8,0:0:0:0:
256,192,65014,1,8,0:0:0:0:
256,192,65091,1,0,0:0:0:0:
256,192,65167,1,0,0:0:0:0:
256,192,65244,1,8,0:0:0:0:
256,192,65320,1,8,0:0:0:0:
256,192,65397,1,0,0:0:0:0:
256,192,65473,1,0,0:0:0:0:
256,192,65550,1,8,0:0:0:0:
256,192,65703,1,0,0:0:0:0:
256,192,65856,1,8,0:0:0:0:
256,192,66009,1,0,0:0:0:0:
256,192,66162,1,8,0:0:0:0:
256,192,66238,1,8,0:0:0:0:
256,192,66315,1,0,0:0:0:0:
256,192,66392,1,0,0:0:0:0:
256,192,66468,1,8,0:0:0:0:
256,192,66545,1,8,0:0:0:0:
256,192,66621,1,0,0:0:0:0:
256,192,66698,1,8,0:0:0:0:
256,192,66774,1,0,0:0:0:0:
256,192,66927,1,0,0:0:0:0:
256,192,67080,1,8,0:0:0:0:
256,192,67233,1,0,0:0:0:0:
256,192,67386,1,8,0:0:0:0:
256,192,67463,1,0,0:0:0:0:
256,192,67540,1,0,0:0:0:0:
256,192,67616,1,0,0:0:0:0:
256,192,67693,1,8,0:0:0:0:
256,192,67769,1,0,0:0:0:0:
256,192,67846,1,0,0:0:0:0:
256,192,67922,1,8,0:0:0:0:
256,192,67999,1,0,0:0:0:0:
256,192,68152,1,0,0:0:0:0:
256,192,68305,1,8,0:0:0:0:
256,192,68458,1,0,0:0:0:0:
256,192,68534,1,0,0:0:0:0:
256,192,68611,1,12,0:0:0:0:
256,192,68917,1,0,0:0:0:0:
256,192,68994,1,8,0:0:0:0:
256,192,69070,1,0,0:0:0:0:
256,192,69147,1,0,0:0:0:0:
256,192,69223,1,8,0:0:0:0:
256,192,69300,1,8,0:0:0:0:
256,192,69376,1,0,0:0:0:0:
256,192,69453,1,8,0:0:0:0:
256,192,69529,1,8,0:0:0:0:
256,192,69606,1,0,0:0:0:0:
256,192,69682,1,8,0:0:0:0:
256,192,69759,1,8,0:0:0:0:
256,192,69835,1,0,0:0:0:0:
256,192,69988,1,0,0:0:0:0:
256,192,70142,1,8,0:0:0:0:
256,192,70295,1,8,0:0:0:0:
256,192,70371,1,8,0:0:0:0:
256,192,70448,1,0,0:0:0:0:
256,192,70524,1,8,0:0:0:0:
256,192,70601,1,0,0:0:0:0:
256,192,70677,1,0,0:0:0:0:
256,192,70754,1,8,0:0:0:0:
256,192,70907,1,0,0:0:0:0:
256,192,70983,1,0,0:0:0:0:
256,192,71060,1,0,0:0:0:0:
256,192,71213,1,0,0:0:0:0:
256,192,71366,1,8,0:0:0:0:
256,192,71443,1,8,0:0:0:0:
256,192,71519,1,0,0:0:0:0:
256,192,71596,1,8,0:0:0:0:
256,192,71672,1,0,0:0:0:0:
256,192,71825,1,0,0:0:0:0:
256,192,71978,1,8,0:0:0:0:
240,192,72131,1,0,0:0:0:0:
256,192,72208,1,0,0:0:0:0:
256,192,72284,1,8,0:0:0:0:
256,192,72361,1,8,0:0:0:0:
256,192,72437,1,0,0:0:0:0:
256,192,72514,1,8,0:0:0:0:
256,192,72591,1,8,0:0:0:0:
256,192,72667,1,0,0:0:0:0:
256,192,72744,1,8,0:0:0:0:
256,192,72820,1,8,0:0:0:0:
256,192,72897,1,0,0:0:0:0:
256,192,73050,1,0,0:0:0:0:
256,192,73203,1,8,0:0:0:0:
256,192,73356,1,0,0:0:0:0:
256,192,73432,1,0,0:0:0:0:
256,192,73509,1,0,0:0:0:0:
256,192,73662,1,0,0:0:0:0:
256,192,73815,1,8,0:0:0:0:
256,192,73892,1,8,0:0:0:0:
256,192,73968,1,8,0:0:0:0:
256,192,74121,1,0,0:0:0:0:
256,192,74198,1,8,0:0:0:0:
256,192,74274,1,0,0:0:0:0:
256,192,74351,1,0,0:0:0:0:
256,192,74427,1,8,0:0:0:0:
256,192,74504,1,0,0:0:0:0:
256,192,74580,1,8,0:0:0:0:
256,192,74657,1,0,0:0:0:0:
256,192,74733,1,8,0:0:0:0:
256,192,74810,1,8,0:0:0:0:
256,192,74886,1,8,0:0:0:0:
256,192,74963,1,0,0:0:0:0:
256,192,75040,1,8,0:0:0:0:
256,192,75116,1,8,0:0:0:0:
256,192,75193,1,0,0:0:0:0:
256,192,75269,1,0,0:0:0:0:
256,192,75346,1,8,0:0:0:0:
256,192,75499,1,0,0:0:0:0:
256,192,75652,1,8,0:0:0:0:
256,192,75805,1,0,0:0:0:0:
256,192,75958,1,8,0:0:0:0:
256,192,76034,1,8,0:0:0:0:
256,192,76111,1,0,0:0:0:0:
256,192,76264,1,8,0:0:0:0:
256,192,76341,1,8,0:0:0:0:
256,192,76417,1,0,0:0:0:0:
256,192,76570,1,8,0:0:0:0:
256,192,76723,1,0,0:0:0:0:
256,192,76876,1,8,0:0:0:0:
256,192,77182,1,8,0:0:0:0:
256,192,77259,1,0,0:0:0:0:
256,192,77335,1,0,0:0:0:0:
256,192,77488,1,8,0:0:0:0:
256,192,77565,1,0,0:0:0:0:
256,192,77642,1,0,0:0:0:0:
256,192,77795,1,0,0:0:0:0:
256,192,77948,1,0,0:0:0:0:
256,192,78101,1,0,0:0:0:0:
256,192,78177,1,0,0:0:0:0:
256,192,78254,1,0,0:0:0:0:
256,192,78407,1,4,0:0:0:0:
256,192,78560,1,8,0:0:0:0:
256,192,78713,1,8,0:0:0:0:
256,192,78866,1,0,0:0:0:0:
256,192,78943,1,0,0:0:0:0:
256,192,79019,1,8,0:0:0:0:
256,192,79172,1,0,0:0:0:0:
256,192,79325,1,8,0:0:0:0:
256,192,79478,1,8,0:0:0:0:
256,192,79631,1,0,0:0:0:0:
256,192,79708,1,0,0:0:0:0:
256,192,79784,1,8,0:0:0:0:
256,192,79937,1,8,0:0:0:0:
256,192,80091,1,0,0:0:0:0:
256,192,80167,1,0,0:0:0:0:
256,192,80244,1,8,0:0:0:0:
256,192,80397,1,0,0:0:0:0:
256,192,80473,1,0,0:0:0:0:
256,192,80550,1,8,0:0:0:0:
256,192,80626,1,0,0:0:0:0:
256,192,80703,1,8,0:0:0:0:
256,192,80779,1,8,0:0:0:0:
256,192,80856,1,0,0:0:0:0:
256,192,80932,1,0,0:0:0:0:
256,192,81009,1,0,0:0:0:0:
256,192,81162,1,8,0:0:0:0:
256,192,81315,1,0,0:0:0:0:
256,192,81392,1,0,0:0:0:0:
256,192,81468,1,0,0:0:0:0:
256,192,81621,1,0,0:0:0:0:
256,192,81774,1,8,0:0:0:0:
256,192,81927,1,0,0:0:0:0:
256,192,82080,1,0,0:0:0:0:
256,192,82157,1,0,0:0:0:0:
256,192,82233,1,8,0:0:0:0:
256,192,82386,1,8,0:0:0:0:
256,192,82540,1,0,0:0:0:0:
256,192,82616,1,0,0:0:0:0:
256,192,82693,1,0,0:0:0:0:
256,192,82846,1,0,0:0:0:0:
256,192,82999,1,8,0:0:0:0:
256,192,83152,1,8,0:0:0:0:
256,192,83305,1,0,0:0:0:0:
256,192,83381,1,0,0:0:0:0:
256,192,83458,1,8,0:0:0:0:
256,192,83611,1,8,0:0:0:0:
256,192,83764,1,0,0:0:0:0:
256,192,83841,1,0,0:0:0:0:
256,192,83917,1,8,0:0:0:0:
256,192,84070,1,0,0:0:0:0:
256,192,84223,1,8,0:0:0:0:
256,192,84376,1,8,0:0:0:0:
256,192,84529,1,0,0:0:0:0:
256,192,84606,1,0,0:0:0:0:
256,192,84682,1,8,0:0:0:0:
256,192,84835,1,8,0:0:0:0:
256,192,84988,1,0,0:0:0:0:
256,192,85065,1,0,0:0:0:0:
256,192,85142,1,8,0:0:0:0:
256,192,85295,1,8,0:0:0:0:
256,192,85371,1,8,0:0:0:0:
256,192,85448,1,0,0:0:0:0:
256,192,85524,1,0,0:0:0:0:
256,192,85601,1,8,0:0:0:0:
256,192,85677,1,0,0:0:0:0:
256,192,85754,1,8,0:0:0:0:
256,192,85830,1,8,0:0:0:0:
256,192,85907,1,0,0:0:0:0:
256,192,86060,1,8,0:0:0:0:
256,192,86213,1,0,0:0:0:0:
256,192,86290,1,0,0:0:0:0:
256,192,86366,1,0,0:0:0:0:
256,192,86519,1,0,0:0:0:0:
256,192,86672,1,8,0:0:0:0:
256,192,86825,1,8,0:0:0:0:
256,192,86978,1,0,0:0:0:0:
256,192,87055,1,0,0:0:0:0:
256,192,87131,1,8,0:0:0:0:
256,192,87284,1,8,0:0:0:0:
256,192,87437,1,0,0:0:0:0:
256,192,87514,1,8,0:0:0:0:
256,192,87591,1,0,0:0:0:0:
256,192,87744,1,8,0:0:0:0:
256,192,87897,1,0,0:0:0:0:
256,192,87973,1,0,0:0:0:0:
256,192,88050,1,0,0:0:0:0:
256,192,88203,1,12,0:0:0:0:
256,192,88356,1,8,0:0:0:0:
256,192,88509,1,8,0:0:0:0:
256,192,88662,1,0,0:0:0:0:
256,192,88738,1,0,0:0:0:0:
256,192,88815,1,8,0:0:0:0:
256,192,88968,1,0,0:0:0:0:
256,192,89121,1,8,0:0:0:0:
256,192,89274,1,8,0:0:0:0:
256,192,89427,1,0,0:0:0:0:
256,192,89580,1,8,0:0:0:0:
256,192,89733,1,8,0:0:0:0:
256,192,89886,1,8,0:0:0:0:
256,192,90040,1,8,0:0:0:0:
256,192,90193,1,0,0:0:0:0:
256,192,90346,1,8,0:0:0:0:
256,192,90499,1,8,0:0:0:0:
256,192,90652,1,0,0:0:0:0:
256,192,90728,1,0,0:0:0:0:
256,192,90805,1,8,0:0:0:0:
256,192,90958,1,8,0:0:0:0:
256,192,91111,1,0,0:0:0:0:
256,192,91187,1,0,0:0:0:0:
256,192,91264,1,8,0:0:0:0:
256,192,91417,1,8,0:0:0:0:
256,192,91570,1,8,0:0:0:0:
256,192,91647,1,8,0:0:0:0:
256,192,91723,1,0,0:0:0:0:
256,192,91876,1,0,0:0:0:0:
256,192,91953,1,0,0:0:0:0:
256,192,92029,1,8,0:0:0:0:
256,192,92182,1,8,0:0:0:0:
256,192,92335,1,0,0:0:0:0:
256,192,92412,1,0,0:0:0:0:
256,192,92488,1,8,0:0:0:0:
256,192,92642,1,0,0:0:0:0:
256,192,92795,1,8,0:0:0:0:
256,192,92948,1,8,0:0:0:0:
256,192,93101,1,4,0:0:0:0:
256,192,93254,1,8,0:0:0:0:
256,192,93407,1,8,0:0:0:0:
256,192,93560,1,0,0:0:0:0:
256,192,93636,1,0,0:0:0:0:
256,192,93713,1,8,0:0:0:0:
256,192,93866,1,8,0:0:0:0:
256,192,94019,1,8,0:0:0:0:
256,192,94172,1,8,0:0:0:0:
256,192,94325,1,0,0:0:0:0:
256,192,94478,1,8,0:0:0:0:
256,192,94631,1,8,0:0:0:0:
256,192,94784,1,8,0:0:0:0:
256,192,94937,1,8,0:0:0:0:
256,192,95091,1,0,0:0:0:0:
256,192,95244,1,8,0:0:0:0:
256,192,95397,1,8,0:0:0:0:
256,192,95550,1,0,0:0:0:0:
256,192,95626,1,0,0:0:0:0:
256,192,95703,1,8,0:0:0:0:
256,192,95856,1,8,0:0:0:0:
256,192,96009,1,0,0:0:0:0:
256,192,96085,1,0,0:0:0:0:
256,192,96162,1,8,0:0:0:0:
256,192,96315,1,0,0:0:0:0:
256,192,96468,1,8,0:0:0:0:
256,192,96621,1,8,0:0:0:0:
256,192,96774,1,0,0:0:0:0:
256,192,96927,1,0,0:0:0:0:
256,192,97080,1,0,0:0:0:0:
256,192,97233,1,0,0:0:0:0:
256,192,97386,1,8,0:0:0:0:
256,192,97540,1,8,0:0:0:0:
256,192,97693,1,8,0:0:0:0:
256,192,97846,1,8,0:0:0:0:
256,192,97999,1,4,0:0:0:0:
256,192,98305,1,8,0:0:0:0:
256,192,98458,1,0,0:0:0:0:
256,192,98534,1,0,0:0:0:0:
256,192,98611,1,8,0:0:0:0:
256,192,98764,1,0,0:0:0:0:
256,192,98917,1,8,0:0:0:0:
256,192,98994,1,0,0:0:0:0:
256,192,99070,1,8,0:0:0:0:
256,192,99147,1,8,0:0:0:0:
256,192,99223,1,0,0:0:0:0:
256,192,99376,1,0,0:0:0:0:
256,192,99529,1,8,0:0:0:0:
256,192,99682,1,0,0:0:0:0:
256,192,99759,1,0,0:0:0:0:
256,192,99835,1,0,0:0:0:0:
256,192,99988,1,0,0:0:0:0:
256,192,100142,1,8,0:0:0:0:
256,192,100448,1,0,0:0:0:0:
256,192,100601,1,0,0:0:0:0:
256,192,100754,1,8,0:0:0:0:
256,192,100907,1,0,0:0:0:0:
256,192,100983,1,0,0:0:0:0:
256,192,101060,1,8,0:0:0:0:
256,192,101213,1,0,0:0:0:0:
256,192,101366,1,8,0:0:0:0:
256,192,101519,1,8,0:0:0:0:
256,192,101596,1,8,0:0:0:0:
256,192,101672,1,0,0:0:0:0:
256,192,101825,1,0,0:0:0:0:
256,192,101978,1,8,0:0:0:0:
256,192,102131,1,0,0:0:0:0:
256,192,102284,1,0,0:0:0:0:
256,192,102437,1,8,0:0:0:0:
256,192,102591,1,8,0:0:0:0:
256,192,102744,1,0,0:0:0:0:
256,192,102820,1,8,0:0:0:0:
256,192,102897,1,0,0:0:0:0:
256,192,103203,1,8,0:0:0:0:
256,192,103356,1,0,0:0:0:0:
256,192,103432,1,0,0:0:0:0:
256,192,103509,1,8,0:0:0:0:
256,192,103662,1,0,0:0:0:0:
256,192,103815,1,8,0:0:0:0:
256,192,103968,1,8,0:0:0:0:
256,192,104045,1,8,0:0:0:0:
256,192,104121,1,0,0:0:0:0:
256,192,104274,1,0,0:0:0:0:
256,192,104427,1,8,0:0:0:0:
256,192,104580,1,8,0:0:0:0:
256,192,104733,1,0,0:0:0:0:
256,192,104886,1,8,0:0:0:0:
256,192,105040,1,8,0:0:0:0:
256,192,105193,1,8,0:0:0:0:
256,192,105346,1,0,0:0:0:0:
256,192,105422,1,0,0:0:0:0:
256,192,105499,1,0,0:0:0:0:
256,192,105575,1,0,0:0:0:0:
256,192,105652,1,8,0:0:0:0:
256,192,105728,1,0,0:0:0:0:
256,192,105805,1,8,0:0:0:0:
256,192,105958,1,0,0:0:0:0:
256,192,106111,1,0,0:0:0:0:
256,192,106264,1,8,0:0:0:0:
256,192,106341,1,0,0:0:0:0:
256,192,106417,1,8,0:0:0:0:
256,192,106570,1,8,0:0:0:0:
256,192,106647,1,8,0:0:0:0:
256,192,106723,1,0,0:0:0:0:
256,192,106800,1,0,0:0:0:0:
256,192,106876,1,8,0:0:0:0:
256,192,107029,1,0,0:0:0:0:
256,192,107106,1,8,0:0:0:0:
256,192,107182,1,8,0:0:0:0:
256,192,107335,1,0,0:0:0:0:
256,192,107412,1,0,0:0:0:0:
256,192,107488,1,8,0:0:0:0:
256,192,107565,1,8,0:0:0:0:
256,192,107642,1,0,0:0:0:0:
256,192,107795,1,4,0:0:0:0:
256,192,108101,1,0,0:0:0:0:
256,192,108254,1,0,0:0:0:0:
256,192,108407,1,8,0:0:0:0:
256,192,108560,1,0,0:0:0:0:
256,192,108713,1,8,0:0:0:0:
256,192,108790,1,8,0:0:0:0:
256,192,108866,1,0,0:0:0:0:
256,192,108943,1,0,0:0:0:0:
256,192,109019,1,8,0:0:0:0:
256,192,109172,1,0,0:0:0:0:
256,192,109325,1,8,0:0:0:0:
256,192,109478,1,8,0:0:0:0:
256,192,109631,1,0,0:0:0:0:
256,192,109784,1,8,0:0:0:0:
256,192,109861,1,0,0:0:0:0:
256,192,109937,1,8,0:0:0:0:
256,192,110091,1,8,0:0:0:0:
256,192,110244,1,0,0:0:0:0:
256,192,110550,1,8,0:0:0:0:
256,192,110703,1,0,0:0:0:0:
256,192,110779,1,0,0:0:0:0:
256,192,110856,1,8,0:0:0:0:
256,192,111009,1,0,0:0:0:0:
256,192,111162,1,8,0:0:0:0:
256,192,111315,1,8,0:0:0:0:
256,192,111392,1,8,0:0:0:0:
256,192,111468,1,0,0:0:0:0:
256,192,111621,1,0,0:0:0:0:
256,192,111774,1,8,0:0:0:0:
256,192,111927,1,8,0:0:0:0:
256,192,112080,1,0,0:0:0:0:
256,192,112233,1,8,0:0:0:0:
256,192,112310,1,0,0:0:0:0:
256,192,112386,1,8,0:0:0:0:
256,192,112463,1,8,0:0:0:0:
256,192,112540,1,0,0:0:0:0:
256,192,112616,1,0,0:0:0:0:
256,192,112693,1,8,0:0:0:0:
256,192,112846,1,0,0:0:0:0:
256,192,112999,1,8,0:0:0:0:
256,192,113152,1,0,0:0:0:0:
256,192,113228,1,0,0:0:0:0:
256,192,113305,1,8,0:0:0:0:
256,192,113458,1,0,0:0:0:0:
256,192,113611,1,8,0:0:0:0:
256,192,113764,1,8,0:0:0:0:
256,192,113841,1,8,0:0:0:0:
256,192,113917,1,0,0:0:0:0:
256,192,114223,1,8,0:0:0:0:
256,192,114376,1,0,0:0:0:0:
256,192,114453,1,8,0:0:0:0:
256,192,114529,1,0,0:0:0:0:
256,192,114682,1,0,0:0:0:0:
256,192,114835,1,8,0:0:0:0:
256,192,115142,1,0,0:0:0:0:
256,192,115218,1,0,0:0:0:0:
256,192,115295,1,0,0:0:0:0:
256,192,115371,1,0,0:0:0:0:
256,192,115448,1,8,0:0:0:0:
256,192,115601,1,8,0:0:0:0:
256,192,115754,1,0,0:0:0:0:
256,192,115830,1,0,0:0:0:0:
256,192,115907,1,0,0:0:0:0:
256,192,116060,1,8,0:0:0:0:
256,192,116213,1,8,0:0:0:0:
256,192,116366,1,4,0:0:0:0:
256,192,117284,1,0,0:0:0:0:
256,192,117361,1,0,0:0:0:0:
256,192,117437,1,0,0:0:0:0:
256,192,117591,1,12,0:0:0:0:
256,192,117744,1,0,0:0:0:0:
256,192,117897,1,8,0:0:0:0:
256,192,118126,1,8,0:0:0:0:
256,192,118203,1,0,0:0:0:0:
256,192,118356,1,0,0:0:0:0:
256,192,118509,1,8,0:0:0:0:
256,192,118585,1,8,0:0:0:0:
256,192,118662,1,0,0:0:0:0:
256,192,118738,1,0,0:0:0:0:
256,192,118815,1,8,0:0:0:0:
256,192,118968,1,0,0:0:0:0:
256,192,119121,1,8,0:0:0:0:
256,192,119274,1,8,0:0:0:0:
256,192,119351,1,8,0:0:0:0:
256,192,119427,1,0,0:0:0:0:
256,192,119580,1,0,0:0:0:0:
256,192,119733,1,8,0:0:0:0:
256,192,120040,1,0,0:0:0:0:
256,192,120193,1,0,0:0:0:0:
256,192,120346,1,8,0:0:0:0:
256,192,120499,1,0,0:0:0:0:
256,192,120575,1,0,0:0:0:0:
256,192,120652,1,8,0:0:0:0:
256,192,120805,1,0,0:0:0:0:
256,192,120958,1,8,0:0:0:0:
256,192,121111,1,8,0:0:0:0:
256,192,121264,1,0,0:0:0:0:
256,192,121570,1,8,0:0:0:0:
256,192,121800,1,8,0:0:0:0:
256,192,121876,1,0,0:0:0:0:
256,192,122029,1,8,0:0:0:0:
256,192,122106,1,0,0:0:0:0:
256,192,122182,1,8,0:0:0:0:
256,192,122259,1,8,0:0:0:0:
256,192,122335,1,0,0:0:0:0:
256,192,122412,1,0,0:0:0:0:
256,192,122488,1,8,0:0:0:0:
256,192,122642,1,0,0:0:0:0:
256,192,122795,1,8,0:0:0:0:
256,192,122948,1,0,0:0:0:0:
256,192,123024,1,8,0:0:0:0:
256,192,123101,1,0,0:0:0:0:
256,192,123254,1,0,0:0:0:0:
256,192,123407,1,8,0:0:0:0:
256,192,123713,1,0,0:0:0:0:
256,192,123866,1,0,0:0:0:0:
256,192,123943,1,0,0:0:0:0:
256,192,124019,1,8,0:0:0:0:
256,192,124172,1,8,0:0:0:0:
256,192,124325,1,0,0:0:0:0:
256,192,124478,1,8,0:0:0:0:
256,192,124555,1,0,0:0:0:0:
256,192,124631,1,8,0:0:0:0:
256,192,124708,1,8,0:0:0:0:
256,192,124784,1,0,0:0:0:0:
256,192,124937,1,0,0:0:0:0:
256,192,125091,1,0,0:0:0:0:
256,192,125244,1,8,0:0:0:0:
256,192,125320,1,0,0:0:0:0:
256,192,125397,1,8,0:0:0:0:
256,192,125550,1,0,0:0:0:0:
256,192,125703,1,0,0:0:0:0:
256,192,125856,1,8,0:0:0:0:
256,192,125932,1,0,0:0:0:0:
256,192,126009,1,8,0:0:0:0:
256,192,126162,1,8,0:0:0:0:
256,192,126238,1,8,0:0:0:0:
256,192,126315,1,0,0:0:0:0:
256,192,126392,1,0,0:0:0:0:
256,192,126468,1,8,0:0:0:0:
256,192,126621,1,0,0:0:0:0:
256,192,126698,1,8,0:0:0:0:
256,192,126774,1,0,0:0:0:0:
256,192,126851,1,8,0:0:0:0:
256,192,126927,1,0,0:0:0:0:
256,192,127004,1,0,0:0:0:0:
256,192,127080,1,8,0:0:0:0:
256,192,127233,1,0,0:0:0:0:
256,192,127386,1,12,0:0:0:0:
256,192,127693,1,8,0:0:0:0:
256,192,127922,1,8,0:0:0:0:
256,192,127999,1,0,0:0:0:0:
256,192,128152,1,0,0:0:0:0:
256,192,128305,1,8,0:0:0:0:
256,192,128381,1,8,0:0:0:0:
256,192,128458,1,8,0:0:0:0:
256,192,128534,1,0,0:0:0:0:
256,192,128611,1,8,0:0:0:0:
256,192,128764,1,0,0:0:0:0:
256,192,128917,1,8,0:0:0:0:
256,192,129070,1,8,0:0:0:0:
256,192,129147,1,8,0:0:0:0:
256,192,129223,1,0,0:0:0:0:
256,192,129376,1,8,0:0:0:0:
256,192,129453,1,0,0:0:0:0:
256,192,129529,1,8,0:0:0:0:
256,192,129606,1,8,0:0:0:0:
256,192,129682,1,0,0:0:0:0:
256,192,129759,1,8,0:0:0:0:
256,192,129835,1,0,0:0:0:0:
256,192,129988,1,0,0:0:0:0:
256,192,130142,1,8,0:0:0:0:
256,192,130295,1,0,0:0:0:0:
256,192,130371,1,0,0:0:0:0:
256,192,130448,1,8,0:0:0:0:
256,192,130601,1,0,0:0:0:0:
256,192,130754,1,8,0:0:0:0:
256,192,130907,1,8,0:0:0:0:
256,192,131060,1,0,0:0:0:0:
256,192,131366,1,8,0:0:0:0:
256,192,131596,1,8,0:0:0:0:
256,192,131672,1,0,0:0:0:0:
256,192,131825,1,8,0:0:0:0:
256,192,131902,1,0,0:0:0:0:
256,192,131978,1,8,0:0:0:0:
256,192,132055,1,0,0:0:0:0:
256,192,132131,1,8,0:0:0:0:
256,192,132208,1,8,0:0:0:0:
256,192,132284,1,0,0:0:0:0:
256,192,132437,1,0,0:0:0:0:
256,192,132591,1,8,0:0:0:0:
256,192,132744,1,0,0:0:0:0:
256,192,132820,1,0,0:0:0:0:
256,192,132897,1,8,0:0:0:0:
256,192,133050,1,0,0:0:0:0:
256,192,133203,1,8,0:0:0:0:
256,192,133509,1,0,0:0:0:0:
256,192,133662,1,0,0:0:0:0:
256,192,133815,1,8,0:0:0:0:
256,192,133968,1,8,0:0:0:0:
256,192,134045,1,0,0:0:0:0:
256,192,134121,1,0,0:0:0:0:
256,192,134274,1,0,0:0:0:0:
256,192,134427,1,8,0:0:0:0:
256,192,134580,1,8,0:0:0:0:
256,192,134733,1,0,0:0:0:0:
256,192,134810,1,0,0:0:0:0:
256,192,134886,1,0,0:0:0:0:
256,192,135040,1,8,0:0:0:0:
256,192,135116,1,0,0:0:0:0:
256,192,135193,1,8,0:0:0:0:
256,192,135346,1,0,0:0:0:0:
256,192,135422,1,0,0:0:0:0:
256,192,135499,1,0,0:0:0:0:
256,192,135652,1,8,0:0:0:0:
256,192,135728,1,0,0:0:0:0:
256,192,135805,1,8,0:0:0:0:
256,192,135958,1,4,0:0:0:0:
256,192,136111,12,0,137029,0:0:0:0:
256,192,137182,5,8,0:0:0:0:
256,192,137335,1,8,0:0:0:0:
256,192,137488,1,0,0:0:0:0:
256,192,137642,1,0,0:0:0:0:
256,192,137795,1,8,0:0:0:0:
256,192,137948,1,0,0:0:0:0:
256,192,138101,1,0,0:0:0:0:
256,192,138254,1,0,0:0:0:0:
256,192,138407,1,8,0:0:0:0:
256,192,138560,1,8,0:0:0:0:
256,192,138713,1,0,0:0:0:0:
256,192,138866,1,0,0:0:0:0:
256,192,139019,1,8,0:0:0:0:
256,192,139172,1,0,0:0:0:0:
256,192,139325,1,0,0:0:0:0:
256,192,139478,1,0,0:0:0:0:
256,192,139631,1,8,0:0:0:0:
256,192,139784,1,8,0:0:0:0:
256,192,139937,1,0,0:0:0:0:
256,192,140091,1,8,0:0:0:0:
256,192,140244,1,8,0:0:0:0:
256,192,140397,1,0,0:0:0:0:
256,192,140550,1,8,0:0:0:0:
256,192,140703,1,0,0:0:0:0:
256,192,140856,1,12,0:0:0:0:
256,192,141009,1,12,0:0:0:0:
256,192,141162,1,4,0:0:0:0:
256,192,141315,1,4,0:0:0:0:
256,192,141468,1,12,0:0:0:0:
256,192,141621,1,12,0:0:0:0:
256,192,141774,1,4,0:0:0:0:
256,192,141927,1,4,0:0:0:0:
256,192,142080,1,12,0:0:0:0:
