osu file format v14

[General]
AudioFilename: audio.mp3
AudioLeadIn: 0
PreviewTime: 79384
Countdown: 1
SampleSet: Soft
StackLeniency: 0.2
Mode: 0
LetterboxInBreaks: 0
WidescreenStoryboard: 1

[Editor]
Bookmarks: 21777,31377,50577,60177,69777,79377,93777,96177,115377,124977,134577,144177,153777,168177
DistanceSpacing: 1
BeatDivisor: 4
GridSize: 4
TimelineZoom: 1.299999

[Metadata]
Title:Forcefield
TitleUnicode:Forcefield
Artist:Thaehan
ArtistUnicode:Thaehan
Creator:-Kemsyt
Version:Normal
Source:
Tags:symphonic melodic metal rock instrumental fa featured artist loki never give up entry
BeatmapID:2821665
BeatmapSetID:1362365

[Difficulty]
HPDrainRate:4
CircleSize:2.2
OverallDifficulty:4
ApproachRate:5.7
SliderMultiplier:0.899999999999999
SliderTickRate:1

[Events]
//Background and Video events
0,0,"sentinel.jpg",0,0
//Break Periods
//Storyboard Layer 0 (Background)
//Storyboard Layer 1 (Fail)
//Storyboard Layer 2 (Pass)
//Storyboard Layer 3 (Foreground)
//Storyboard Layer 4 (Overlay)
//Storyboard Sound Samples

[TimingPoints]
179,300,4,2,5,75,1,0
3854,-100,4,2,31,5,0,0
3929,-100,4,2,5,75,0,0
4454,-100,4,2,31,5,0,0
4529,-100,4,2,5,75,0,0
5654,-100,4,2,31,5,0,0
5729,-100,4,2,5,75,0,0
5879,-100,4,2,5,75,0,0
6254,-100,4,2,31,5,0,0
6329,-100,4,2,5,75,0,0
6854,-100,4,2,31,5,0,0
6929,-100,4,2,5,75,0,0
8054,-100,4,2,31,5,0,0
8129,-100,4,2,5,75,0,0
8279,-100,4,2,5,75,0,0
8654,-100,4,2,31,5,0,0
8729,-100,4,2,5,75,0,0
9254,-100,4,2,31,5,0,0
9329,-100,4,2,5,75,0,0
10604,-100,4,2,31,5,0,0
10679,-100,4,2,5,75,0,0
10904,-100,4,2,31,5,0,0
10979,-100,4,2,5,75,0,0
12854,-100,4,2,31,5,0,0
12929,-100,4,2,5,75,0,0
13079,-100,4,2,5,75,0,0
13454,-100,4,2,31,5,0,0
13529,-100,4,2,5,75,0,0
14054,-100,4,2,31,5,0,0
14129,-100,4,2,5,75,0,0
15254,-100,4,2,31,5,0,0
15329,-100,4,2,5,75,0,0
15479,-100,4,2,5,75,0,0
15854,-100,4,2,31,5,0,0
15929,-100,4,2,5,75,0,0
16454,-100,4,2,31,5,0,0
16529,-100,4,2,5,75,0,0
17654,-100,4,2,31,5,0,0
17729,-100,4,2,5,75,0,0
17879,-100,4,2,5,75,0,0
18254,-100,4,2,31,5,0,0
18329,-100,4,2,5,75,0,0
18854,-100,4,2,31,5,0,0
18929,-100,4,2,5,75,0,0
20204,-100,4,2,31,5,0,0
20279,-100,4,2,5,75,0,0
20504,-100,4,2,31,5,0,0
20579,-100,4,2,5,75,0,0
22379,-100,4,2,6,75,0,0
22829,-100,4,2,5,75,0,0
22979,-100,4,2,5,75,0,0
23579,-100,4,2,6,75,0,0
23729,-100,4,2,5,75,0,0
24179,-100,4,2,5,75,0,0
24779,-100,4,2,6,75,0,0
24929,-100,4,2,5,75,0,0
25379,-100,4,2,5,75,0,0
26204,-100,4,2,31,5,0,0
26279,-100,4,2,5,75,0,0
26504,-100,4,2,31,5,0,0
26579,-100,4,2,5,75,0,0
27179,-100,4,2,6,75,0,0
27479,-100,4,2,5,75,0,0
27779,-100,4,2,5,75,0,0
28379,-100,4,2,6,75,0,0
28529,-100,4,2,5,75,0,0
28979,-100,4,2,5,75,0,0
30404,-100,4,2,31,5,0,0
30479,-100,4,2,5,75,0,0
30554,-100,4,2,31,5,0,0
30629,-100,4,2,5,75,0,0
30704,-100,4,2,31,5,0,0
30779,-100,4,2,5,75,0,0
31004,-100,4,2,31,5,0,0
31079,-100,4,2,5,75,0,0
35804,-100,4,2,31,5,0,0
35879,-100,4,2,5,75,0,0
36104,-100,4,2,31,5,0,0
36179,-100,4,2,5,75,0,0
40004,-100,4,2,31,5,0,0
40079,-100,4,2,5,75,0,0
40154,-100,4,2,31,5,0,0
40229,-100,4,2,5,75,0,0
40604,-100,4,2,31,5,0,0
40679,-100,4,2,5,75,0,0
40904,-100,4,2,31,5,0,0
40979,-100,4,2,5,75,0,0
45404,-100,4,2,31,5,0,0
45479,-100,4,2,5,75,0,0
45704,-100,4,2,31,5,0,0
45779,-100,4,2,5,75,0,0
49604,-100,4,2,31,5,0,0
49679,-100,4,2,5,75,0,0
49754,-100,4,2,31,5,0,0
49829,-100,4,2,5,75,0,0
53204,-100,4,2,31,5,0,0
53279,-100,4,2,5,75,0,0
53504,-100,4,2,31,5,0,0
53579,-100,4,2,5,75,0,0
53804,-100,4,2,31,5,0,0
53879,-100,4,2,5,75,0,0
54104,-100,4,2,31,5,0,0
54179,-100,4,2,5,75,0,0
54404,-100,4,2,31,5,0,0
54479,-100,4,2,5,75,0,0
54704,-100,4,2,31,5,0,0
54779,-100,4,2,5,75,0,0
55004,-100,4,2,31,5,0,0
55079,-100,4,2,5,75,0,0
58004,-100,4,2,31,5,0,0
58079,-100,4,2,5,75,0,0
58304,-100,4,2,31,5,0,0
58379,-100,4,2,5,75,0,0
58604,-100,4,2,31,5,0,0
58679,-100,4,2,5,75,0,0
58904,-100,4,2,31,5,0,0
58979,-100,4,2,5,75,0,0
59204,-100,4,2,31,5,0,0
59279,-100,4,2,5,75,0,0
59504,-100,4,2,31,5,0,0
59579,-100,4,2,5,75,0,0
59804,-100,4,2,31,5,0,0
59879,-100,4,2,5,75,0,0
68579,-100,4,2,5,40,0,0
68729,-100,4,2,5,44,0,0
68879,-100,4,2,5,48,0,0
69029,-100,4,2,5,52,0,0
69179,-100,4,2,5,56,0,0
69329,-100,4,2,5,60,0,0
69479,-100,4,2,5,64,0,0
69629,-100,4,2,5,68,0,0
69779,-200,4,2,5,72,0,0
70379,-200,4,2,6,75,0,0
71579,-200,4,2,6,75,0,0
72104,-200,4,2,31,5,0,0
72179,-200,4,2,5,75,0,0
72779,-200,4,2,6,75,0,0
73979,-200,4,2,6,75,0,0
74279,-200,4,2,5,75,0,0
74579,-200,4,2,5,75,0,0
75179,-200,4,2,6,75,0,0
76379,-100,4,2,6,75,0,0
76979,-100,4,2,5,40,0,0
77129,-100,4,2,5,44,0,0
77279,-100,4,2,5,48,0,0
77429,-100,4,2,5,52,0,0
77579,-100,4,2,5,56,0,0
77729,-100,4,2,5,60,0,0
77879,-100,4,2,5,64,0,0
78029,-100,4,2,5,68,0,0
78179,-100,4,2,5,72,0,0
79079,-100,4,2,5,75,0,0
79304,-100,4,2,31,5,0,0
79379,-100,4,2,5,85,0,1
79604,-100,4,2,31,5,0,1
79679,-100,4,2,5,85,0,1
79904,-100,4,2,31,5,0,1
79979,-100,4,2,5,85,0,1
80054,-100,4,2,31,5,0,1
80129,-100,4,2,5,85,0,1
81104,-100,4,2,31,5,0,1
81179,-100,4,2,5,85,0,1
81704,-100,4,2,31,5,0,1
81779,-100,4,2,5,85,0,1
82004,-100,4,2,31,5,0,1
82079,-100,4,2,5,85,0,1
82304,-100,4,2,31,5,0,1
82379,-100,4,2,5,85,0,1
82454,-100,4,2,31,5,0,1
82529,-100,4,2,5,85,0,1
83504,-100,4,2,31,5,0,1
83579,-100,4,2,5,85,0,1
84404,-100,4,2,31,5,0,1
84479,-100,4,2,5,85,0,1
84704,-100,4,2,31,5,0,1
84779,-100,4,2,5,85,0,1
84854,-100,4,2,31,5,0,1
84929,-100,4,2,5,85,0,1
85904,-100,4,2,31,5,0,1
85979,-100,4,2,5,85,0,1
86804,-100,4,2,31,5,0,1
86879,-100,4,2,5,85,0,1
87104,-100,4,2,31,5,0,1
87179,-100,4,2,5,85,0,1
87254,-100,4,2,31,5,0,1
87329,-100,4,2,5,85,0,1
88304,-100,4,2,31,5,0,1
88379,-100,4,2,5,85,0,1
88904,-100,4,2,31,5,0,1
88979,-100,4,2,5,85,0,1
89204,-100,4,2,31,5,0,1
89279,-100,4,2,5,85,0,1
89504,-100,4,2,31,5,0,1
89579,-100,4,2,5,85,0,1
89654,-100,4,2,31,5,0,1
89729,-100,4,2,5,85,0,1
90704,-100,4,2,31,5,0,1
90779,-100,4,2,5,85,0,1
91604,-100,4,2,31,5,0,1
91679,-100,4,2,5,85,0,1
91904,-100,4,2,31,5,0,1
91979,-100,4,2,5,85,0,1
92054,-100,4,2,31,5,0,1
92129,-100,4,2,5,85,0,1
93104,-100,4,2,31,5,0,1
93179,-100,4,2,5,85,0,1
93779,-100,4,2,5,75,0,0
95429,-100,4,2,5,5,0,0
95579,-100,4,2,5,75,0,0
100604,-100,4,2,31,5,0,0
100679,-100,4,2,5,75,0,0
100904,-100,4,2,31,5,0,0
100979,-100,4,2,5,75,0,0
104804,-100,4,2,31,5,0,0
104879,-100,4,2,5,75,0,0
104954,-100,4,2,31,5,0,0
105029,-100,4,2,5,75,0,0
105404,-100,4,2,31,5,0,0
105479,-100,4,2,5,75,0,0
105704,-100,4,2,31,5,0,0
105779,-100,4,2,5,75,0,0
110204,-100,4,2,31,5,0,0
110279,-100,4,2,5,75,0,0
110504,-100,4,2,31,5,0,0
110579,-100,4,2,5,75,0,0
114404,-100,4,2,31,5,0,0
114479,-100,4,2,5,75,0,0
114554,-100,4,2,31,5,0,0
114629,-100,4,2,5,75,0,0
124004,-100,4,2,31,5,0,0
124079,-100,4,2,5,75,0,0
127604,-100,4,2,31,5,0,0
127679,-100,4,2,5,75,0,0
127904,-100,4,2,31,5,0,0
127979,-100,4,2,5,75,0,0
128204,-100,4,2,31,5,0,0
128279,-100,4,2,5,75,0,0
128504,-100,4,2,31,5,0,0
128579,-100,4,2,5,75,0,0
128804,-100,4,2,31,5,0,0
128879,-100,4,2,5,75,0,0
129104,-100,4,2,31,5,0,0
129179,-100,4,2,5,75,0,0
129404,-100,4,2,31,5,0,0
129479,-100,4,2,5,75,0,0
132404,-100,4,2,31,5,0,0
132479,-100,4,2,5,75,0,0
132704,-100,4,2,31,5,0,0
132779,-100,4,2,5,75,0,0
133004,-100,4,2,31,5,0,0
133079,-100,4,2,5,75,0,0
133304,-100,4,2,31,5,0,0
133379,-100,4,2,5,75,0,0
133604,-100,4,2,31,5,0,0
133679,-100,4,2,5,75,0,0
133904,-100,4,2,31,5,0,0
133979,-100,4,2,5,75,0,0
134204,-100,4,2,31,5,0,0
134279,-100,4,2,5,75,0,0
142979,-100,4,2,5,40,0,0
143129,-100,4,2,5,44,0,0
143279,-100,4,2,5,48,0,0
143429,-100,4,2,5,52,0,0
143579,-100,4,2,5,56,0,0
143729,-100,4,2,5,60,0,0
143879,-100,4,2,5,64,0,0
144029,-100,4,2,5,68,0,0
144179,-100,4,2,5,75,0,0
145979,-100,4,2,6,75,0,0
146504,-100,4,2,31,5,0,0
146579,-100,4,2,5,75,0,0
147179,-100,4,2,6,75,0,0
148379,-100,4,2,6,75,0,0
148679,-100,4,2,5,75,0,0
148979,-100,4,2,5,75,0,0
149579,-100,4,2,6,75,0,0
150779,-100,4,2,6,75,0,0
151379,-100,4,2,5,40,0,0
151529,-100,4,2,5,44,0,0
151679,-100,4,2,5,48,0,0
151829,-100,4,2,5,52,0,0
151979,-100,4,2,5,56,0,0
152129,-100,4,2,5,60,0,0
152279,-100,4,2,5,64,0,0
152429,-100,4,2,5,68,0,0
152579,-100,4,2,5,72,0,0
153779,-100,4,2,5,85,0,1
154004,-100,4,2,31,5,0,1
154079,-100,4,2,5,85,0,1
154304,-100,4,2,31,5,0,1
154379,-100,4,2,5,85,0,1
154454,-100,4,2,31,5,0,1
154529,-100,4,2,5,85,0,1
155504,-100,4,2,31,5,0,1
155579,-100,4,2,5,85,0,1
156104,-100,4,2,31,5,0,1
156179,-100,4,2,5,85,0,1
156404,-100,4,2,31,5,0,1
156479,-100,4,2,5,85,0,1
156704,-100,4,2,31,5,0,1
156779,-100,4,2,5,85,0,1
156854,-100,4,2,31,5,0,1
156929,-100,4,2,5,85,0,1
157904,-100,4,2,31,5,0,1
157979,-100,4,2,5,85,0,1
158804,-100,4,2,31,5,0,1
158879,-100,4,2,5,85,0,1
159104,-100,4,2,31,5,0,1
159179,-100,4,2,5,85,0,1
159254,-100,4,2,31,5,0,1
159329,-100,4,2,5,85,0,1
160304,-100,4,2,31,5,0,1
160379,-100,4,2,5,85,0,1
161204,-100,4,2,31,5,0,1
161279,-100,4,2,5,85,0,1
161504,-100,4,2,31,5,0,1
161579,-100,4,2,5,85,0,1
161654,-100,4,2,31,5,0,1
161729,-100,4,2,5,85,0,1
162704,-100,4,2,31,5,0,1
162779,-100,4,2,5,85,0,1
163304,-100,4,2,31,5,0,1
163379,-100,4,2,5,85,0,1
163604,-100,4,2,31,5,0,1
163679,-100,4,2,5,85,0,1
163904,-100,4,2,31,5,0,1
163979,-100,4,2,5,85,0,1
164054,-100,4,2,31,5,0,1
164129,-100,4,2,5,85,0,1
165104,-100,4,2,31,5,0,1
165179,-100,4,2,5,85,0,1
166004,-100,4,2,31,5,0,1
166079,-100,4,2,5,85,0,1
166304,-100,4,2,31,5,0,1
166379,-100,4,2,5,85,0,1
166454,-100,4,2,31,5,0,1
166529,-100,4,2,5,75,0,1
167504,-100,4,2,31,5,0,1
167579,-100,4,2,5,75,0,1
168179,-100,4,2,5,75,0,0
169079,-100,4,2,31,5,0,0

[Colours]
Combo1 : 124,124,124
Combo2 : 37,142,205
Combo3 : 78,69,237
Combo4 : 177,84,168
Combo5 : 189,64,117
Combo6 : 214,214,214

[HitObjects]
364,275,179,6,0,P|404:289|455:276,1,89.9999999999999,8|2,0:0|0:3,0:0:0:0:
495,201,779,2,0,P|452:186|409:196,1,89.9999999999999,2|2,0:3|0:3,0:0:0:0:
319,188,1379,2,0,L|327:99,2,89.9999999999999,8|2|8,0:0|0:3|0:0,0:0:0:0:
268,262,2279,1,8,0:0:0:0:
215,335,2579,6,0,B|178:341|146:353|146:353|130:298|72:271,1,180,6|0,3:2|3:0,0:0:0:0:
0,226,3479,1,0,3:0:0:0:
29,140,3779,1,2,3:2:0:0:
73,145,3929,2,0,L|172:151,1,89.9999999999999,10|10,0:0|0:0,0:0:0:0:
200,127,4379,1,2,3:2:0:0:
244,121,4529,2,0,L|343:115,1,89.9999999999999,10|10,0:0|0:0,0:0:0:0:
378,112,4979,69,2,3:2:0:0:
467,100,5279,2,0,L|475:10,2,89.9999999999999,0|0|0,3:0|3:0|3:0,0:0:0:0:
441,189,6179,1,2,3:2:0:0:
446,233,6329,2,0,L|454:322,1,89.9999999999999,10|10,0:0|0:0,0:0:0:0:
433,362,6779,1,2,3:2:0:0:
389,372,6929,2,0,P|345:362|295:363,1,89.9999999999999,10|8,0:0|0:0,0:0:0:0:
257,374,7379,5,6,3:2:0:0:
177,331,7679,2,0,L|185:238,2,89.9999999999999,0|0|0,3:0|3:0|3:0,0:0:0:0:
93,363,8579,1,2,3:2:0:0:
65,327,8729,2,0,P|72:282|73:234,1,89.9999999999999,10|10,0:0|0:0,0:0:0:0:
61,193,9179,1,2,3:2:0:0:
48,149,9329,2,0,P|89:134|135:127,1,89.9999999999999,10|10,0:0|0:0,0:0:0:0:
180,128,9779,69,2,3:2:0:0:
256,175,10079,1,0,3:0:0:0:
268,264,10379,2,0,P|310:280|358:284,1,89.9999999999999,6|2,3:2|3:2,0:0:0:0:
442,262,10979,1,2,0:3:0:0:
463,174,11279,1,2,0:3:0:0:
419,95,11579,1,2,0:3:0:0:
329,97,11879,2,0,L|301:137,1,45,8|8,0:0|0:0,0:0:0:0:
278,171,12179,5,6,3:2:0:0:
204,223,12479,2,0,P|236:253|282:262,1,89.9999999999999,0|0,3:0|3:0,0:0:0:0:
369,276,13079,1,0,3:0:0:0:
413,200,13379,1,2,3:2:0:0:
454,216,13529,2,0,P|458:262|469:311,1,89.9999999999999,10|10,0:0|0:0,0:0:0:0:
445,344,13979,1,2,3:2:0:0:
408,370,14129,2,0,P|360:369|317:376,1,89.9999999999999,10|10,0:0|0:0,0:0:0:0:
277,355,14579,69,2,3:2:0:0:
195,317,14879,2,0,L|102:330,1,89.9999999999999,0|0,3:0|3:0,0:0:0:0:
26,287,15479,1,0,3:0:0:0:
61,204,15779,1,2,3:2:0:0:
51,160,15929,2,0,P|57:106|75:71,1,89.9999999999999,10|10,0:0|0:0,0:0:0:0:
99,38,16379,1,2,3:2:0:0:
142,26,16529,2,0,P|194:39|235:45,1,89.9999999999999,10|8,0:0|0:0,0:0:0:0:
274,49,16979,5,6,3:2:0:0:
349,97,17279,2,0,L|438:83,2,89.9999999999999,0|0|0,3:0|3:0|3:0,0:0:0:0:
323,183,18179,1,2,3:2:0:0:
303,223,18329,2,0,L|213:236,1,89.9999999999999,10|10,0:0|0:0,0:0:0:0:
189,273,18779,1,2,3:2:0:0:
158,305,18929,2,0,L|68:291,1,89.9999999999999,10|10,0:0|0:0,0:0:0:0:
25,281,19379,69,2,3:2:0:0:
67,201,19679,1,0,3:0:0:0:
53,111,19979,2,0,P|85:75|132:67,1,89.9999999999999,6|2,3:2|3:2,0:0:0:0:
212,86,20579,1,8,0:0:0:0:
299,105,20879,1,2,0:3:0:0:
381,68,21179,1,2,0:3:0:0:
469,49,21479,2,0,L|478:107,1,45,2|2,0:3|0:3,0:0:0:0:
482,137,21779,54,0,B|492:205|492:205|477:250|477:250|494:324,1,180,6|2,3:2|0:0,0:0:0:0:
311,299,22979,2,0,B|296:236|296:236|311:191|311:191|301:123,1,180,2|2,0:0|0:0,0:0:0:0:
145,33,24179,2,0,P|237:42|317:-3,2,180,2|2|0,0:0|0:0|0:0,0:0:0:0:
48,185,25979,2,0,L|72:285,1,89.9999999999999,2|2,3:2|3:2,0:0:0:0:
34,355,26579,6,0,P|104:301|195:294,1,180,6|2,0:0|0:0,0:0:0:0:
359,361,27779,2,0,P|373:275|403:180,1,180,2|2,0:0|0:0,0:0:0:0:
392,6,28979,2,0,P|321:60|233:67,1,180,2|10,0:0|0:0,0:0:0:0:
148,33,29879,1,0,3:0:0:0:
143,77,30029,1,0,3:0:0:0:
153,120,30179,5,6,3:2:0:0:
221,178,30479,2,0,P|268:177|316:186,1,89.9999999999999,8|6,0:0|3:2,0:0:0:0:
388,228,31079,1,8,0:0:0:0:
439,154,31379,5,6,3:2:0:0:
478,235,31679,1,0,3:0:0:0:
428,310,31979,2,0,P|383:321|337:304,1,89.9999999999999,8|0,0:0|3:0,0:0:0:0:
303,285,32429,1,2,3:2:0:0:
270,253,32579,1,2,3:2:0:0:
180,242,32879,1,0,3:0:0:0:
144,324,33179,2,0,L|31:351,1,89.9999999999999,8|0,0:0|3:0,0:0:0:0:
15,326,33629,1,2,3:2:0:0:
2,282,33779,69,2,3:2:0:0:
63,215,34079,1,0,3:0:0:0:
40,127,34379,2,0,P|45:69|71:35,1,89.9999999999999,8|0,0:0|3:0,0:0:0:0:
102,23,34829,1,0,3:0:0:0:
146,14,34979,2,0,P|203:19|237:44,1,89.9999999999999,2|0,3:2|3:0,0:0:0:0:
260,68,35429,1,0,3:0:0:0:
275,110,35579,1,14,0:0:0:0:
361,134,35879,1,6,3:2:0:0:
427,72,36179,5,6,3:2:0:0:
487,138,36479,1,0,3:0:0:0:
468,226,36779,2,0,L|497:325,1,89.9999999999999,8|0,0:0|3:0,0:0:0:0:
467,348,37229,1,2,3:2:0:0:
422,350,37379,1,2,3:2:0:0:
333,364,37679,1,0,3:0:0:0:
292,283,37979,2,0,P|316:241|321:199,1,89.9999999999999,8|0,0:0|3:0,0:0:0:0:
319,155,38429,1,2,3:2:0:0:
302,113,38579,69,2,3:2:0:0:
218,146,38879,1,0,3:0:0:0:
131,121,39179,2,0,L|114:22,1,89.9999999999999,8|0,0:0|3:0,0:0:0:0:
72,19,39629,1,0,3:0:0:0:
30,36,39779,2,0,L|45:124,1,89.9999999999999,6|0,3:2|3:0,0:0:0:0:
54,168,40229,1,0,3:0:0:0:
50,212,40379,2,0,L|65:300,1,89.9999999999999,14|0,0:0|3:2,0:0:0:0:
144,344,40979,5,6,3:2:0:0:
221,299,41279,1,0,3:0:0:0:
298,344,41579,2,0,P|350:357|399:349,1,89.9999999999999,8|0,0:0|3:0,0:0:0:0:
424,330,42029,1,2,3:2:0:0:
445,290,42179,1,2,3:2:0:0:
481,207,42479,1,0,3:0:0:0:
419,141,42779,2,0,P|410:96|417:46,1,89.9999999999999,8|0,0:0|3:0,0:0:0:0:
388,15,43229,1,2,3:2:0:0:
343,9,43379,69,2,3:2:0:0:
280,73,43679,1,0,3:0:0:0:
190,75,43979,2,0,P|145:71|96:49,1,89.9999999999999,8|0,0:0|3:0,0:0:0:0:
62,36,44429,1,0,3:0:0:0:
23,12,44579,2,0,L|34:122,1,89.9999999999999,2|0,3:2|3:0,0:0:0:0:
91,169,45179,1,14,0:0:0:0:
91,259,45479,1,6,3:2:0:0:
23,318,45779,5,6,3:2:0:0:
95,371,46079,1,0,3:0:0:0:
175,330,46379,2,0,P|225:318|271:324,1,89.9999999999999,8|0,0:0|3:0,0:0:0:0:
304,340,46829,1,2,3:2:0:0:
338,368,46979,1,2,3:2:0:0:
419,330,47279,1,0,3:0:0:0:
390,244,47579,2,0,P|395:202|378:144,1,89.9999999999999,8|0,0:0|3:0,0:0:0:0:
361,116,48029,1,2,3:2:0:0:
327,85,48179,69,2,3:2:0:0:
378,11,48479,1,0,3:0:0:0:
463,38,48779,2,0,P|461:87|479:139,1,89.9999999999999,8|0,0:0|3:0,0:0:0:0:
493,165,49229,1,0,3:0:0:0:
487,209,49379,2,0,L|503:315,2,89.9999999999999,6|0|10,3:2|3:0|0:0,0:0:0:0:
398,193,50279,1,10,0:0:0:0:
338,260,50579,6,0,P|295:271|228:265,1,89.9999999999999,6|0,3:2|3:0,0:0:0:0:
186,205,51179,2,0,P|155:203|125:211,1,45,2|10,3:2|0:0,0:0:0:0:
6,199,51779,2,0,L|16:99,1,89.9999999999999,2|0,3:2|3:0,0:0:0:0:
69,37,52379,2,0,L|128:43,1,45,10|10,0:2|0:0,0:0:0:0:
237,95,52979,69,6,3:2:0:0:
206,182,53279,1,2,3:2:0:0:
119,206,53579,1,2,3:2:0:0:
92,292,53879,1,2,3:2:0:0:
154,356,54179,2,0,P|194:374|239:374,1,89.9999999999999,2|2,3:2|3:2,0:0:0:0:
301,309,54779,2,0,P|341:291|386:291,1,89.9999999999999,2|8,3:2|0:0,0:0:0:0:
466,333,55379,5,6,3:2:0:0:
501,250,55679,1,0,3:0:0:0:
432,192,55979,2,0,P|437:165|447:136,1,45,2|10,3:2|0:0,0:0:0:0:
507,30,56579,1,2,3:2:0:0:
420,5,56879,1,0,3:0:0:0:
343,52,57179,2,0,P|317:52|293:46,1,45,2|10,3:2|0:0,0:0:0:0:
173,2,57779,69,6,3:2:0:0:
165,91,58079,1,2,3:2:0:0:
85,132,58379,1,6,3:2:0:0:
72,221,58679,1,2,3:2:0:0:
136,284,58979,2,0,L|125:373,2,89.9999999999999,6|6|6,3:2|3:2|3:2,0:0:0:0:
210,232,59879,1,8,0:0:0:0:
292,268,60179,6,0,P|335:276|400:246,1,89.9999999999999,6|0,3:2|3:0,0:0:0:0:
453,213,60779,1,2,3:2:0:0:
460,168,60929,2,0,L|468:67,1,89.9999999999999,10|10,0:0|0:0,0:0:0:0:
469,33,61379,2,0,P|419:36|368:18,1,89.9999999999999,2|0,3:2|3:0,0:0:0:0:
294,0,61979,1,2,3:2:0:0:
293,44,62129,2,0,L|286:151,1,89.9999999999999,10|10,0:0|0:0,0:0:0:0:
283,178,62579,70,0,P|226:172|185:187,1,89.9999999999999,6|0,3:2|3:0,0:0:0:0:
124,236,63179,1,2,3:2:0:0:
83,217,63329,2,0,L|87:118,1,89.9999999999999,10|10,0:0|0:0,0:0:0:0:
96,83,63779,2,0,P|143:72|177:39,1,89.9999999999999,2|0,3:2|3:0,0:0:0:0:
256,10,64379,1,2,3:2:0:0:
320,73,64679,1,8,0:0:0:0:
353,42,64829,1,10,0:0:0:0:
396,32,64979,6,0,P|438:45|483:76,1,89.9999999999999,6|0,3:2|3:0,0:0:0:0:
485,159,65579,1,2,3:2:0:0:
483,203,65729,2,0,L|475:297,1,89.9999999999999,10|10,0:0|0:0,0:0:0:0:
470,337,66179,2,0,P|421:334|367:350,1,89.9999999999999,2|0,3:2|3:0,0:0:0:0:
293,325,66779,1,2,3:2:0:0:
258,353,66929,2,0,P|209:356|155:340,1,89.9999999999999,2|2,3:2|3:2,0:0:0:0:
129,325,67379,69,4,3:2:0:0:
176,248,67679,1,0,3:0:0:0:
172,158,67979,1,0,3:0:0:0:
104,98,68279,1,0,3:0:0:0:
18,68,68579,2,0,P|40:33|90:9,1,89.9999999999999,8|8,0:0|0:0,0:0:0:0:
171,22,69179,2,0,L|279:45,1,89.9999999999999,8|8,0:0|0:0,0:0:0:0:
294,55,69629,1,8,0:0:0:0:
327,66,69779,53,4,3:2:0:0:
256,192,69854,12,2,71579,0:0:0:0:
256,192,72179,12,2,73979,0:0:0:0:
407,115,74579,5,4,3:2:0:0:
256,192,74654,12,2,76379,0:0:0:0:
209,357,76979,6,0,B|212:311|212:311|199:250,1,89.9999999999999,8|8,0:0|0:0,0:0:0:0:
114,249,77579,2,0,B|110:203|110:203|124:142,1,89.9999999999999,8|8,0:0|0:0,0:0:0:0:
189,103,78179,1,8,0:0:0:0:
189,103,78629,54,0,B|237:98|237:98|266:124|266:124|328:118,1,135,0|8,3:0|0:0,0:0:0:0:
398,88,79379,54,0,L|412:193,1,89.9999999999999,4|8,3:2|0:0,0:0:0:0:
492,217,79979,2,0,L|491:297,1,45,2|2,3:2|3:2,0:0:0:0:
491,306,80279,1,10,0:0:0:0:
489,351,80429,2,0,P|428:318|348:322,1,135,2|8,3:2|0:0,0:0:0:0:
278,346,81179,1,2,3:2:0:0:
188,332,81479,1,10,0:0:0:0:
110,378,81779,6,0,P|80:334|76:285,1,89.9999999999999,0|8,3:0|0:0,0:0:0:0:
128,227,82379,2,0,P|119:187|95:154,1,45,2|2,3:2|3:2,0:0:0:0:
88,149,82679,1,10,0:0:0:0:
47,133,82829,2,0,P|106:130|168:77,1,135,2|10,3:2|0:0,0:0:0:0:
225,18,83579,2,0,P|251:23|274:35,1,45,2|2,3:2|3:2,0:0:0:0:
309,57,83879,2,0,P|335:52|358:40,1,45,10|2,0:0|3:2,0:0:0:0:
396,41,84179,70,0,P|409:95|403:142,1,89.9999999999999,6|8,3:2|0:0,0:0:0:0:
325,169,84779,2,0,P|314:212|319:249,1,45,2|2,3:2|3:2,0:0:0:0:
324,256,85079,1,10,0:0:0:0:
346,295,85229,2,0,B|293:281|293:281|203:307,1,135,6|8,3:2|0:0,0:0:0:0:
129,333,85979,1,2,3:2:0:0:
75,260,86279,2,0,P|81:231|91:209,1,45,10|0,0:0|3:0,0:0:0:0:
118,181,86579,6,0,P|140:137|142:92,1,89.9999999999999,6|8,3:2|0:0,0:0:0:0:
185,17,87179,2,0,P|224:19|260:38,1,45,2|2,3:2|3:2,0:0:0:0:
256,57,87479,1,10,0:0:0:0:
296,74,87629,2,0,P|362:68|421:37,1,135,2|8,3:2|0:0,0:0:0:0:
505,1,88379,1,2,3:2:0:0:
497,90,88679,1,10,0:0:0:0:
508,179,88979,70,0,L|501:274,1,89.9999999999999,0|8,3:0|0:0,0:0:0:0:
445,339,89579,2,0,P|400:340|367:321,1,45,2|2,3:2|3:2,0:0:0:0:
361,319,89879,1,10,0:0:0:0:
324,291,90029,2,0,B|270:300|270:300|248:314|248:314|183:324,1,135,2|10,3:2|0:0,0:0:0:0:
105,337,90779,2,0,P|78:317|68:308,1,45,2|2,3:2|3:2,0:0:0:0:
54,266,91079,2,0,P|71:251|89:238,1,45,10|2,0:0|3:2,0:0:0:0:
127,213,91379,6,0,P|143:169|134:122,1,89.9999999999999,6|8,3:2|0:0,0:0:0:0:
91,48,91979,2,0,L|171:30,1,45,2|2,3:2|3:2,0:0:0:0:
179,27,92279,1,10,0:0:0:0:
222,16,92429,2,0,L|368:47,1,135,6|8,3:2|0:0,0:0:0:0:
442,24,93179,1,2,3:2:0:0:
477,51,93329,1,2,3:2:0:0:
493,93,93479,2,0,P|492:143|467:209,1,89.9999999999999,10|6,0:0|3:2,0:0:0:0:
256,192,93929,12,0,94979,0:0:0:0:
70,332,95579,70,0,L|127:309,1,45,8|8,0:0|0:0,0:0:0:0:
154,328,95879,2,0,L|211:305,1,45,0|0,3:0|3:0,0:0:0:0:
235,289,96179,53,6,3:2:0:0:
316,251,96479,1,0,3:0:0:0:
249,190,96779,2,0,P|238:145|246:94,1,89.9999999999999,8|0,0:0|3:0,0:0:0:0:
267,64,97229,1,2,3:2:0:0:
308,45,97379,1,2,3:2:0:0:
395,67,97679,1,0,3:0:0:0:
482,45,97979,2,0,L|491:142,1,89.9999999999999,8|0,0:0|3:0,0:0:0:0:
497,179,98429,1,2,3:2:0:0:
467,213,98579,5,2,3:2:0:0:
496,298,98879,1,0,3:0:0:0:
421,349,99179,2,0,L|329:345,1,89.9999999999999,8|0,0:0|3:0,0:0:0:0:
285,345,99629,1,0,3:0:0:0:
241,333,99779,2,0,P|231:286|238:230,1,89.9999999999999,2|0,3:2|3:0,0:0:0:0:
245,200,100229,1,0,3:0:0:0:
275,166,100379,1,14,0:0:0:0:
236,84,100679,1,6,3:2:0:0:
149,107,100979,69,6,3:2:0:0:
60,90,101279,1,0,3:0:0:0:
18,169,101579,2,0,P|30:217|24:261,1,89.9999999999999,8|0,0:0|3:0,0:0:0:0:
10,299,102029,1,2,3:2:0:0:
25,341,102179,1,2,3:2:0:0:
108,374,102479,1,0,3:0:0:0:
179,319,102779,2,0,P|225:303|276:306,1,89.9999999999999,8|0,0:0|3:0,0:0:0:0:
308,316,103229,1,2,3:2:0:0:
343,343,103379,5,2,3:2:0:0:
427,312,103679,1,0,3:0:0:0:
400,225,103979,2,0,P|392:180|405:133,1,89.9999999999999,8|0,0:0|3:0,0:0:0:0:
425,98,104429,1,0,3:0:0:0:
462,72,104579,1,6,3:2:0:0:
406,0,104879,2,0,L|359:13,1,45,0|0,3:0|3:0,0:0:0:0:
330,43,105179,2,0,L|237:65,1,89.9999999999999,14|0,0:0|3:0,0:0:0:0:
157,93,105779,69,6,3:2:0:0:
182,179,106079,2,0,L|198:281,1,89.9999999999999,8|0,0:0|3:0,0:0:0:0:
173,355,106679,1,8,0:0:0:0:
215,370,106829,1,2,3:2:0:0:
254,347,106979,2,0,P|301:325|345:320,1,89.9999999999999,2|8,3:2|0:0,0:0:0:0:
419,359,107579,2,0,P|463:351|503:331,1,89.9999999999999,0|8,3:0|0:0,0:0:0:0:
510,286,108029,1,2,3:2:0:0:
490,245,108179,6,0,L|498:152,2,89.9999999999999,2|8|0,3:2|0:0|3:0,0:0:0:0:
400,255,109079,1,8,0:0:0:0:
355,247,109229,1,0,3:0:0:0:
316,223,109379,2,0,P|273:216|223:218,1,89.9999999999999,2|0,3:2|3:0,0:0:0:0:
166,150,109979,1,14,0:0:0:0:
84,187,110279,1,6,3:2:0:0:
29,115,110579,70,0,L|36:19,1,89.9999999999999,6|8,3:2|0:0,0:0:0:0:
122,3,111179,2,0,L|211:10,1,89.9999999999999,0|8,3:0|0:0,0:0:0:0:
256,13,111629,1,2,3:2:0:0:
301,13,111779,1,2,3:2:0:0:
361,78,112079,1,8,0:0:0:0:
432,23,112379,2,0,P|451:66|444:113,1,89.9999999999999,0|8,3:0|0:0,0:0:0:0:
428,149,112829,1,2,3:2:0:0:
411,191,112979,6,0,P|406:235|425:275,1,89.9999999999999,2|0,3:2|3:0,0:0:0:0:
493,331,113579,2,0,P|449:330|404:338,1,89.9999999999999,8|0,0:0|3:0,0:0:0:0:
359,341,114029,1,0,3:0:0:0:
315,310,114179,2,0,L|204:315,1,89.9999999999999,6|0,3:2|3:0,0:0:0:0:
180,317,114629,1,0,3:0:0:0:
140,292,114779,2,0,P|129:249|141:206,1,89.9999999999999,10|10,0:0|0:0,0:0:0:0:
205,143,115379,69,6,3:2:0:0:
255,68,115679,1,10,0:0:0:0:
186,9,115979,2,0,L|88:-2,1,89.9999999999999,2|10,3:2|0:0,0:0:0:0:
20,47,116579,1,2,3:2:0:0:
80,113,116879,1,10,0:0:0:0:
87,202,117179,2,0,P|88:252|77:292,1,89.9999999999999,2|10,3:2|0:0,0:0:0:0:
57,330,117629,6,0,L|200:359,1,135,6|10,3:2|0:0,0:0:0:0:
259,300,118379,2,0,L|380:324,1,89.9999999999999,2|10,3:2|0:0,0:0:0:0:
432,287,118979,1,10,0:0:0:0:
456,200,119279,1,10,0:0:0:0:
382,148,119579,2,0,P|359:111|352:54,1,89.9999999999999,10|10,0:0|0:0,0:0:0:0:
359,21,120029,70,0,P|293:38|214:37,1,135,6|10,3:2|0:0,0:0:0:0:
136,29,120779,2,0,L|146:134,1,89.9999999999999,2|10,3:2|0:0,0:0:0:0:
98,195,121379,1,2,3:2:0:0:
92,284,121679,1,10,0:0:0:0:
174,318,121979,2,0,P|233:308|280:316,1,89.9999999999999,2|10,3:2|0:0,0:0:0:0:
302,331,122429,6,0,P|387:345|455:333,1,135,6|10,3:2|0:0,0:0:0:0:
493,270,123179,1,10,0:0:0:0:
505,180,123479,1,10,0:0:0:0:
457,103,123779,1,6,3:2:0:0:
367,89,124079,2,0,B|301:106|301:106|187:41,1,180,8|8,0:0|0:0,0:0:0:0:
122,11,124979,70,0,P|114:56|130:109,1,89.9999999999999,6|0,3:2|3:0,0:0:0:0:
73,173,125579,2,0,P|89:196|120:213,1,45,2|10,3:2|0:0,0:0:0:0:
176,319,126179,2,0,P|220:318|264:328,1,89.9999999999999,2|0,3:2|3:0,0:0:0:0:
342,373,126779,2,0,P|373:380|406:379,1,45,2|10,3:2|0:0,0:0:0:0:
505,316,127379,5,6,3:2:0:0:
487,227,127679,1,2,3:2:0:0:
413,175,127979,1,2,3:2:0:0:
331,213,128279,1,2,3:2:0:0:
307,299,128579,2,0,P|256:290|207:305,1,89.9999999999999,2|2,3:2|3:2,0:0:0:0:
150,356,129179,2,0,P|159:272|114:188,1,180,2|6,3:2|3:2,0:0:0:0:
42,136,130079,69,0,3:0:0:0:
94,62,130379,2,0,P|121:67|157:64,1,45,2|10,3:2|0:0,0:0:0:0:
269,33,130979,1,2,3:2:0:0:
358,37,131279,1,0,3:0:0:0:
422,100,131579,2,0,L|419:159,1,45,2|10,3:2|0:0,0:0:0:0:
489,261,132179,5,6,3:2:0:0:
432,329,132479,1,2,3:2:0:0:
344,348,132779,1,6,3:2:0:0:
259,316,133079,1,2,3:2:0:0:
231,230,133379,2,0,L|240:136,1,89.9999999999999,6|6,3:2|3:2,0:0:0:0:
311,86,133979,2,0,P|224:114|145:79,1,180,6|6,3:2|3:2,0:0:0:0:
61,48,134879,69,0,3:0:0:0:
11,123,135179,1,2,3:2:0:0:
37,159,135329,2,0,P|42:207|25:257,1,89.9999999999999,10|10,0:0|0:0,0:0:0:0:
11,287,135779,1,2,3:2:0:0:
85,337,136079,1,0,3:0:0:0:
169,305,136379,1,2,3:2:0:0:
209,285,136529,2,0,P|258:294|290:317,1,89.9999999999999,10|10,0:0|0:0,0:0:0:0:
317,352,136979,5,6,3:2:0:0:
406,352,137279,1,0,3:0:0:0:
477,297,137579,1,2,3:2:0:0:
481,252,137729,2,0,L|485:151,1,89.9999999999999,10|10,0:0|0:0,0:0:0:0:
486,117,138179,1,2,3:2:0:0:
416,59,138479,1,0,3:0:0:0:
326,67,138779,1,2,3:2:0:0:
263,131,139079,1,8,0:0:0:0:
236,94,139229,1,10,0:0:0:0:
231,49,139379,70,0,P|180:61|129:53,1,89.9999999999999,6|0,3:2|3:0,0:0:0:0:
53,52,139979,1,2,3:2:0:0:
61,96,140129,2,0,L|76:184,1,89.9999999999999,10|10,0:0|0:0,0:0:0:0:
84,228,140579,1,2,3:2:0:0:
125,308,140879,1,0,3:0:0:0:
210,280,141179,1,2,3:2:0:0:
254,281,141329,2,0,P|301:285|340:301,1,89.9999999999999,2|2,3:2|3:2,0:0:0:0:
372,332,141779,5,4,3:2:0:0:
449,286,142079,1,0,3:0:0:0:
456,196,142379,1,0,3:0:0:0:
405,121,142679,1,0,3:0:0:0:
315,116,142979,2,0,B|271:122|271:122|266:119|266:119|226:124,1,89.9999999999999,8|8,0:0|0:0,0:0:0:0:
158,64,143579,2,0,B|114:58|114:58|109:60|109:60|69:55,1,89.9999999999999,8|8,0:0|0:0,0:0:0:0:
24,54,144029,1,8,0:0:0:0:
9,96,144179,37,4,3:2:0:0:
256,192,144254,12,2,145979,0:0:0:0:
256,192,146579,12,2,148379,0:0:0:0:
438,301,148979,5,4,3:2:0:0:
256,192,149054,12,2,150779,0:0:0:0:
159,251,151379,22,0,P|192:227|217:177,1,89.9999999999999,8|8,0:0|0:0,0:0:0:0:
174,103,151979,2,0,P|141:127|116:177,1,89.9999999999999,8|8,0:0|0:0,0:0:0:0:
63,241,152579,1,8,0:0:0:0:
63,241,153029,38,0,B|115:233|115:233|190:273,1,135,0|8,3:0|0:0,0:0:0:0:
238,346,153779,54,0,L|317:304,1,89.9999999999999,4|8,3:2|0:0,0:0:0:0:
393,351,154379,2,0,L|456:317,1,45,2|2,3:2|3:2,0:0:0:0:
472,307,154679,1,10,0:0:0:0:
511,287,154829,2,0,P|468:241|456:163,1,135,2|8,3:2|0:0,0:0:0:0:
480,85,155579,1,2,3:2:0:0:
415,22,155879,1,10,0:0:0:0:
345,79,156179,6,0,P|292:84|254:71,1,89.9999999999999,0|8,3:0|0:0,0:0:0:0:
182,24,156779,2,0,P|134:19|100:31,1,45,2|2,3:2|3:2,0:0:0:0:
93,29,157079,1,10,0:0:0:0:
57,58,157229,2,0,L|81:205,1,135,2|10,3:2|0:0,0:0:0:0:
162,223,157979,2,0,P|151:246|147:271,1,45,2|2,3:2|3:2,0:0:0:0:
148,310,158279,2,0,P|152:331|162:352,1,45,10|2,0:0|3:2,0:0:0:0:
201,374,158579,70,0,L|294:364,1,89.9999999999999,6|8,3:2|0:0,0:0:0:0:
380,358,159179,2,0,L|429:326,1,45,2|2,3:2|3:2,0:0:0:0:
455,309,159479,1,10,0:0:0:0:
492,284,159629,6,0,L|476:141,1,135,6|8,3:2|0:0,0:0:0:0:
395,111,160379,1,2,3:2:0:0:
343,188,160679,2,0,P|312:181|288:178,1,45,10|0,0:0|3:0,0:0:0:0:
258,158,160979,70,0,L|241:57,1,89.9999999999999,6|8,3:2|0:0,0:0:0:0:
153,77,161579,2,0,L|165:156,1,45,2|2,3:2|3:2,0:0:0:0:
169,165,161879,1,10,0:0:0:0:
176,209,162029,2,0,P|106:216|52:255,1,135,2|8,3:2|0:0,0:0:0:0:
12,331,162779,1,2,3:2:0:0:
87,380,163079,1,10,0:0:0:0:
165,335,163379,6,0,L|258:342,1,89.9999999999999,0|8,3:0|0:0,0:0:0:0:
337,378,163979,2,0,L|417:371,1,45,2|2,3:2|3:2,0:0:0:0:
425,365,164279,1,10,0:0:0:0:
469,359,164429,2,0,P|428:305|421:231,1,135,2|10,3:2|0:0,0:0:0:0:
441,152,165179,2,0,L|444:107,1,45,2|2,3:2|3:2,0:0:0:0:
415,73,165479,2,0,L|411:27,1,45,10|2,0:0|3:2,0:0:0:0:
367,18,165779,70,0,P|320:12|270:20,1,89.9999999999999,6|8,3:2|0:0,0:0:0:0:
206,85,166379,2,0,P|200:127|207:172,1,45,2|2,3:2|3:2,0:0:0:0:
210,173,166679,1,10,0:0:0:0:
225,215,166829,6,0,P|290:195|358:201,1,135,6|8,3:2|0:0,0:0:0:0:
443,219,167579,1,2,3:2:0:0:
462,259,167729,1,2,3:2:0:0:
472,302,167879,2,0,P|465:333|451:350,1,45,10|0,0:0|3:0,0:0:0:0:
425,374,168179,69,6,3:2:0:0:
