osu file format v14

[General]
AudioFilename: audio.mp3
AudioLeadIn: 0
PreviewTime: 79384
Countdown: 1
SampleSet: Soft
StackLeniency: 0.2
Mode: 0
LetterboxInBreaks: 0
WidescreenStoryboard: 0

[Editor]
Bookmarks: 21777,31377,50577,60177,69777,79377,93777,96177,115377,122209,122809,124977,134577,144177,153777,168177
DistanceSpacing: 1
BeatDivisor: 4
GridSize: 4
TimelineZoom: 3.799998

[Metadata]
Title:Forcefield
TitleUnicode:Forcefield
Artist:Thaehan
ArtistUnicode:Thaehan
Creator:-Kemsyt
Version:Mighty
Source:
Tags:symphonic melodic metal rock instrumental fa featured artist loki never give up entry
BeatmapID:2818775
BeatmapSetID:1362365

[Difficulty]
HPDrainRate:6
CircleSize:3
OverallDifficulty:9.3
ApproachRate:9.5
SliderMultiplier:2.4
SliderTickRate:1

[Events]
//Background and Video events
0,0,"sentinel.jpg",0,0
//Break Periods
//Storyboard Layer 0 (Background)
//Storyboard Layer 1 (Fail)
//Storyboard Layer 2 (Pass)
//Storyboard Layer 3 (Foreground)
//Storyboard Layer 4 (Overlay)
//Storyboard Sound Samples

[TimingPoints]
179,300,4,2,5,75,1,0
3854,-100,4,2,31,5,0,0
3929,-100,4,2,5,75,0,0
4379,-86.9565217391304,4,2,5,75,0,0
4454,-86.9565217391304,4,2,31,5,0,0
4529,-86.9565217391304,4,2,5,75,0,0
4979,-80,4,2,5,75,0,0
5579,-100,4,2,5,75,0,0
5654,-100,4,2,31,5,0,0
5729,-100,4,2,5,75,0,0
6254,-100,4,2,31,5,0,0
6329,-100,4,2,5,75,0,0
6779,-86.9565217391304,4,2,5,75,0,0
6854,-86.9565217391304,4,2,31,5,0,0
6929,-86.9565217391304,4,2,5,75,0,0
7379,-80,4,2,5,75,0,0
7979,-100,4,2,5,75,0,0
8054,-100,4,2,31,5,0,0
8129,-100,4,2,5,75,0,0
8654,-100,4,2,31,5,0,0
8729,-100,4,2,5,75,0,0
9179,-86.9565217391304,4,2,5,75,0,0
9254,-86.9565217391304,4,2,31,5,0,0
9329,-86.9565217391304,4,2,5,75,0,0
9779,-80,4,2,5,75,0,0
10379,-80,4,2,5,75,0,0
10604,-80,4,2,31,5,0,0
10679,-80,4,2,5,75,0,0
10904,-80,4,2,31,5,0,0
10979,-100,4,2,5,75,0,0
12854,-100,4,2,31,5,0,0
12929,-100,4,2,5,75,0,0
13454,-100,4,2,31,5,0,0
13529,-100,4,2,5,75,0,0
13979,-86.9565217391304,4,2,5,75,0,0
14054,-86.9565217391304,4,2,31,5,0,0
14129,-86.9565217391304,4,2,5,75,0,0
14579,-80,4,2,5,75,0,0
15179,-100,4,2,5,75,0,0
15254,-100,4,2,31,5,0,0
15329,-100,4,2,5,75,0,0
15854,-100,4,2,31,5,0,0
15929,-100,4,2,5,75,0,0
16379,-86.9565217391304,4,2,5,75,0,0
16454,-86.9565217391304,4,2,31,5,0,0
16529,-86.9565217391304,4,2,5,75,0,0
16979,-80,4,2,5,75,0,0
17579,-100,4,2,5,75,0,0
17654,-100,4,2,31,5,0,0
17729,-100,4,2,5,75,0,0
18254,-100,4,2,31,5,0,0
18329,-100,4,2,5,75,0,0
18779,-86.9565217391304,4,2,5,75,0,0
18854,-86.9565217391304,4,2,31,5,0,0
18929,-86.9565217391304,4,2,5,75,0,0
19379,-80,4,2,5,75,0,0
19979,-80,4,2,5,75,0,0
20204,-80,4,2,31,5,0,0
20279,-80,4,2,5,75,0,0
20504,-80,4,2,31,5,0,0
20579,-100,4,2,5,75,0,0
21779,-153.846153846154,4,2,5,75,0,0
22379,-153.846153846154,4,2,6,75,0,0
22829,-153.846153846154,4,2,5,75,0,0
23579,-153.846153846154,4,2,6,75,0,0
23729,-153.846153846154,4,2,5,75,0,0
24779,-153.846153846154,4,2,6,75,0,0
24929,-153.846153846154,4,2,5,75,0,0
25979,-80,4,2,5,75,0,0
26204,-80,4,2,31,5,0,0
26279,-80,4,2,5,75,0,0
26504,-80,4,2,31,5,0,0
26579,-153.846153846154,4,2,5,75,0,0
27179,-153.846153846154,4,2,6,75,0,0
27479,-153.846153846154,4,2,5,75,0,0
28379,-153.846153846154,4,2,6,75,0,0
28529,-153.846153846154,4,2,5,75,0,0
30179,-80.0000000000001,4,2,5,75,0,0
30404,-80.0000000000001,4,2,31,5,0,0
30479,-100,4,2,5,75,0,0
30554,-100,4,2,31,5,0,0
30629,-100,4,2,5,75,0,0
30704,-100,4,2,31,5,0,0
30779,-80.0000000000001,4,2,5,75,0,0
31004,-80.0000000000001,4,2,31,5,0,0
31079,-80.0000000000001,4,2,5,75,0,0
31379,-100,4,2,5,75,0,0
35579,-80,4,2,5,75,0,0
35804,-80,4,2,31,5,0,0
35879,-80,4,2,5,75,0,0
36104,-80,4,2,31,5,0,0
36179,-100,4,2,5,75,0,0
39779,-80,4,2,5,75,0,0
40004,-80,4,2,31,5,0,0
40079,-100,4,2,5,75,0,0
40154,-100,4,2,31,5,0,0
40229,-100,4,2,5,75,0,0
40379,-80,4,2,5,75,0,0
40604,-80,4,2,31,5,0,0
40679,-80,4,2,5,75,0,0
40904,-80,4,2,31,5,0,0
40979,-100,4,2,5,75,0,0
45179,-80,4,2,5,75,0,0
45404,-80,4,2,31,5,0,0
45479,-80,4,2,5,75,0,0
45704,-80,4,2,31,5,0,0
45779,-100,4,2,5,75,0,0
49379,-80,4,2,5,75,0,0
49604,-80,4,2,31,5,0,0
49679,-100,4,2,5,75,0,0
49754,-100,4,2,31,5,0,0
49829,-100,4,2,5,75,0,0
49979,-80,4,2,5,75,0,0
50579,-86.9565217391304,4,2,5,75,0,0
53204,-86.9565217391304,4,2,31,5,0,0
53279,-74.0740740740741,4,2,5,75,0,0
53504,-74.0740740740741,4,2,31,5,0,0
53579,-74.0740740740741,4,2,5,75,0,0
53804,-74.0740740740741,4,2,31,5,0,0
53879,-80,4,2,5,75,0,0
54104,-80,4,2,31,5,0,0
54179,-86.9565217391304,4,2,5,75,0,0
54404,-86.9565217391304,4,2,31,5,0,0
54479,-74.0740740740741,4,2,5,75,0,0
54704,-74.0740740740741,4,2,31,5,0,0
54779,-80,4,2,5,75,0,0
55004,-80,4,2,31,5,0,0
55079,-80,4,2,5,75,0,0
55379,-86.9565217391304,4,2,5,75,0,0
58004,-86.9565217391304,4,2,31,5,0,0
58079,-74.0740740740741,4,2,5,75,0,0
58304,-74.0740740740741,4,2,31,5,0,0
58379,-74.0740740740741,4,2,5,75,0,0
58604,-74.0740740740741,4,2,31,5,0,0
58679,-80,4,2,5,75,0,0
58904,-80,4,2,31,5,0,0
58979,-80,4,2,5,75,0,0
59204,-80,4,2,31,5,0,0
59279,-68.9655172413793,4,2,5,75,0,0
59504,-68.9655172413793,4,2,31,5,0,0
59579,-74.0740740740741,4,2,5,75,0,0
59804,-74.0740740740741,4,2,31,5,0,0
59879,-80,4,2,5,75,0,0
60179,-86.9565217391304,4,2,5,75,0,0
68579,-86.9565217391304,4,2,5,40,0,0
68729,-86.9565217391304,4,2,5,44,0,0
68879,-86.9565217391304,4,2,5,48,0,0
69029,-86.9565217391304,4,2,5,52,0,0
69179,-86.9565217391304,4,2,5,56,0,0
69329,-86.9565217391304,4,2,5,60,0,0
69479,-86.9565217391304,4,2,5,64,0,0
69629,-86.9565217391304,4,2,5,68,0,0
69779,-200,4,2,5,72,0,0
70379,-200,4,2,6,75,0,0
72104,-200,4,2,31,5,0,0
72179,-200,4,2,5,75,0,0
72779,-200,4,2,6,75,0,0
74279,-200,4,2,5,75,0,0
75179,-200,4,2,6,75,0,0
76979,-200,4,2,5,40,0,0
77129,-200,4,2,5,44,0,0
77279,-200,4,2,5,48,0,0
77429,-200,4,2,5,52,0,0
77579,-200,4,2,5,56,0,0
77729,-200,4,2,5,60,0,0
77879,-200,4,2,5,64,0,0
78029,-200,4,2,5,68,0,0
78179,-200,4,2,5,72,0,0
79079,-500,4,2,5,75,0,0
79304,-500,4,2,31,5,0,0
79379,-71.4285714285714,4,2,5,85,0,1
79604,-71.4285714285714,4,2,31,5,0,1
79679,-71.4285714285714,4,2,5,85,0,1
79904,-71.4285714285714,4,2,31,5,0,1
79979,-71.4285714285714,4,2,5,85,0,1
80054,-71.4285714285714,4,2,31,5,0,1
80129,-71.4285714285714,4,2,5,85,0,1
81104,-71.4285714285714,4,2,31,5,0,1
81179,-71.4285714285714,4,2,5,85,0,1
81704,-71.4285714285714,4,2,31,5,0,1
81779,-71.4285714285714,4,2,5,85,0,1
82004,-71.4285714285714,4,2,31,5,0,1
82079,-71.4285714285714,4,2,5,85,0,1
82304,-71.4285714285714,4,2,31,5,0,1
82379,-71.4285714285714,4,2,5,85,0,1
82454,-71.4285714285714,4,2,31,5,0,1
82529,-71.4285714285714,4,2,5,85,0,1
83504,-71.4285714285714,4,2,31,5,0,1
83579,-71.4285714285714,4,2,5,85,0,1
84404,-71.4285714285714,4,2,31,5,0,1
84479,-71.4285714285714,4,2,5,85,0,1
84704,-71.4285714285714,4,2,31,5,0,1
84779,-71.4285714285714,4,2,5,85,0,1
84854,-71.4285714285714,4,2,31,5,0,1
84929,-71.4285714285714,4,2,5,85,0,1
85904,-71.4285714285714,4,2,31,5,0,1
85979,-71.4285714285714,4,2,5,85,0,1
86804,-71.4285714285714,4,2,31,5,0,1
86879,-71.4285714285714,4,2,5,85,0,1
87104,-71.4285714285714,4,2,31,5,0,1
87179,-71.4285714285714,4,2,5,85,0,1
87254,-71.4285714285714,4,2,31,5,0,1
87329,-71.4285714285714,4,2,5,85,0,1
88304,-71.4285714285714,4,2,31,5,0,1
88379,-71.4285714285714,4,2,5,85,0,1
88904,-71.4285714285714,4,2,31,5,0,1
88979,-71.4285714285714,4,2,5,85,0,1
89204,-71.4285714285714,4,2,31,5,0,1
89279,-71.4285714285714,4,2,5,85,0,1
89504,-71.4285714285714,4,2,31,5,0,1
89579,-71.4285714285714,4,2,5,85,0,1
89654,-71.4285714285714,4,2,31,5,0,1
89729,-71.4285714285714,4,2,5,85,0,1
90704,-71.4285714285714,4,2,31,5,0,1
90779,-71.4285714285714,4,2,5,85,0,1
91604,-71.4285714285714,4,2,31,5,0,1
91679,-71.4285714285714,4,2,5,85,0,1
91904,-71.4285714285714,4,2,31,5,0,1
91979,-71.4285714285714,4,2,5,85,0,1
92054,-71.4285714285714,4,2,31,5,0,1
92129,-71.4285714285714,4,2,5,85,0,1
93104,-71.4285714285714,4,2,31,5,0,1
93179,-71.4285714285714,4,2,5,85,0,1
93779,-100,4,2,5,75,0,0
95429,-100,4,2,5,5,0,0
95579,-100,4,2,5,75,0,0
96179,-100,4,2,5,75,0,0
100379,-80,4,2,5,75,0,0
100604,-80,4,2,31,5,0,0
100679,-80,4,2,5,75,0,0
100904,-80,4,2,31,5,0,0
100979,-100,4,2,5,75,0,0
104579,-80,4,2,5,75,0,0
104804,-80,4,2,31,5,0,0
104879,-100,4,2,5,75,0,0
104954,-100,4,2,31,5,0,0
105029,-100,4,2,5,75,0,0
105179,-80,4,2,5,75,0,0
105404,-80,4,2,31,5,0,0
105479,-80,4,2,5,75,0,0
105704,-80,4,2,31,5,0,0
105779,-100,4,2,5,75,0,0
109979,-80,4,2,5,75,0,0
110204,-80,4,2,31,5,0,0
110279,-80,4,2,5,75,0,0
110504,-80,4,2,31,5,0,0
110579,-100,4,2,5,75,0,0
114179,-80,4,2,5,75,0,0
114404,-80,4,2,31,5,0,0
114479,-100,4,2,5,75,0,0
114554,-100,4,2,31,5,0,0
114629,-100,4,2,5,75,0,0
114779,-80,4,2,5,75,0,0
115079,-80,4,2,5,75,0,0
115379,-86.9565217391304,4,2,5,75,0,0
124004,-86.9565217391304,4,2,31,5,0,0
124079,-86.9565217391304,4,2,5,75,0,0
124979,-86.9565217391304,4,2,5,75,0,0
127604,-86.9565217391304,4,2,31,5,0,0
127679,-74.0740740740741,4,2,5,75,0,0
127904,-74.0740740740741,4,2,31,5,0,0
127979,-74.0740740740741,4,2,5,75,0,0
128204,-74.0740740740741,4,2,31,5,0,0
128279,-80,4,2,5,75,0,0
128504,-80,4,2,31,5,0,0
128579,-86.9565217391304,4,2,5,75,0,0
128804,-86.9565217391304,4,2,31,5,0,0
128879,-74.0740740740741,4,2,5,75,0,0
129104,-74.0740740740741,4,2,31,5,0,0
129179,-80,4,2,5,75,0,0
129404,-80,4,2,31,5,0,0
129479,-80,4,2,5,75,0,0
129779,-86.9565217391304,4,2,5,75,0,0
132179,-86.9565217391304,4,2,5,75,0,0
132404,-86.9565217391304,4,2,31,5,0,0
132479,-74.0740740740741,4,2,5,75,0,0
132704,-74.0740740740741,4,2,31,5,0,0
132779,-74.0740740740741,4,2,5,75,0,0
133004,-74.0740740740741,4,2,31,5,0,0
133079,-80,4,2,5,75,0,0
133304,-80,4,2,31,5,0,0
133379,-80,4,2,5,75,0,0
133604,-80,4,2,31,5,0,0
133679,-68.9655172413793,4,2,5,75,0,0
133904,-68.9655172413793,4,2,31,5,0,0
133979,-74.0740740740741,4,2,5,75,0,0
134204,-74.0740740740741,4,2,31,5,0,0
134279,-80,4,2,5,75,0,0
134579,-86.9565217391304,4,2,5,75,0,0
142979,-86.9565217391304,4,2,5,40,0,0
143129,-86.9565217391304,4,2,5,44,0,0
143279,-86.9565217391304,4,2,5,48,0,0
143429,-86.9565217391304,4,2,5,52,0,0
143579,-86.9565217391304,4,2,5,56,0,0
143729,-86.9565217391304,4,2,5,60,0,0
143879,-86.9565217391304,4,2,5,64,0,0
144029,-86.9565217391304,4,2,5,68,0,0
144179,-200,4,2,5,75,0,0
145979,-200,4,2,6,75,0,0
146504,-200,4,2,31,5,0,0
146579,-200,4,2,5,75,0,0
147179,-200,4,2,6,75,0,0
148679,-200,4,2,5,75,0,0
149579,-200,4,2,6,75,0,0
151379,-200,4,2,5,40,0,0
151529,-200,4,2,5,44,0,0
151679,-200,4,2,5,48,0,0
151829,-200,4,2,5,52,0,0
151979,-200,4,2,5,56,0,0
152129,-200,4,2,5,60,0,0
152279,-200,4,2,5,64,0,0
152429,-200,4,2,5,68,0,0
152579,-200,4,2,5,72,0,0
153779,-71.4285714285714,4,2,5,85,0,1
154004,-71.4285714285714,4,2,31,5,0,1
154079,-71.4285714285714,4,2,5,85,0,1
154304,-71.4285714285714,4,2,31,5,0,1
154379,-71.4285714285714,4,2,5,85,0,1
154454,-71.4285714285714,4,2,31,5,0,1
154529,-71.4285714285714,4,2,5,85,0,1
155504,-71.4285714285714,4,2,31,5,0,1
155579,-71.4285714285714,4,2,5,85,0,1
156104,-71.4285714285714,4,2,31,5,0,1
156179,-71.4285714285714,4,2,5,85,0,1
156404,-71.4285714285714,4,2,31,5,0,1
156479,-71.4285714285714,4,2,5,85,0,1
156704,-71.4285714285714,4,2,31,5,0,1
156779,-71.4285714285714,4,2,5,85,0,1
156854,-71.4285714285714,4,2,31,5,0,1
156929,-71.4285714285714,4,2,5,85,0,1
157904,-71.4285714285714,4,2,31,5,0,1
157979,-71.4285714285714,4,2,5,85,0,1
158804,-71.4285714285714,4,2,31,5,0,1
158879,-71.4285714285714,4,2,5,85,0,1
159104,-71.4285714285714,4,2,31,5,0,1
159179,-71.4285714285714,4,2,5,85,0,1
159254,-71.4285714285714,4,2,31,5,0,1
159329,-71.4285714285714,4,2,5,85,0,1
160304,-71.4285714285714,4,2,31,5,0,1
160379,-71.4285714285714,4,2,5,85,0,1
161204,-71.4285714285714,4,2,31,5,0,1
161279,-71.4285714285714,4,2,5,85,0,1
161504,-71.4285714285714,4,2,31,5,0,1
161579,-71.4285714285714,4,2,5,85,0,1
161654,-71.4285714285714,4,2,31,5,0,1
161729,-71.4285714285714,4,2,5,85,0,1
162704,-71.4285714285714,4,2,31,5,0,1
162779,-71.4285714285714,4,2,5,85,0,1
163304,-71.4285714285714,4,2,31,5,0,1
163379,-71.4285714285714,4,2,5,85,0,1
163604,-71.4285714285714,4,2,31,5,0,1
163679,-71.4285714285714,4,2,5,85,0,1
163904,-71.4285714285714,4,2,31,5,0,1
163979,-71.4285714285714,4,2,5,85,0,1
164054,-71.4285714285714,4,2,31,5,0,1
164129,-71.4285714285714,4,2,5,85,0,1
165104,-71.4285714285714,4,2,31,5,0,1
165179,-71.4285714285714,4,2,5,85,0,1
166004,-71.4285714285714,4,2,31,5,0,1
166079,-71.4285714285714,4,2,5,85,0,1
166304,-71.4285714285714,4,2,31,5,0,1
166379,-71.4285714285714,4,2,5,85,0,1
166454,-71.4285714285714,4,2,31,5,0,1
166529,-71.4285714285714,4,2,5,75,0,0
167504,-71.4285714285714,4,2,31,5,0,0
167579,-71.4285714285714,4,2,5,75,0,0
168179,-76.9230769230769,4,2,5,75,0,0
169079,-76.9230769230769,4,2,31,5,0,0

[Colours]
Combo1 : 124,124,124
Combo2 : 37,142,205
Combo3 : 78,69,237
Combo4 : 177,84,168
Combo5 : 189,64,117
Combo6 : 214,214,214

[HitObjects]
302,0,179,5,8,0:0:0:0:
292,64,254,1,8,0:0:0:0:
282,128,329,2,0,L|269:215,1,60,0|0,3:0|3:0,0:0:0:0:
495,293,479,5,2,0:3:0:0:
441,255,554,1,2,0:3:0:0:
376,250,629,1,0,3:0:0:0:
314,270,704,1,0,3:0:0:0:
269,317,779,1,2,0:3:0:0:
224,364,854,1,2,0:3:0:0:
162,384,929,1,0,3:0:0:0:
97,379,1004,1,0,3:0:0:0:
43,341,1079,1,2,0:3:0:0:
13,283,1154,1,2,0:3:0:0:
27,219,1229,2,0,L|57:163,1,60,2|2,0:3|0:3,0:0:0:0:
209,229,1379,69,8,0:0:0:0:
274,262,1454,1,8,0:0:0:0:
347,250,1529,1,0,3:0:0:0:
402,200,1604,1,0,3:0:0:0:
412,126,1679,1,2,0:3:0:0:
375,60,1754,1,2,0:3:0:0:
306,34,1829,2,0,L|231:8,1,60,0|0,3:0|3:0,0:0:0:0:
53,59,1979,5,8,0:0:0:0:
65,141,2054,1,8,0:0:0:0:
78,224,2129,2,0,L|94:321,1,60,0|0,3:0|3:0,0:0:0:0:
284,384,2279,69,8,0:0:0:0:
371,360,2354,1,8,0:0:0:0:
392,272,2429,1,8,0:0:0:0:
328,210,2504,1,8,0:0:0:0:
241,234,2579,6,0,B|319:259|319:259|397:252|397:252|479:279,1,240,6|0,3:2|3:0,0:0:0:0:
512,318,2954,1,0,3:0:0:0:
512,318,3029,1,8,0:0:0:0:
363,101,3179,69,0,3:0:0:0:
311,305,3329,1,8,0:0:0:0:
273,26,3479,1,0,3:0:0:0:
262,89,3554,1,0,3:0:0:0:
250,152,3629,1,8,0:0:0:0:
447,153,3779,6,0,P|480:156|511:169,1,60,2|0,3:2|1:0,0:0:0:0:
234,249,3929,2,0,P|168:243|106:217,1,120,10|0,0:0|3:0,0:0:0:0:
118,223,4229,1,10,0:0:0:0:
302,373,4379,2,0,L|311:304,1,69.0000013160706,2|0,3:2|1:0,0:0:0:0:
100,87,4529,2,0,L|118:223,1,138.000002632141,10|0,0:0|3:0,0:0:0:0:
117,222,4829,1,10,0:0:0:0:
512,37,4979,70,0,B|449:28|449:28|373:65|373:65|366:61|366:61|299:93|299:93|229:85,1,300,2|0,3:2|3:0,0:0:0:0:
198,165,5354,1,0,3:0:0:0:
198,165,5429,1,8,0:0:0:0:
397,344,5579,2,0,L|407:274,1,60,0|0,3:0|1:0,0:0:0:0:
421,169,5729,1,8,0:0:0:0:
272,359,5879,1,0,3:0:0:0:
283,294,5954,1,0,3:0:0:0:
293,228,6029,1,8,0:0:0:0:
207,63,6179,6,0,L|197:122,1,60,2|0,3:2|1:0,0:0:0:0:
159,345,6329,2,0,L|178:226,1,120,10|0,0:0|3:0,0:0:0:0:
178,226,6629,1,10,0:0:0:0:
33,82,6779,70,0,L|101:68,1,69.0000013160706,2|0,3:2|1:0,0:0:0:0:
313,24,6929,1,10,0:0:0:0:
58,291,7079,5,8,0:0:0:0:
107,238,7154,1,8,0:0:0:0:
178,226,7229,1,8,0:0:0:0:
238,264,7304,1,8,0:0:0:0:
259,332,7379,70,0,B|356:313|356:313|413:233|413:233|517:216,1,300,6|0,3:2|3:0,0:0:0:0:
512,315,7754,1,0,3:0:0:0:
512,315,7829,1,8,0:0:0:0:
428,73,7979,2,0,P|404:92|388:120,1,60,0|0,3:0|1:0,0:0:0:0:
371,216,8129,1,8,0:0:0:0:
239,76,8279,1,0,3:0:0:0:
212,135,8354,1,0,3:0:0:0:
235,196,8429,1,8,0:0:0:0:
47,314,8579,6,0,B|58:296|58:296|94:276,1,60,2|0,3:2|1:0,0:0:0:0:
294,292,8729,2,0,B|272:327|272:327|202:366,1,120,10|0,0:0|3:0,0:0:0:0:
203,365,9029,1,10,0:0:0:0:
23,154,9179,70,0,P|13:184|13:224,1,69.0000013160706,2|0,3:2|1:0,0:0:0:0:
223,94,9329,2,0,P|170:66|91:70,1,138.000002632141,10|0,0:0|3:0,0:0:0:0:
93,69,9629,1,10,0:0:0:0:
294,292,9779,6,0,B|318:219|286:142|271:168|240:79|276:1,1,300,2|0,3:2|3:0,0:0:0:0:
362,52,10154,1,0,3:0:0:0:
362,52,10229,1,8,0:0:0:0:
467,311,10379,70,0,P|366:290|258:357,1,225,6|0,3:2|1:0,0:0:0:0:
501,299,10679,2,0,P|430:223|303:216,1,225,2|0,3:2|1:0,0:3:0:0:
239,326,10979,5,2,0:3:0:0:
197,289,11054,1,2,0:3:0:0:
185,234,11129,2,0,L|190:154,1,60,2|2,0:3|0:3,0:0:0:0:
54,218,11279,69,2,0:3:0:0:
37,165,11354,1,2,0:3:0:0:
54,111,11429,2,0,L|91:62,1,60,2|2,0:3|0:3,0:0:0:0:
277,128,11579,5,2,0:3:0:0:
346,149,11654,1,2,0:3:0:0:
416,127,11729,2,0,L|478:77,1,60,2|2,0:3|0:3,0:0:0:0:
511,316,11879,69,8,0:0:0:0:
440,302,11954,1,8,0:0:0:0:
370,321,12029,1,8,0:0:0:0:
302,344,12104,1,8,0:0:0:0:
230,345,12179,6,0,B|174:318|174:318|204:193|350:259,1,240,6|0,3:2|3:0,0:0:0:0:
392,285,12554,1,0,3:0:0:0:
392,285,12629,1,8,0:0:0:0:
172,40,12779,70,0,L|180:99,1,60,0|0,3:0|1:0,0:0:0:0:
200,226,12929,1,8,0:0:0:0:
63,8,13079,1,0,3:0:0:0:
71,67,13154,1,0,3:0:0:0:
79,126,13229,1,8,0:0:0:0:
208,324,13379,6,0,P|238:320|268:300,1,60,2|0,3:2|1:0,0:0:0:0:
433,144,13529,2,0,P|379:151|326:186,1,120,10|0,0:0|3:0,0:0:0:0:
326,188,13829,1,10,0:0:0:0:
493,313,13979,2,0,L|502:239,1,69.0000013160706,2|0,3:2|1:0,0:0:0:0:
309,51,14129,2,0,L|326:193,1,138.000002632141,10|0,0:0|3:0,0:0:0:0:
326,188,14429,1,10,0:0:0:0:
447,29,14579,70,0,B|401:92|401:92|282:109|198:23,1,300,2|0,3:2|3:0,0:0:0:0:
114,15,14954,1,0,3:0:0:0:
114,15,15029,1,8,0:0:0:0:
0,217,15179,2,0,P|32:211|81:183,1,60,0|0,3:0|1:0,0:0:0:0:
128,119,15329,1,8,0:0:0:0:
141,312,15479,1,0,3:0:0:0:
202,289,15554,1,0,3:0:0:0:
229,229,15629,1,8,0:0:0:0:
403,364,15779,6,0,P|376:346|355:311,1,60,2|0,3:2|1:0,0:0:0:0:
507,183,15929,2,0,P|513:243|502:302,1,120,10|0,0:0|3:0,0:0:0:0:
502,301,16229,1,10,0:0:0:0:
229,229,16379,70,0,P|217:198|220:158,1,69.0000013160706,2|0,3:2|1:0,0:0:0:0:
405,103,16529,1,10,0:0:0:0:
125,0,16679,5,8,0:0:0:0:
53,24,16754,1,8,0:0:0:0:
24,94,16829,1,8,0:0:0:0:
52,164,16904,1,8,0:0:0:0:
121,187,16979,70,0,B|189:141|189:141|292:178|220:347,1,300,6|0,3:2|3:0,0:0:0:0:
141,370,17354,1,0,3:0:0:0:
141,370,17429,1,8,0:0:0:0:
292,204,17579,6,0,P|325:208|363:230,1,60,0|0,3:0|1:0,0:0:0:0:
434,373,17729,1,8,0:0:0:0:
434,106,17879,1,0,3:0:0:0:
488,143,17954,1,0,3:0:0:0:
494,208,18029,1,8,0:0:0:0:
261,288,18179,70,0,P|226:290|191:302,1,60,2|0,3:2|1:0,0:0:0:0:
0,383,18329,2,0,P|32:333|41:264,1,120,10|0,0:0|3:0,0:0:0:0:
41,273,18629,1,10,0:0:0:0:
292,131,18779,6,0,P|257:128|222:116,1,69.0000013160706,2|0,3:2|1:0,0:0:0:0:
4,47,18929,2,0,P|38:100|47:174,1,138.000002632141,10|0,0:0|3:0,0:0:0:0:
47,173,19229,1,10,0:0:0:0:
288,110,19379,70,0,B|277:68|334:12|334:12|383:36|405:140|363:182,1,300,2|0,3:2|3:0,0:0:0:0:
303,247,19754,1,0,3:0:0:0:
303,247,19829,1,8,0:0:0:0:
471,303,19979,6,0,B|431:272|328:284|328:284|274:318|264:346,1,225,6|0,3:2|1:0,0:0:0:0:
157,266,20279,2,0,P|210:279|131:350,1,225,2|0,3:2|1:0,0:0:0:0:
32,283,20579,69,8,0:0:0:0:
53,239,20654,1,8,0:0:0:0:
54,190,20729,2,0,L|41:112,1,60,2|2,0:3|0:3,0:0:0:0:
193,141,20879,5,2,0:3:0:0:
180,90,20954,1,2,0:3:0:0:
155,46,21029,2,0,L|112:3,1,60,2|2,0:3|0:3,0:0:0:0:
303,203,21179,69,2,0:3:0:0:
353,158,21254,1,2,0:3:0:0:
413,130,21329,2,0,L|490:115,1,60,2|2,0:3|0:3,0:3:0:0:
208,328,21479,5,2,0:3:0:0:
271,320,21554,1,2,0:3:0:0:
330,336,21629,2,0,L|385:360,1,60,2|2,0:3|0:3,0:3:0:0:
122,242,21779,54,0,P|143:163|115:90,1,155.999992858887,6|0,3:2|0:0,0:0:0:0:
118,95,22229,1,0,0:0:0:0:
267,36,22379,1,2,0:0:0:0:
227,138,22529,2,0,B|293:142|293:142|321:153|321:153|408:158,1,155.999992858887,2|2,0:0|0:0,0:0:0:0:
509,284,22979,70,0,B|449:287|449:287|421:298|421:298|355:302,1,155.999992858887,2|0,0:0|0:0,0:0:0:0:
247,379,23429,1,0,0:0:0:0:
257,223,23579,1,2,0:0:0:0:
143,196,23729,2,0,L|161:272,1,77.9999964294435
356,303,24029,1,2,0:0:0:0:
65,333,24179,6,0,P|138:317|211:350,1,155.999992858887,2|0,0:0|0:0,0:0:0:0:
342,347,24629,1,0,0:0:0:0:
246,184,24779,2,0,P|240:224|246:266,3,77.9999964294435,2|0|0|0,0:0|0:0|0:0|0:0,0:0:0:0:
366,140,25379,2,0,P|372:180|366:222,3,77.9999964294435
474,270,25979,54,0,B|372:239|372:239|262:307,1,225,2|0,3:2|1:0,0:0:0:0:
82,346,26279,2,0,B|184:377|184:377|294:309,1,225,2|0,3:2|1:0,0:0:0:0:
24,266,26579,22,0,B|59:237|48:175|48:175|34:112,1,155.999992858887,6|0,0:0|0:0,0:0:0:0:
0,0,27029,1,0,0:0:0:0:
174,0,27179,2,0,L|157:76,2,77.9999964294435,2|2|2,0:0|0:0|0:0,0:0:0:0:
133,173,27629,1,2,0:0:0:0:
91,356,27779,70,0,B|128:383|175:368|175:368|248:340,1,155.999992858887,2|0,0:0|0:0,0:0:0:0:
359,291,28229,1,0,0:0:0:0:
486,373,28379,2,0,L|503:291,1,77.9999964294435,2|0,0:0|0:0,0:0:0:0:
335,170,28679,1,0,0:0:0:0:
359,291,28829,1,2,0:0:0:0:
455,180,28979,6,0,P|382:137|354:70,1,155.999992858887,2|0,0:0|0:0,0:0:0:0:
467,1,29429,1,0,0:0:0:0:
335,170,29579,5,10,0:0:0:0:
276,174,29654,1,8,0:0:0:0:
229,137,29729,1,0,3:0:0:0:
210,118,29804,1,0,3:0:0:0:
187,106,29879,1,0,3:0:0:0:
162,100,29954,1,0,3:0:0:0:
135,101,30029,1,0,3:0:0:0:
111,110,30104,1,0,3:0:0:0:
90,123,30179,22,0,B|52:152|33:193|33:193|-43:146|60:26,1,225,6|0,3:2|1:0,0:0:0:0:
230,35,30479,70,0,P|226:67|213:98,1,60,8|0,0:0|1:0,0:0:0:0:
175,174,30629,2,0,P|153:198|125:216,1,60,8|0,0:0|1:0,0:0:0:0:
324,317,30779,22,0,B|406:287|406:287|432:244|432:244|513:209,1,225,6|0,3:2|1:0,0:0:0:0:
512,209,31079,53,8,0:0:0:0:
460,384,31229,1,8,0:0:0:0:
255,226,31379,70,0,P|184:216|60:321,1,240,6|0,3:2|3:0,0:0:0:0:
177,369,31829,1,0,3:0:0:0:
62,234,31979,2,0,P|70:172|48:107,1,120,8|0,0:0|3:0,0:0:0:0:
54,117,32279,1,0,3:0:0:0:
228,23,32429,1,2,3:2:0:0:
124,53,32579,6,0,B|186:41|232:94|232:94|237:92|237:92|280:146|357:134,1,240,2|0,3:2|3:0,0:0:0:0:
438,98,33029,1,0,3:0:0:0:
506,183,33179,1,8,0:0:0:0:
462,281,33329,1,0,3:0:0:0:
353,282,33479,1,0,3:0:0:0:
261,141,33629,1,2,3:2:0:0:
202,379,33779,70,0,B|165:349|112:346|112:346|92:305|92:305|29:308|-13:267,1,240,2|0,3:2|3:0,0:0:0:0:
76,176,34229,1,0,3:0:0:0:
202,379,34379,1,8,0:0:0:0:
297,189,34529,1,0,3:0:0:0:
103,269,34679,1,0,3:0:0:0:
318,322,34829,1,0,3:0:0:0:
170,50,34979,6,0,B|150:105|196:161|196:161|214:220|194:280,1,240,2|0,3:2|3:0,0:0:0:0:
56,154,35429,1,0,3:0:0:0:
262,82,35579,6,0,B|337:91|373:161|373:161|425:95|486:91,1,225,14|0,0:0|1:0,0:0:0:0:
492,22,35879,2,0,B|461:41|454:89|454:89|455:147|504:234,1,225,6|0,3:2|1:0,0:0:0:0:
510,319,36179,54,0,P|469:262|459:369,1,240,6|0,3:2|3:0,0:0:0:0:
436,365,36554,1,0,3:0:0:0:
436,365,36629,1,0,3:0:0:0:
255,308,36779,1,8,0:0:0:0:
404,228,36929,1,0,3:0:0:0:
166,162,37079,1,0,3:0:0:0:
315,242,37229,1,2,3:2:0:0:
159,380,37379,6,0,B|114:306|114:306|169:151,1,240,2|0,3:2|3:0,0:0:0:0:
221,25,37829,1,0,3:0:0:0:
306,228,37979,1,8,0:0:0:0:
367,62,38129,1,0,3:0:0:0:
174,141,38279,1,0,3:0:0:0:
428,181,38429,1,2,3:2:0:0:
221,25,38579,70,0,P|117:26|43:151,1,240,2|0,3:2|3:0,0:0:0:0:
63,307,39029,1,0,3:0:0:0:
172,144,39179,1,8,0:0:0:0:
225,143,39254,1,8,0:0:0:0:
262,182,39329,1,0,3:0:0:0:
286,197,39404,1,0,3:0:0:0:
314,204,39479,1,0,3:0:0:0:
342,202,39554,1,0,3:0:0:0:
369,191,39629,1,0,3:0:0:0:
390,172,39704,1,0,3:0:0:0:
405,148,39779,22,0,B|437:125|439:72|439:72|431:177|519:227,1,225,6|0,3:2|1:0,0:0:0:0:
512,282,40079,70,0,P|513:312|509:344,1,60,0|0,3:0|1:0,0:0:0:0:
351,384,40229,1,0,3:0:0:0:
305,355,40304,1,0,3:0:0:0:
252,369,40379,22,0,B|199:391|147:358|147:358|121:292|43:298,1,225,14|0,0:0|1:0,0:0:0:0:
66,384,40679,2,0,P|135:331|81:217,1,225,0|0,3:2|1:0,0:0:0:0:
0,179,40979,38,0,B|83:193|83:193|221:95,1,240,6|0,3:2|3:0,0:0:0:0:
282,44,41354,1,0,3:0:0:0:
282,44,41429,1,0,3:0:0:0:
182,256,41579,1,8,0:0:0:0:
62,91,41729,1,0,3:0:0:0:
188,238,41879,1,0,3:0:0:0:
334,121,42029,1,2,3:2:0:0:
181,32,42179,6,0,B|188:133|188:133|210:152|210:152|221:282,1,240,2|0,3:2|3:0,0:0:0:0:
173,384,42629,1,0,3:0:0:0:
388,322,42779,1,8,0:0:0:0:
222,283,42929,1,0,3:0:0:0:
393,173,43079,1,0,3:0:0:0:
292,344,43229,1,2,3:2:0:0:
405,154,43379,70,0,B|429:119|423:63|423:63|341:40|274:94,1,240,2|0,3:2|3:0,0:0:0:0:
160,157,43829,1,0,3:0:0:0:
333,243,43979,1,8,0:0:0:0:
191,72,44129,1,0,3:0:0:0:
233,257,44279,1,0,3:0:0:0:
405,154,44429,1,0,3:0:0:0:
251,4,44579,6,0,B|225:34|170:43|170:43|142:90|93:92|93:92|58:98|32:119,1,240,2|0,3:2|3:0,0:0:0:0:
0,267,45029,1,0,3:0:0:0:
180,372,45179,6,0,P|268:298|377:260,1,225,14|0,0:0|1:0,0:0:0:0:
487,296,45479,2,0,P|396:292|473:224,1,225,6|0,3:2|1:0,0:0:0:0:
512,161,45779,54,0,B|458:201|359:130|359:130|425:136|462:76,1,240,6|0,3:2|3:0,0:0:0:0:
375,41,46154,1,0,3:0:0:0:
375,41,46229,1,0,3:0:0:0:
298,209,46379,1,8,0:0:0:0:
227,64,46529,1,0,3:0:0:0:
82,135,46679,1,0,3:0:0:0:
153,279,46829,1,2,3:2:0:0:
311,112,46979,6,0,B|351:112|386:132|386:132|439:217|379:301,1,240,2|0,3:2|3:0,0:0:0:0:
324,384,47429,1,0,3:0:0:0:
457,231,47579,1,8,0:0:0:0:
338,370,47729,1,0,3:0:0:0:
505,325,47879,1,0,3:0:0:0:
312,211,48029,1,2,3:2:0:0:
201,331,48179,70,0,B|158:335|127:370|127:370|24:353|51:259,1,240,2|0,3:2|3:0,0:0:0:0:
76,125,48629,1,0,3:0:0:0:
287,213,48779,1,8,0:0:0:0:
327,167,48854,1,8,0:0:0:0:
369,123,48929,2,0,L|411:74,1,60,0|0,3:0|3:0,0:0:0:0:
179,182,49079,5,0,3:0:0:0:
176,241,49154,1,0,3:0:0:0:
203,293,49229,1,0,3:0:0:0:
254,324,49304,1,0,3:0:0:0:
313,326,49379,6,0,B|344:315|356:272|356:272|360:278|360:278|447:274|469:361,1,225,6|0,3:2|1:0,0:0:0:0:
497,380,49679,54,0,P|509:353|512:319,1,60,0|0,3:0|1:0,0:0:0:0:
369,239,49829,1,0,3:0:0:0:
353,181,49904,1,0,3:0:0:0:
369,122,49979,38,0,P|385:89|384:52,1,75,10|8,0:0|0:0,0:0:0:0:
512,221,50129,2,0,P|495:188|497:151,1,75,0|0,3:0|3:0,0:0:0:0:
296,74,50279,1,10,0:0:0:0:
223,94,50354,1,8,0:0:0:0:
151,115,50429,1,8,0:0:0:0:
79,136,50504,1,8,0:0:0:0:
7,157,50579,37,6,3:2:0:0:
119,0,50729,1,8,0:0:0:0:
290,164,50879,1,0,3:0:0:0:
284,224,50954,1,0,3:0:0:0:
279,284,51029,1,8,0:0:0:0:
296,74,51179,5,2,3:2:0:0:
279,284,51329,1,10,0:0:0:0:
497,140,51479,1,0,3:0:0:0:
437,134,51554,1,0,3:0:0:0:
377,129,51629,1,8,0:0:0:0:
476,341,51779,69,2,3:2:0:0:
497,140,51929,1,8,0:0:0:0:
279,284,52079,2,0,P|208:274|152:220,1,138.000002632141,0|8,3:0|0:0,0:0:0:0:
172,4,52379,5,2,3:2:0:0:
253,177,52529,1,10,0:0:0:0:
13,151,52679,1,0,3:0:0:0:
246,71,52829,1,8,0:0:0:0:
305,69,52904,1,8,0:0:0:0:
360,92,52979,70,0,B|408:134|406:210|406:210|373:243|373:295,1,207.000003948212,6|0,3:2|1:0,0:0:0:0:
475,288,53279,6,0,B|401:274|401:274|313:313|313:313|241:294,1,243.000000926971,2|0,3:2|1:0,0:0:0:0:
159,319,53579,70,0,B|317:362|317:362|226:375,1,243.000000926971,2|0,3:2|1:0,0:0:0:0:
90,375,53879,6,0,B|143:315|143:315|113:173,1,225,2|0,3:2|1:0,0:0:0:0:
30,116,54179,70,0,P|107:159|86:70,1,207.000003948212,2|0,3:2|1:0,0:0:0:0:
31,25,54479,6,0,B|92:60|153:37|153:37|215:12|276:33,1,243.000000926971,2|0,3:2|1:0,0:0:0:0:
289,111,54779,70,0,B|297:64|331:41|331:41|380:104|348:202,1,225,2|0,3:2|1:0,0:0:0:0:
264,241,55079,5,8,0:0:0:0:
307,275,55154,1,8,0:0:0:0:
362,285,55229,1,8,0:0:0:0:
416,270,55304,1,8,0:0:0:0:
456,231,55379,69,6,3:2:0:0:
512,384,55529,1,8,0:0:0:0:
230,337,55679,1,0,3:0:0:0:
247,289,55754,1,0,3:0:0:0:
264,241,55829,1,8,0:0:0:0:
456,231,55979,5,2,3:2:0:0:
230,337,56129,1,10,0:0:0:0:
422,135,56279,1,0,3:0:0:0:
439,183,56354,1,0,3:0:0:0:
456,231,56429,1,8,0:0:0:0:
264,241,56579,69,2,3:2:0:0:
422,135,56729,1,8,0:0:0:0:
215,25,56879,2,0,P|194:90|206:157,1,138.000002632141,0|8,3:0|0:0,0:0:0:0:
377,301,57179,5,2,3:2:0:0:
313,99,57329,1,10,0:0:0:0:
169,249,57479,1,0,3:0:0:0:
429,190,57629,1,8,0:0:0:0:
422,135,57704,1,8,0:0:0:0:
415,80,57779,70,0,B|364:63|345:11|345:11|299:46|244:29,1,207.000003948212,6|0,3:2|1:0,0:0:0:0:
164,0,58079,6,0,P|221:54|120:26,1,243.000000926971,2|0,3:2|1:0,0:0:0:0:
24,71,58379,70,0,P|94:177|229:181,1,243.000000926971,6|0,3:2|1:0,0:0:0:0:
281,143,58679,6,0,B|227:100|227:100|270:261,1,225,2|0,3:2|1:0,0:0:0:0:
374,250,58979,70,0,B|307:260|307:260|245:317|245:317|171:331,1,225,6|0,3:2|1:0,0:0:0:0:
0,299,59279,6,0,B|77:284|77:284|151:217|151:217|238:201,1,261.000007965088,6|0,3:2|1:0,0:0:0:0:
289,283,59579,70,0,B|345:344|345:344|420:273|357:151,1,243.000000926971,6|0,3:2|1:0,0:0:0:0:
484,172,59879,5,8,0:0:0:0:
431,186,59954,1,8,0:0:0:0:
380,163,60029,1,2,0:3:0:0:
354,115,60104,1,2,0:3:0:0:
363,60,60179,70,0,P|437:60|494:21,2,138.000002632141,6|8|0,3:2|0:0|3:0,0:0:0:0:
294,6,60554,1,0,3:0:0:0:
294,6,60629,1,8,0:0:0:0:
249,193,60779,1,2,3:2:0:0:
60,33,60929,2,0,L|196:51,1,138.000002632141,10|0,0:0|3:0,0:0:0:0:
269,108,61154,1,0,3:0:0:0:
269,108,61229,1,10,0:0:0:0:
97,322,61379,6,0,B|92:273|92:273|103:245|103:245|95:184,2,138.000002632141,2|8|0,3:2|0:0|3:0,0:0:0:0:
167,384,61754,1,0,3:0:0:0:
167,384,61829,1,8,0:0:0:0:
304,258,61979,1,2,3:2:0:0:
477,372,62129,2,0,P|505:316|491:232,1,138.000002632141,10|0,0:0|3:0,0:0:0:0:
446,177,62354,1,0,3:0:0:0:
446,177,62429,1,10,0:0:0:0:
249,341,62579,70,0,L|396:358,2,138.000002632141,6|8|0,3:2|0:0|3:0,0:0:0:0:
195,273,62954,1,0,3:0:0:0:
195,273,63029,1,8,0:0:0:0:
26,371,63179,1,2,3:2:0:0:
105,110,63329,2,0,B|113:163|113:163|104:201|104:201|110:245,1,138.000002632141,10|0,0:0|3:0,0:0:0:0:
195,273,63554,1,0,3:0:0:0:
195,273,63629,1,10,0:0:0:0:
397,180,63779,6,0,P|471:196|505:249,2,138.000002632141,2|8|0,3:2|0:0|3:0,0:0:0:0:
249,341,64229,1,8,0:0:0:0:
414,271,64379,1,2,3:2:0:0:
246,197,64529,1,10,0:0:0:0:
400,361,64679,1,8,0:0:0:0:
450,355,64754,1,8,0:0:0:0:
489,324,64829,1,10,0:0:0:0:
505,276,64904,1,8,0:0:0:0:
493,228,64979,70,0,B|464:185|464:185|485:98,2,138.000002632141,6|8|0,3:2|0:0|3:0,0:0:0:0:
414,271,65354,1,0,3:0:0:0:
414,271,65429,1,8,0:0:0:0:
246,197,65579,1,2,3:2:0:0:
375,24,65729,2,0,P|439:48|484:101,1,138.000002632141,10|0,0:0|3:0,0:0:0:0:
468,185,65954,1,0,3:0:0:0:
468,185,66029,1,10,0:0:0:0:
252,64,66179,6,0,B|201:57|201:57|170:75|170:75|109:68,2,138.000002632141,2|8|0,3:2|0:0|3:0,0:0:0:0:
312,129,66554,1,0,3:0:0:0:
312,129,66629,1,8,0:0:0:0:
239,289,66779,1,2,3:2:0:0:
319,112,66929,1,2,3:2:0:0:
72,0,67079,2,0,L|57:137,1,138.000002632141,8|2,0:0|3:2,0:0:0:0:
289,349,67379,69,4,3:2:0:0:
247,374,67454,1,0,3:0:0:0:
199,365,67529,1,8,0:0:0:0:
168,328,67604,1,8,0:0:0:0:
168,280,67679,1,0,3:0:0:0:
199,243,67754,1,0,3:0:0:0:
247,235,67829,1,8,0:0:0:0:
289,259,67904,1,8,0:0:0:0:
305,304,67979,1,0,3:0:0:0:
348,329,68054,1,0,3:0:0:0:
399,327,68129,1,8,0:0:0:0:
441,298,68204,1,8,0:0:0:0:
460,251,68279,1,0,3:0:0:0:
453,203,68354,1,0,3:0:0:0:
423,164,68429,1,8,0:0:0:0:
377,146,68504,1,8,0:0:0:0:
329,154,68579,5,8,0:0:0:0:
375,239,68729,1,8,0:0:0:0:
472,28,68879,69,8,0:0:0:0:
453,203,69029,1,8,0:0:0:0:
218,301,69179,5,8,0:0:0:0:
245,109,69329,1,8,0:0:0:0:
465,384,69479,69,8,0:0:0:0:
381,50,69629,1,8,0:0:0:0:
134,358,69779,54,2,B|70:374|31:312|31:312|40:317|40:317|77:261|54:177|54:177|63:160|63:160|42:92|65:53|65:53|55:23|39:4|39:4|45:44|23:75|23:75|127:104|209:53,1,720,4|2,3:2|0:0,0:0:0:0:
348,95,72179,6,2,B|365:46|437:19|437:19|465:99|465:99|365:174|397:295|397:295|415:236|478:213|478:213|415:236|355:231|313:190,1,720,0|2,0:0|0:0,0:0:0:0:
512,329,74279,1,0,3:0:0:0:
121,315,74579,70,2,B|156:307|192:316|192:316|196:311|196:311|242:325|288:312|288:312|240:303|196:276|180:196|197:148|197:148|129:144|126:207|42:192|42:192|93:238|105:303|90:346,1,720,4|2,3:2|0:0,0:0:0:0:
287,372,76979,21,8,0:0:0:0:
314,192,77129,1,8,0:0:0:0:
200,342,77279,5,8,0:0:0:0:
397,228,77429,1,8,0:0:0:0:
194,226,77579,69,8,0:0:0:0:
441,316,77729,1,8,0:0:0:0:
257,102,77879,5,8,0:0:0:0:
372,374,78029,1,8,0:0:0:0:
437,67,78179,5,8,0:0:0:0:
437,67,78629,53,0,3:0:0:0:
409,61,78704,1,0,3:0:0:0:
381,56,78779,1,2,0:3:0:0:
353,51,78854,1,2,0:3:0:0:
326,46,78929,1,0,3:0:0:0:
298,41,79004,1,0,3:0:0:0:
270,36,79079,54,0,B|270:50|270:50|268:56|268:56|268:73,1,36,8|0,0:0|1:0,0:0:0:0:
339,134,79379,54,0,B|279:111|219:143|219:143|154:179|94:151,1,251.999992309571,4|0,3:2|1:0,0:0:0:0:
7,78,79679,2,0,B|53:93|80:137|80:137|85:225|-21:268,1,251.999992309571,8|0,0:0|1:0,0:0:0:0:
33,334,79979,2,0,P|71:313|112:281,1,83.9999974365235,2|0,3:2|1:0,0:0:0:0:
190,89,80129,1,2,3:2:0:0:
250,334,80279,1,10,0:0:0:0:
511,103,80429,6,0,B|422:78|422:78|300:121|300:121|175:85,1,335.999989746094,2|0,3:2|3:0,0:0:0:0:
8,188,80879,2,0,B|-17:248|-17:248|-11:307|41:339,1,167.999994873047,8|0,0:0|0:0,0:0:0:0:
275,358,81179,1,2,3:2:0:0:
94,249,81329,1,2,3:2:0:0:
309,141,81479,2,0,P|349:210|333:297,1,167.999994873047,10|0,0:0|0:0,0:0:0:0:
149,64,81779,70,0,B|209:19|263:64|263:64|321:117|394:73,1,251.999992309571,0|0,3:0|1:0,0:0:0:0:
494,92,82079,2,0,P|402:92|474:7,1,251.999992309571,8|0,0:0|1:0,0:0:0:0:
434,156,82379,2,0,L|453:243,1,83.9999974365235,2|0,3:2|1:0,0:0:0:0:
275,358,82529,1,2,3:2:0:0:
349,181,82679,1,10,0:0:0:0:
512,358,82829,6,0,B|441:342|390:370|390:370|315:338|315:338|253:373|158:354,1,335.999989746094,2|0,3:2|3:0,0:0:0:0:
8,244,83279,2,0,P|23:159|94:112,1,167.999994873047,10|0,0:0|0:0,0:0:0:0:
270,71,83579,1,2,3:2:0:0:
112,217,83729,1,2,3:2:0:0:
0,46,83879,1,10,0:0:0:0:
212,173,84029,1,2,3:2:0:0:
432,16,84179,70,0,B|470:76|439:133|439:133|445:141|445:141|395:189|425:264,1,251.999992309571,6|0,3:2|1:0,0:0:0:0:
512,306,84479,2,0,P|401:312|481:370,1,251.999992309571,8|0,0:0|1:0,0:0:0:0:
360,318,84779,2,0,P|317:325|282:349,1,83.9999974365235,2|0,3:2|1:0,0:0:0:0:
164,127,84929,1,2,3:2:0:0:
343,231,85079,1,10,0:0:0:0:
56,354,85229,6,0,B|28:283|73:234|73:234|89:176|28:115|28:115|66:78|56:20,1,335.999989746094,6|0,3:2|3:0,0:0:0:0:
252,204,85679,2,0,B|245:262|245:262|208:300|148:306,1,167.999994873047,8|0,0:0|0:0,0:0:0:0:
207,17,85979,1,2,3:2:0:0:
347,164,86129,1,2,3:2:0:0:
343,231,86204,1,0,3:0:0:0:
340,299,86279,1,10,0:0:0:0:
512,384,86429,1,0,3:0:0:0:
500,72,86579,70,0,B|449:27|384:75|384:75|347:161|246:108,1,251.999992309571,6|0,3:2|1:0,0:0:0:0:
209,39,86879,2,0,B|244:48|262:100|262:100|206:179|101:117,1,251.999992309571,8|0,0:0|1:0,0:0:0:0:
51,60,87179,2,0,P|31:95|26:140,1,83.9999974365235,2|0,3:2|1:0,0:0:0:0:
185,328,87329,1,2,3:2:0:0:
113,123,87479,1,10,0:0:0:0:
22,368,87629,6,0,B|92:297|181:332|181:332|185:325|185:325|267:376|346:315,1,335.999989746094,2|0,3:2|3:0,0:0:0:0:
512,384,88079,2,0,P|453:320|448:237,1,167.999994873047,8|0,0:0|0:0,0:0:0:0:
337,58,88379,1,2,3:2:0:0:
265,253,88529,1,2,3:2:0:0:
480,129,88679,2,0,B|409:134|409:134|382:156|382:156|303:162,1,167.999994873047,10|0,0:0|0:0,0:0:0:0:
108,13,88979,70,0,B|140:47|140:47|139:58|139:58|163:81|163:81|184:190|60:230,1,251.999992309571,0|0,3:0|1:0,0:0:0:0:
0,229,89279,2,0,B|38:217|38:217|37:209|37:209|38:217|38:217|79:208|139:238|155:317|100:364,1,251.999992309571,8|0,0:0|1:0,0:0:0:0:
39,384,89579,2,0,P|82:377|144:388,1,83.9999974365235,2|0,3:2|1:0,0:0:0:0:
301,158,89729,1,2,3:2:0:0:
98,214,89879,1,10,0:0:0:0:
409,380,90029,6,0,B|429:313|379:243|379:243|376:197|402:166|402:166|376:119|396:59,1,335.999989746094,2|0,3:2|3:0,0:0:0:0:
166,261,90479,2,0,P|222:320|304:334,1,167.999994873047,10|0,0:0|0:0,0:0:0:0:
482,108,90779,1,2,3:2:0:0:
278,217,90929,1,2,3:2:0:0:
405,34,91079,1,10,0:0:0:0:
379,240,91229,1,2,3:2:0:0:
207,68,91379,70,0,B|126:0|53:109|53:109|110:144|121:222,1,251.999992309571,6|0,3:2|1:0,0:0:0:0:
8,204,91679,2,0,P|123:212|172:334,1,251.999992309571,8|0,0:0|1:0,0:0:0:0:
74,384,91979,2,0,P|58:345|61:304,1,83.9999974365235,2|0,3:2|1:0,0:0:0:0:
245,384,92129,1,2,3:2:0:0:
437,279,92279,1,10,0:0:0:0:
281,9,92429,6,0,B|303:79|268:126|268:126|271:175|317:201|317:201|287:262|305:325,1,335.999989746094,6|0,3:2|3:0,0:0:0:0:
510,173,92879,2,0,P|447:125|358:126,1,167.999994873047,8|0,0:0|0:0,0:0:0:0:
395,384,93179,1,2,3:2:0:0:
239,208,93329,1,2,3:2:0:0:
245,149,93404,1,0,3:0:0:0:
251,90,93479,1,10,0:0:0:0:
406,238,93629,1,2,3:2:0:0:
207,0,93779,5,6,3:2:0:0:
256,192,93854,12,0,95429,0:0:0:0:
207,0,95579,53,8,0:0:0:0:
211,46,95654,1,8,0:0:0:0:
215,92,95729,1,8,0:0:0:0:
219,138,95804,1,8,0:0:0:0:
296,183,95879,5,0,3:0:0:0:
294,206,95954,1,0,3:0:0:0:
292,229,96029,1,0,3:0:0:0:
290,252,96104,1,0,3:0:0:0:
363,307,96179,38,0,B|295:285|242:314|242:314|179:345|131:325,1,240,6|0,3:2|3:0,0:0:0:0:
0,205,96629,1,0,3:0:0:0:
198,112,96779,2,0,P|179:168|172:228,1,120,8|0,0:0|3:0,0:0:0:0:
171,228,97079,1,0,3:0:0:0:
29,124,97229,1,2,3:2:0:0:
169,0,97379,6,0,B|218:29|279:6|279:6|296:13|296:13|352:10|395:47,1,240,2|0,3:2|3:0,0:0:0:0:
475,200,97829,1,0,3:0:0:0:
314,113,97979,1,8,0:0:0:0:
506,79,98129,1,0,3:0:0:0:
355,223,98279,1,0,3:0:0:0:
462,341,98429,1,2,3:2:0:0:
475,200,98579,70,0,B|405:191|405:191|311:218|311:218|235:202,1,240,2|0,3:2|3:0,0:0:0:0:
90,167,99029,1,0,3:0:0:0:
259,304,99179,1,8,0:0:0:0:
182,108,99329,1,0,3:0:0:0:
117,307,99479,1,0,3:0:0:0:
240,203,99629,1,0,3:0:0:0:
84,50,99779,6,0,P|167:58|317:5,1,240,2|0,3:2|3:0,0:0:0:0:
469,60,100229,1,0,3:0:0:0:
406,288,100379,6,0,B|365:271|333:243|333:243|351:178|365:108,1,225,14|0,0:0|1:0,0:0:0:0:
436,200,100679,2,0,B|364:238|294:260|294:260|274:294|266:332,1,225,6|0,3:2|1:0,0:0:0:0:
341,384,100979,54,0,P|215:340|100:350,1,240,6|0,3:2|3:0,0:0:0:0:
5,226,101429,1,0,3:0:0:0:
176,291,101579,1,8,0:0:0:0:
81,145,101729,1,0,3:0:0:0:
29,312,101879,1,0,3:0:0:0:
190,177,102029,1,2,3:2:0:0:
0,70,102179,6,0,B|73:98|131:94|131:94|168:34|119:-2,1,240,2|0,3:2|3:0,0:0:0:0:
272,112,102629,1,0,3:0:0:0:
92,236,102779,2,0,P|70:180|77:122,1,120,8|0,0:0|3:0,0:0:0:0:
244,18,103079,1,0,3:0:0:0:
184,164,103229,1,2,3:2:0:0:
455,204,103379,70,0,B|395:198|383:116|383:116|378:120|378:120|306:89|260:118,1,240,2|0,3:2|3:0,0:0:0:0:
179,256,103829,1,0,3:0:0:0:
386,316,103979,5,8,0:0:0:0:
334,299,104054,1,8,0:0:0:0:
282,314,104129,1,0,3:0:0:0:
264,338,104204,1,0,3:0:0:0:
241,357,104279,1,0,3:0:0:0:
214,369,104354,1,0,3:0:0:0:
184,374,104429,1,0,3:0:0:0:
155,371,104504,1,0,3:0:0:0:
127,361,104579,6,0,B|149:318|111:249|111:249|26:263|35:369,1,225,6|0,3:2|1:0,0:0:0:0:
0,213,104879,54,0,B|9:174|9:174|4:154,1,60,0|0,3:0|1:0,0:0:0:0:
224,92,105029,1,0,3:0:0:0:
172,108,105104,1,0,3:0:0:0:
119,94,105179,38,0,B|169:56|232:71|232:71|266:120|336:118,1,225,14|0,0:0|1:0,0:0:0:0:
384,26,105479,2,0,B|362:70|350:111|350:111|382:173|413:254,1,225,0|0,3:0|1:0,0:0:0:0:
479,318,105779,38,0,B|402:340|402:340|371:334|340:320|340:320|298:338|250:352,1,240,6|8,3:2|0:0,0:0:0:0:
52,316,106229,1,0,3:0:0:0:
174,162,106379,2,0,B|173:200|184:232|184:232|170:255|162:276,1,120,0|0,3:0|3:0,0:0:0:0:
334,384,106679,1,8,0:0:0:0:
310,179,106829,1,2,3:2:0:0:
60,110,106979,6,0,B|110:113|161:122|161:122|217:89|286:64,1,240,2|8,3:2|0:0,0:0:0:0:
435,89,107429,1,0,3:0:0:0:
376,275,107579,2,0,P|350:218|299:171,1,120,0|0,3:0|3:0,0:0:0:0:
471,368,107879,1,8,0:0:0:0:
512,190,108029,1,2,3:2:0:0:
265,277,108179,70,0,B|207:250|151:279|151:279|146:272|146:272|98:321|18:305,1,240,2|8,3:2|0:0,0:0:0:0:
210,380,108629,1,0,3:0:0:0:
61,208,108779,1,0,3:0:0:0:
279,289,108929,1,0,3:0:0:0:
226,104,109079,1,8,0:0:0:0:
46,217,109229,1,0,3:0:0:0:
210,380,109379,6,0,B|260:344|324:324|324:324|378:343|439:351,1,240,2|0,3:2|3:0,0:0:0:0:
512,202,109829,1,0,3:0:0:0:
398,58,109979,6,0,B|368:43|329:38|329:38|290:58|248:63|248:63|215:48|182:46,1,225,14|0,0:0|1:0,0:0:0:0:
74,4,110279,2,0,B|141:9|158:84|158:84|148:88|148:88|125:139|56:124,1,225,6|0,3:2|1:0,0:0:0:0:
0,190,110579,54,0,B|78:170|78:170|166:202|166:202|252:184,1,240,6|8,3:2|0:0,0:0:0:0:
404,229,111029,1,0,3:0:0:0:
327,39,111179,2,0,B|315:85|315:85|329:157,1,120,0|0,3:0|3:0,0:0:0:0:
507,249,111479,1,8,0:0:0:0:
415,92,111629,1,2,3:2:0:0:
303,265,111779,6,0,B|312:329|259:359|259:359|261:366|261:366|182:328|121:371,1,240,2|8,3:2|0:0,0:0:0:0:
172,212,112229,1,0,3:0:0:0:
28,347,112379,2,0,P|38:287|31:216,1,120,0|0,3:0|3:0,0:0:0:0:
123,59,112679,1,8,0:0:0:0:
181,236,112829,1,2,3:2:0:0:
0,58,112979,70,0,B|63:40|123:59|123:59|173:16|246:6,1,240,2|0,3:2|3:0,0:0:0:0:
175,222,113429,1,0,3:0:0:0:
315,126,113579,5,8,0:0:0:0:
366,108,113654,1,8,0:0:0:0:
415,130,113729,1,0,3:0:0:0:
444,129,113804,1,0,3:0:0:0:
471,116,113879,1,0,3:0:0:0:
490,93,113954,1,0,3:0:0:0:
498,65,114029,1,0,3:0:0:0:
494,35,114104,1,0,3:0:0:0:
478,10,114179,6,0,B|483:66|472:106|472:106|488:144|488:144|475:188|482:249,1,225,6|0,3:2|1:0,0:0:0:0:
466,322,114479,70,0,B|451:319|436:316|436:316|421:307|410:293,1,60,0|0,3:0|1:0,0:0:0:0:
258,197,114629,1,0,3:0:0:0:
204,197,114704,1,0,3:0:0:0:
162,231,114779,6,0,P|158:272|167:317,1,75,10|8,0:0|0:0,0:0:0:0:
344,231,114929,2,0,P|348:190|339:145,1,75,0|0,3:0|3:0,0:0:0:0:
197,18,115079,5,10,0:0:0:0:
129,45,115154,1,8,0:0:0:0:
93,110,115229,1,8,0:0:0:0:
106,182,115304,1,8,0:0:0:0:
162,231,115379,37,6,3:2:0:0:
268,95,115529,1,0,3:0:0:0:
463,72,115679,2,0,B|462:101|469:134|469:134|459:170|433:199,1,138.000002632141,10|0,0:0|3:0,0:0:0:0:
464,333,115979,5,2,3:2:0:0:
344,231,116129,1,0,3:0:0:0:
186,340,116279,2,0,B|155:342|125:360|125:360|94:338|93:297,1,138.000002632141,10|0,0:0|3:0,0:0:0:0:
183,83,116579,69,2,3:2:0:0:
0,167,116729,1,0,3:0:0:0:
77,0,116879,2,0,B|93:26|95:55|95:55|85:101|113:141,1,138.000002632141,10|0,0:0|3:0,0:0:0:0:
228,0,117179,5,2,3:2:0:0:
86,224,117329,1,0,3:0:0:0:
31,211,117404,1,0,3:0:0:0:
0,167,117479,1,10,0:0:0:0:
274,104,117629,70,0,B|344:117|369:172|369:172|390:168|390:168|450:194|515:138,1,276.000005264282,6|2,3:2|3:2,0:0:0:0:
477,191,118004,1,0,3:0:0:0:
480,253,118079,2,0,B|464:280|471:314|471:314|497:337|493:401,1,138.000002632141,10|0,0:0|3:0,0:0:0:0:
442,86,118379,5,2,3:2:0:0:
370,281,118529,1,0,3:0:0:0:
274,104,118679,2,0,B|235:99|199:86|199:86|172:102|136:107,1,138.000002632141,10|0,0:0|3:0,0:0:0:0:
0,148,118979,69,10,0:0:0:0:
166,329,119129,1,0,3:0:0:0:
140,9,119279,5,10,0:0:0:0:
83,241,119429,1,0,3:0:0:0:
292,219,119579,69,10,0:0:0:0:
11,80,119729,1,0,3:0:0:0:
5,113,119804,1,0,3:0:0:0:
0,148,119879,1,10,0:0:0:0:
216,97,120029,6,0,B|277:68|326:90|326:90|353:85|353:85|389:126|478:119,1,276.000005264282,6|2,3:2|3:2,0:0:0:0:
494,88,120404,1,0,3:0:0:0:
498,53,120479,1,10,0:0:0:0:
287,180,120629,1,0,3:0:0:0:
494,201,120779,69,2,3:2:0:0:
424,6,120929,1,0,3:0:0:0:
373,211,121079,2,0,B|373:243|392:268|392:268|384:312|401:356,1,138.000002632141,10|0,0:0|3:0,0:0:0:0:
494,88,121379,5,2,3:2:0:0:
373,211,121529,1,0,3:0:0:0:
212,113,121679,2,0,B|182:121|145:114|145:114|107:127|80:161,1,138.000002632141,10|0,0:0|3:0,0:0:0:0:
305,11,121979,70,0,B|312:71|312:71|306:88|306:88|317:169,1,138.000002632141,2|0,3:2|3:0,0:0:0:0:
373,211,122204,1,0,3:0:0:0:
373,211,122279,1,10,0:0:0:0:
195,343,122429,6,0,B|301:310|301:310|363:328|363:328|481:291,1,276.000005264282,6|2,3:2|3:2,0:0:0:0:
459,299,122804,1,0,3:0:0:0:
459,299,122879,1,10,0:0:0:0:
512,122,123029,1,2,3:2:0:0:
298,14,123179,1,10,0:0:0:0:
429,206,123329,1,2,3:2:0:0:
512,0,123479,1,10,0:0:0:0:
297,158,123629,1,2,3:2:0:0:
55,5,123779,69,6,3:2:0:0:
55,5,124079,5,8,0:0:0:0:
80,51,124154,1,8,0:0:0:0:
63,102,124229,1,0,3:0:0:0:
61,130,124304,1,0,3:0:0:0:
68,158,124379,1,2,0:3:0:0:
83,182,124454,1,2,0:3:0:0:
105,201,124529,1,2,0:3:0:0:
132,210,124604,1,2,0:3:0:0:
161,212,124679,1,8,0:0:0:0:
161,212,124979,69,6,3:2:0:0:
75,375,125129,1,8,0:0:0:0:
312,306,125279,1,0,3:0:0:0:
259,298,125354,1,0,3:0:0:0:
206,290,125429,1,8,0:0:0:0:
260,75,125579,5,2,3:2:0:0:
357,228,125729,1,10,0:0:0:0:
448,71,125879,1,0,3:0:0:0:
397,86,125954,1,0,3:0:0:0:
346,102,126029,1,8,0:0:0:0:
512,237,126179,69,2,3:2:0:0:
448,71,126329,1,8,0:0:0:0:
279,168,126479,2,0,B|248:176|219:172|219:172|183:151|140:162,1,138.000002632141,0|8,3:0|0:0,0:0:0:0:
2,256,126779,5,2,3:2:0:0:
119,65,126929,1,10,0:0:0:0:
169,248,127079,1,0,3:0:0:0:
0,384,127229,1,8,0:0:0:0:
46,357,127304,1,8,0:0:0:0:
98,368,127379,70,0,B|146:385|183:357|183:357|194:360|194:360|223:313|286:317,1,207.000003948212,6|0,3:2|1:0,0:0:0:0:
365,371,127679,6,0,B|326:346|329:285|329:285|319:274|319:274|397:254|410:156,1,243.000000926971,2|0,3:2|1:0,0:0:0:0:
492,137,127979,70,0,B|442:132|412:166|412:166|351:149|349:98|261:120,1,243.000000926971,2|0,3:2|1:0,0:0:0:0:
171,163,128279,6,0,B|134:107|216:60|284:142|195:283,1,225,2|0,3:2|1:0,0:0:0:0:
152,307,128579,70,0,B|197:304|236:285|236:285|254:295|276:297|276:297|315:280|366:273,1,207.000003948212,2|0,3:2|1:0,0:0:0:0:
419,203,128879,6,0,B|445:178|445:134|445:134|430:91|387:74|387:74|346:55|335:-10,1,243.000000926971,2|0,3:2|1:0,0:0:0:0:
493,48,129179,70,0,B|488:85|437:113|437:113|350:92|278:133,1,225,2|0,3:2|1:0,0:0:0:0:
219,236,129479,5,8,0:0:0:0:
226,180,129554,1,8,0:0:0:0:
209,127,129629,1,8,0:0:0:0:
171,86,129704,1,8,0:0:0:0:
120,64,129779,69,6,3:2:0:0:
90,284,129929,1,8,0:0:0:0:
328,183,130079,1,0,3:0:0:0:
278,162,130154,1,0,3:0:0:0:
226,180,130229,1,8,0:0:0:0:
366,297,130379,5,2,3:2:0:0:
331,81,130529,1,10,0:0:0:0:
181,268,130679,1,0,3:0:0:0:
176,324,130754,1,0,3:0:0:0:
189,378,130829,1,8,0:0:0:0:
366,297,130979,69,2,3:2:0:0:
226,180,131129,1,8,0:0:0:0:
484,123,131279,2,0,B|494:158|477:183|477:183|477:190|477:190|455:215|462:259,1,138.000002632141,0|8,3:0|0:0,0:0:0:0:
226,180,131579,1,2,3:2:0:0:
272,0,131729,1,10,0:0:0:0:
403,143,131879,1,0,3:0:0:0:
174,71,132029,1,8,0:0:0:0:
118,67,132104,1,8,0:0:0:0:
67,90,132179,6,0,B|52:160|75:227|75:227|110:228|142:206,1,207.000003948212,6|0,3:2|1:0,0:0:0:0:
226,180,132479,70,0,B|291:207|373:230|373:230|396:264|419:338,1,243.000000926971,2|0,3:2|1:0,0:0:0:0:
498,342,132779,6,0,B|455:335|411:333|411:333|382:349|355:370|355:370|300:368|223:352,1,243.000000926971,6|0,3:2|1:0,0:0:0:0:
169,374,133079,70,0,B|204:349|235:316|235:316|227:246|224:148,1,225,2|0,3:2|1:0,0:0:0:0:
295,83,133379,6,0,B|231:47|173:73|173:73|144:65|144:65|110:78|77:70,1,225,6|0,3:2|1:0,0:0:0:0:
13,9,133679,70,0,B|63:46|77:118|77:118|57:181|-3:223,1,261.000007965088,6|0,3:2|1:0,0:0:0:0:
62,299,133979,6,0,B|130:257|169:155|169:155|202:161|226:180,1,243.000000926971,6|0,3:2|1:0,0:0:0:0:
266,275,134279,69,8,0:0:0:0:
308,239,134354,1,8,0:0:0:0:
327,187,134429,1,2,0:3:0:0:
316,132,134504,1,2,0:3:0:0:
279,91,134579,6,0,B|334:98|334:98|360:90|360:90|436:98,2,138.000002632141,6|8|0,3:2|0:0|3:0,0:0:0:0:
216,24,134954,1,0,3:0:0:0:
216,24,135029,1,8,0:0:0:0:
76,108,135179,1,2,3:2:0:0:
267,224,135329,2,0,P|289:153|265:65,1,138.000002632141,10|0,0:0|3:0,0:0:0:0:
216,24,135554,1,0,3:0:0:0:
216,24,135629,1,10,0:0:0:0:
132,227,135779,70,0,B|184:210|184:210|271:224,2,138.000002632141,2|8|0,3:2|0:0|3:0,0:0:0:0:
61,280,136154,1,0,3:0:0:0:
61,280,136229,1,8,0:0:0:0:
230,344,136379,1,2,3:2:0:0:
130,92,136529,2,0,P|143:152|129:234,1,138.000002632141,10|0,0:0|3:0,0:0:0:0:
61,280,136754,1,0,3:0:0:0:
61,280,136829,1,10,0:0:0:0:
266,223,136979,6,0,B|303:229|332:201|332:201|368:221|416:218,2,138.000002632141,6|8|0,3:2|0:0|3:0,0:0:0:0:
200,160,137354,1,0,3:0:0:0:
200,160,137429,1,8,0:0:0:0:
391,126,137579,1,2,3:2:0:0:
279,354,137729,2,0,B|295:314|287:275|287:275|270:247|262:209,1,138.000002632141,10|0,0:0|3:0,0:0:0:0:
200,160,137954,1,0,3:0:0:0:
200,160,138029,1,10,0:0:0:0:
123,327,138179,69,2,3:2:0:0:
265,222,138329,1,8,0:0:0:0:
360,384,138479,1,0,3:0:0:0:
178,253,138629,1,8,0:0:0:0:
391,126,138779,1,2,3:2:0:0:
342,292,138929,1,10,0:0:0:0:
151,168,139079,1,8,0:0:0:0:
195,142,139154,1,8,0:0:0:0:
239,115,139229,1,10,0:0:0:0:
284,88,139304,1,8,0:0:0:0:
328,62,139379,6,0,B|362:74|395:95|395:95|429:86|468:84,2,138.000002632141,6|8|0,3:2|0:0|3:0,0:0:0:0:
265,0,139754,1,0,3:0:0:0:
265,0,139829,1,8,0:0:0:0:
195,142,139979,1,2,3:2:0:0:
55,38,140129,2,0,B|94:57|127:62|127:62|155:41|187:39,1,138.000002632141,10|0,0:0|3:0,0:0:0:0:
265,0,140354,1,0,3:0:0:0:
265,0,140429,1,10,0:0:0:0:
212,273,140579,70,0,B|222:198|222:198|195:142,2,138.000002632141,2|8|0,3:2|0:0|3:0,0:0:0:0:
158,341,140954,1,0,3:0:0:0:
158,341,141029,1,8,0:0:0:0:
290,141,141179,1,2,3:2:0:0:
368,290,141329,1,2,3:2:0:0:
128,218,141479,1,8,0:0:0:0:
306,137,141629,1,2,3:2:0:0:
248,352,141779,5,4,3:2:0:0:
287,362,141854,1,0,3:0:0:0:
328,357,141929,1,8,0:0:0:0:
361,332,142004,1,0,3:0:0:0:
380,295,142079,1,0,3:0:0:0:
381,253,142154,1,0,3:0:0:0:
364,215,142229,1,8,0:0:0:0:
361,173,142304,1,0,3:0:0:0:
369,131,142379,1,0,3:0:0:0:
401,104,142454,1,0,3:0:0:0:
441,104,142529,1,8,0:0:0:0:
473,131,142604,1,0,3:0:0:0:
481,172,142679,1,0,3:0:0:0:
461,209,142754,1,0,3:0:0:0:
421,221,142829,1,8,0:0:0:0:
383,208,142904,1,0,3:0:0:0:
361,173,142979,69,8,0:0:0:0:
448,252,143129,1,8,0:0:0:0:
392,79,143279,5,8,0:0:0:0:
302,243,143429,1,8,0:0:0:0:
481,172,143579,69,8,0:0:0:0:
243,119,143729,1,8,0:0:0:0:
368,316,143879,5,8,0:0:0:0:
502,64,144029,1,8,0:0:0:0:
204,221,144179,38,2,B|178:246|128:252|91:226|91:226|111:296|52:348|52:348|0:298|13:203|75:170|75:170|129:140|145:62|105:13|105:13|116:68|78:105,1,720,4|2,3:2|0:0,0:0:0:0:
220,212,146579,6,2,B|252:145|342:105|418:118|418:118|414:39|364:-11|364:-11|272:-1|230:80|230:80|314:94|358:184,1,720,0|2,0:0|0:0,0:0:0:0:
358,184,148679,1,0,3:0:0:0:
451,286,148979,70,2,B|366:343|257:303|220:212|220:212|174:266|100:258|100:258|154:289|155:350|155:350|165:307|209:285|209:285|268:303|277:364,1,720,4|2,3:2|0:0,0:0:0:0:
38,213,151379,21,8,0:0:0:0:
173,347,151529,1,8,0:0:0:0:
151,177,151679,1,8,0:0:0:0:
28,317,151829,1,8,0:0:0:0:
242,290,151979,5,8,0:0:0:0:
213,76,152129,1,8,0:0:0:0:
0,105,152279,1,8,0:0:0:0:
28,317,152429,1,8,0:0:0:0:
283,176,152579,5,8,0:0:0:0:
283,176,153029,69,0,3:0:0:0:
306,178,153104,1,0,3:0:0:0:
330,180,153179,1,0,3:0:0:0:
354,183,153254,1,0,3:0:0:0:
378,185,153329,1,2,0:3:0:0:
402,188,153404,1,2,0:3:0:0:
426,190,153479,37,8,0:0:0:0:
426,190,153779,54,0,B|441:136|509:117|509:117|518:142|533:165|533:165|531:216|502:266,1,251.999992309571,4|0,3:2|1:0,0:0:0:0:
428,292,154079,2,0,B|391:270|346:273|346:273|317:300|296:333|296:333|257:350|210:333,1,251.999992309571,8|0,0:0|1:0,0:0:0:0:
137,285,154379,2,0,P|146:247|145:196,1,83.9999974365235,2|0,3:2|1:0,0:0:0:0:
270,28,154529,1,2,3:2:0:0:
327,237,154679,1,10,0:0:0:0:
33,130,154829,6,0,B|109:99|109:99|189:121|189:121|194:128|194:128|272:152|272:152|347:124,1,335.999989746094,2|0,3:2|3:0,0:0:0:0:
512,41,155279,2,0,B|526:78|511:123|511:123|474:154|476:206,1,167.999994873047,8|0,0:0|0:0,0:0:0:0:
243,234,155579,1,2,3:2:0:0:
427,74,155729,1,2,3:2:0:0:
512,330,155879,2,0,B|485:350|445:363|445:363|401:357|359:323,1,167.999994873047,10|0,0:0|0:0,0:0:0:0:
133,222,156179,70,0,B|150:189|198:175|198:175|195:169|195:169|197:175|197:175|263:158|327:203|329:251,1,251.999992309571,0|0,3:0|1:0,0:0:0:0:
413,224,156479,2,0,B|394:130|288:91|288:91|333:97|369:69,1,251.999992309571,8|0,0:0|1:0,0:0:0:0:
385,0,156779,2,0,P|344:-6|303:0,1,83.9999974365235,2|0,3:2|1:0,0:0:0:0:
226,285,156929,1,2,3:2:0:0:
347,82,157079,1,10,0:0:0:0:
110,0,157229,6,0,B|129:45|115:87|115:87|117:97|117:97|79:142|94:200|94:200|91:208|91:208|133:255|117:333,1,335.999989746094,2|0,3:2|3:0,0:0:0:0:
274,198,157679,2,0,B|292:180|307:154|307:154|253:150|182:172,1,167.999994873047,10|0,0:0|0:0,0:0:0:0:
269,353,157979,1,2,3:2:0:0:
416,167,158129,1,2,3:2:0:0:
489,304,158279,1,10,0:0:0:0:
274,198,158429,1,2,3:2:0:0:
487,35,158579,70,0,P|362:46|230:8,1,251.999992309571,6|0,3:2|1:0,0:0:0:0:
155,48,158879,2,0,B|171:100|150:144|150:144|127:152|111:171|111:171|100:225|129:283,1,251.999992309571,8|0,0:0|1:0,0:0:0:0:
184,347,159179,2,0,P|209:314|217:255,1,83.9999974365235,2|0,3:2|1:0,0:0:0:0:
25,136,159329,1,2,3:2:0:0:
85,368,159479,1,10,0:0:0:0:
274,198,159629,6,0,B|340:125|486:144|502:244|394:308|369:191,1,335.999989746094,6|0,3:2|3:0,0:0:0:0:
512,298,160079,2,0,P|438:336|356:325,1,167.999994873047,8|0,0:0|0:0,0:0:0:0:
282,85,160379,1,2,3:2:0:0:
504,84,160529,1,2,3:2:0:0:
499,134,160604,1,0,3:0:0:0:
494,184,160679,1,10,0:0:0:0:
363,0,160829,1,0,3:0:0:0:
257,228,160979,70,0,B|217:276|152:249|152:249|145:255|145:255|148:174|80:150,1,251.999992309571,6|0,3:2|1:0,0:0:0:0:
44,241,161279,2,0,B|55:187|87:151|87:151|43:85|24:4,1,251.999992309571,8|0,0:0|1:0,0:0:0:0:
113,0,161579,2,0,P|127:41|152:87,1,83.9999974365235,2|0,3:2|1:0,0:0:0:0:
305,143,161729,1,2,3:2:0:0:
493,59,161879,1,10,0:0:0:0:
264,7,162029,6,0,B|289:74|269:134|269:134|239:158|221:193|221:193|214:266|241:337,1,335.999989746094,2|0,3:2|3:0,0:0:0:0:
425,177,162479,2,0,B|425:147|406:119|406:119|351:112|304:143,1,167.999994873047,8|0,0:0|0:0,0:0:0:0:
293,384,162779,1,2,3:2:0:0:
350,214,162929,1,2,3:2:0:0:
144,312,163079,2,0,P|72:300|34:217,1,167.999994873047,10|0,0:0|0:0,0:0:0:0:
110,18,163379,70,0,B|166:40|183:114|183:114|175:184|124:223,1,251.999992309571,0|0,3:0|1:0,0:0:0:0:
82,121,163679,2,0,B|151:87|207:110|207:110|271:138|344:108,1,251.999992309571,8|0,0:0|1:0,0:0:0:0:
391,46,163979,2,0,P|434:46|476:68,1,83.9999974365235,2|0,3:2|1:0,0:0:0:0:
447,383,164129,1,2,3:2:0:0:
414,137,164279,1,10,0:0:0:0:
211,351,164429,6,0,B|300:386|354:298|354:298|368:305|368:305|440:257|512:293,1,335.999989746094,2|0,3:2|3:0,0:0:0:0:
293,107,164879,2,0,B|250:207|250:207|260:266,1,167.999994873047,10|0,0:0|0:0,0:0:0:0:
447,383,165179,1,2,3:2:0:0:
360,208,165329,1,2,3:2:0:0:
507,28,165479,1,10,0:0:0:0:
444,246,165629,1,2,3:2:0:0:
293,107,165779,70,0,B|255:108|225:98|225:98|171:114|119:136|119:136|80:124|36:121,1,251.999992309571,6|0,3:2|1:0,0:0:0:0:
112,41,166079,2,0,B|132:93|143:132|143:132|112:201|59:275,1,251.999992309571,8|0,0:0|1:0,0:0:0:0:
0,328,166379,2,0,P|46:321|88:325,1,83.9999974365235,2|0,3:2|1:0,0:0:0:0:
233,384,166529,1,2,3:2:0:0:
151,187,166679,1,10,0:0:0:0:
399,321,166829,6,0,B|369:259|409:170|409:170|383:190|383:190|425:105|383:33,1,335.999989746094,6|0,3:2|3:0,0:0:0:0:
163,203,167279,2,0,B|182:233|209:254|209:254|264:252|309:219,1,167.999994873047,8|0,0:0|0:0,0:0:0:0:
192,43,167579,1,2,3:2:0:0:
24,166,167729,1,2,3:2:0:0:
23,216,167804,1,0,3:0:0:0:
34,264,167879,1,10,0:0:0:0:
213,176,168029,1,0,3:0:0:0:
453,223,168179,6,2,B|482:314|405:361|405:361|316:307|359:201|359:201|339:190|339:190|349:164|349:164|378:84|320:22|320:22|336:80|296:118|296:118|332:56|430:29|500:52|500:52|472:47|449:58,1,935.999957153322,6|0,3:2|2:0,0:0:0:0:
