osu file format v14

[General]
AudioFilename: audio.mp3
AudioLeadIn: 0
PreviewTime: 79384
Countdown: 1
SampleSet: Soft
StackLeniency: 0.3
Mode: 0
LetterboxInBreaks: 0
WidescreenStoryboard: 1

[Editor]
Bookmarks: 21777,31377,50577,60177,69777,79377,93777,96177,115377,124977,134577,144177,153777,155884,168177
DistanceSpacing: 1
BeatDivisor: 4
GridSize: 32
TimelineZoom: 1.199999

[Metadata]
Title:Forcefield
TitleUnicode:Forcefield
Artist:Thaehan
ArtistUnicode:Thaehan
Creator:-Kemsyt
Version:Insane
Source:
Tags:symphonic melodic metal rock instrumental fa featured artist loki never give up entry
BeatmapID:2824752
BeatmapSetID:1362365

[Difficulty]
HPDrainRate:5
CircleSize:2.6
OverallDifficulty:8
ApproachRate:9
SliderMultiplier:1.9
SliderTickRate:1

[Events]
//Background and Video events
0,0,"sentinel.jpg",0,0
//Break Periods
//Storyboard Layer 0 (Background)
//Storyboard Layer 1 (Fail)
//Storyboard Layer 2 (Pass)
//Storyboard Layer 3 (Foreground)
//Storyboard Layer 4 (Overlay)
//Storyboard Sound Samples

[TimingPoints]
179,300,4,2,5,75,1,0
3854,-100,4,2,31,5,0,0
3929,-100,4,2,5,75,0,0
4454,-100,4,2,31,5,0,0
4529,-100,4,2,5,75,0,0
5654,-100,4,2,31,5,0,0
5729,-100,4,2,5,75,0,0
6254,-100,4,2,31,5,0,0
6329,-100,4,2,5,75,0,0
6854,-100,4,2,31,5,0,0
6929,-100,4,2,5,75,0,0
8054,-100,4,2,31,5,0,0
8129,-100,4,2,5,75,0,0
8654,-100,4,2,31,5,0,0
8729,-100,4,2,5,75,0,0
9254,-100,4,2,31,5,0,0
9329,-100,4,2,5,75,0,0
10604,-100,4,2,31,5,0,0
10679,-100,4,2,5,75,0,0
10904,-100,4,2,31,5,0,0
10979,-100,4,2,5,75,0,0
12854,-100,4,2,31,5,0,0
12929,-100,4,2,5,75,0,0
13454,-100,4,2,31,5,0,0
13529,-100,4,2,5,75,0,0
14054,-100,4,2,31,5,0,0
14129,-100,4,2,5,75,0,0
15254,-100,4,2,31,5,0,0
15329,-100,4,2,5,75,0,0
15854,-100,4,2,31,5,0,0
15929,-100,4,2,5,75,0,0
16454,-100,4,2,31,5,0,0
16529,-100,4,2,5,75,0,0
17654,-100,4,2,31,5,0,0
17729,-100,4,2,5,75,0,0
18254,-100,4,2,31,5,0,0
18329,-100,4,2,5,75,0,0
18854,-100,4,2,31,5,0,0
18929,-100,4,2,5,75,0,0
20204,-100,4,2,31,5,0,0
20279,-100,4,2,5,75,0,0
20504,-100,4,2,31,5,0,0
20579,-100,4,2,5,75,0,0
21779,-200,4,2,5,75,0,0
22379,-200,4,2,6,75,0,0
22829,-200,4,2,5,75,0,0
23579,-200,4,2,6,75,0,0
23729,-200,4,2,5,75,0,0
24029,-200,4,2,5,75,0,0
24779,-200,4,2,6,75,0,0
24929,-200,4,2,5,75,0,0
25979,-100,4,2,5,75,0,0
26204,-100,4,2,31,5,0,0
26279,-100,4,2,5,75,0,0
26504,-100,4,2,31,5,0,0
26579,-200,4,2,5,75,0,0
27179,-200,4,2,6,75,0,0
27479,-200,4,2,5,75,0,0
27629,-200,4,2,5,75,0,0
28379,-200,4,2,6,75,0,0
28529,-200,4,2,5,75,0,0
28829,-200,4,2,5,75,0,0
30179,-86.9565217391304,4,2,5,75,0,0
30404,-86.9565217391304,4,2,31,5,0,0
30479,-86.9565217391304,4,2,5,75,0,0
30554,-86.9565217391304,4,2,31,5,0,0
30629,-86.9565217391304,4,2,5,75,0,0
30704,-86.9565217391304,4,2,31,5,0,0
30779,-86.9565217391304,4,2,5,75,0,0
31004,-86.9565217391304,4,2,31,5,0,0
31079,-86.9565217391304,4,2,5,75,0,0
31379,-100,4,2,5,75,0,0
35579,-86.9565217391304,4,2,5,75,0,0
35804,-86.9565217391304,4,2,31,5,0,0
35879,-86.9565217391304,4,2,5,75,0,0
36104,-86.9565217391304,4,2,31,5,0,0
36179,-100,4,2,5,75,0,0
39779,-86.9565217391304,4,2,5,75,0,0
40004,-86.9565217391304,4,2,31,5,0,0
40079,-86.9565217391304,4,2,5,75,0,0
40154,-86.9565217391304,4,2,31,5,0,0
40229,-86.9565217391304,4,2,5,75,0,0
40604,-86.9565217391304,4,2,31,5,0,0
40679,-86.9565217391304,4,2,5,75,0,0
40904,-86.9565217391304,4,2,31,5,0,0
40979,-100,4,2,5,75,0,0
45179,-86.9565217391304,4,2,5,75,0,0
45404,-86.9565217391304,4,2,31,5,0,0
45479,-86.9565217391304,4,2,5,75,0,0
45704,-86.9565217391304,4,2,31,5,0,0
45779,-100,4,2,5,75,0,0
49379,-86.9565217391304,4,2,5,75,0,0
49604,-86.9565217391304,4,2,31,5,0,0
49679,-86.9565217391304,4,2,5,75,0,0
49754,-86.9565217391304,4,2,31,5,0,0
49829,-86.9565217391304,4,2,5,75,0,0
50579,-86.9565217391304,4,2,5,75,0,0
53204,-86.9565217391304,4,2,31,5,0,0
53279,-86.9565217391304,4,2,5,75,0,0
53504,-86.9565217391304,4,2,31,5,0,0
53579,-86.9565217391304,4,2,5,75,0,0
53804,-86.9565217391304,4,2,31,5,0,0
53879,-86.9565217391304,4,2,5,75,0,0
54104,-86.9565217391304,4,2,31,5,0,0
54179,-86.9565217391304,4,2,5,75,0,0
54404,-86.9565217391304,4,2,31,5,0,0
54479,-86.9565217391304,4,2,5,75,0,0
54704,-86.9565217391304,4,2,31,5,0,0
54779,-86.9565217391304,4,2,5,75,0,0
55004,-86.9565217391304,4,2,31,5,0,0
55079,-86.9565217391304,4,2,5,75,0,0
58004,-86.9565217391304,4,2,31,5,0,0
58079,-86.9565217391304,4,2,5,75,0,0
58304,-86.9565217391304,4,2,31,5,0,0
58379,-86.9565217391304,4,2,5,75,0,0
58604,-86.9565217391304,4,2,31,5,0,0
58679,-86.9565217391304,4,2,5,75,0,0
58904,-86.9565217391304,4,2,31,5,0,0
58979,-86.9565217391304,4,2,5,75,0,0
59204,-86.9565217391304,4,2,31,5,0,0
59279,-86.9565217391304,4,2,5,75,0,0
59504,-86.9565217391304,4,2,31,5,0,0
59579,-86.9565217391304,4,2,5,75,0,0
59804,-86.9565217391304,4,2,31,5,0,0
59879,-86.9565217391304,4,2,5,75,0,0
68579,-86.9565217391304,4,2,5,40,0,0
68729,-86.9565217391304,4,2,5,44,0,0
68879,-86.9565217391304,4,2,5,48,0,0
69029,-86.9565217391304,4,2,5,52,0,0
69179,-86.9565217391304,4,2,5,56,0,0
69329,-86.9565217391304,4,2,5,60,0,0
69479,-86.9565217391304,4,2,5,64,0,0
69629,-86.9565217391304,4,2,5,68,0,0
69779,-250,4,2,5,72,0,0
70379,-250,4,2,6,75,0,0
71579,-250,4,2,6,75,0,0
72104,-250,4,2,31,5,0,0
72179,-250,4,2,5,75,0,0
72779,-250,4,2,6,75,0,0
73979,-250,4,2,6,75,0,0
74279,-250,4,2,5,75,0,0
75179,-250,4,2,6,75,0,0
76379,-250,4,2,6,75,0,0
76979,-250,4,2,5,40,0,0
77129,-250,4,2,5,44,0,0
77279,-100,4,2,5,48,0,0
77429,-100,4,2,5,52,0,0
77579,-100,4,2,5,56,0,0
77729,-100,4,2,5,60,0,0
77879,-100,4,2,5,64,0,0
78029,-100,4,2,5,68,0,0
78179,-100,4,2,5,72,0,0
79079,-100,4,2,5,75,0,0
79304,-100,4,2,31,5,0,0
79379,-76.9230769230769,4,2,5,85,0,1
79603,-76.9230769230769,4,2,31,5,0,1
79679,-76.9230769230769,4,2,5,85,0,1
79903,-76.9230769230769,4,2,31,5,0,1
79979,-76.9230769230769,4,2,5,85,0,1
80054,-76.9230769230769,4,2,31,5,0,1
80129,-76.9230769230769,4,2,5,85,0,1
81104,-76.9230769230769,4,2,31,5,0,1
81179,-76.9230769230769,4,2,5,85,0,1
81704,-76.9230769230769,4,2,31,5,0,1
81779,-76.9230769230769,4,2,5,85,0,1
82003,-76.9230769230769,4,2,31,5,0,1
82079,-76.9230769230769,4,2,5,85,0,1
82303,-76.9230769230769,4,2,31,5,0,1
82379,-76.9230769230769,4,2,5,85,0,1
82454,-76.9230769230769,4,2,31,5,0,1
82529,-76.9230769230769,4,2,5,85,0,1
83504,-76.9230769230769,4,2,31,5,0,1
83579,-76.9230769230769,4,2,5,85,0,1
84403,-76.9230769230769,4,2,31,5,0,1
84479,-76.9230769230769,4,2,5,85,0,1
84703,-76.9230769230769,4,2,31,5,0,1
84779,-76.9230769230769,4,2,5,85,0,1
84854,-76.9230769230769,4,2,31,5,0,1
84929,-76.9230769230769,4,2,5,85,0,1
85904,-76.9230769230769,4,2,31,5,0,1
85979,-76.9230769230769,4,2,5,85,0,1
86803,-76.9230769230769,4,2,31,5,0,1
86879,-76.9230769230769,4,2,5,85,0,1
87103,-76.9230769230769,4,2,31,5,0,1
87179,-76.9230769230769,4,2,5,85,0,1
87254,-76.9230769230769,4,2,31,5,0,1
87329,-76.9230769230769,4,2,5,85,0,1
88304,-76.9230769230769,4,2,31,5,0,1
88379,-76.9230769230769,4,2,5,85,0,1
88904,-76.9230769230769,4,2,31,5,0,1
88979,-76.9230769230769,4,2,5,85,0,1
89203,-76.9230769230769,4,2,31,5,0,1
89279,-76.9230769230769,4,2,5,85,0,1
89503,-76.9230769230769,4,2,31,5,0,1
89579,-76.9230769230769,4,2,5,85,0,1
89654,-76.9230769230769,4,2,31,5,0,1
89729,-76.9230769230769,4,2,5,85,0,1
90704,-76.9230769230769,4,2,31,5,0,1
90779,-76.9230769230769,4,2,5,85,0,1
91603,-76.9230769230769,4,2,31,5,0,1
91679,-76.9230769230769,4,2,5,85,0,1
91903,-76.9230769230769,4,2,31,5,0,1
91979,-76.9230769230769,4,2,5,85,0,1
92054,-76.9230769230769,4,2,31,5,0,1
92129,-76.9230769230769,4,2,5,85,0,1
93104,-76.9230769230769,4,2,31,5,0,1
93179,-76.9230769230769,4,2,5,85,0,1
93779,-86.9565217391304,4,2,5,75,0,0
95429,-86.9565217391304,4,2,5,5,0,0
95579,-86.9565217391304,4,2,5,75,0,0
96179,-100,4,2,5,75,0,0
100379,-86.9565217391304,4,2,5,75,0,0
100604,-86.9565217391304,4,2,31,5,0,0
100679,-86.9565217391304,4,2,5,75,0,0
100904,-86.9565217391304,4,2,31,5,0,0
100979,-100,4,2,5,75,0,0
104579,-86.9565217391304,4,2,5,75,0,0
104804,-86.9565217391304,4,2,31,5,0,0
104879,-86.9565217391304,4,2,5,75,0,0
104954,-86.9565217391304,4,2,31,5,0,0
105029,-86.9565217391304,4,2,5,75,0,0
105404,-86.9565217391304,4,2,31,5,0,0
105479,-86.9565217391304,4,2,5,75,0,0
105704,-86.9565217391304,4,2,31,5,0,0
105779,-100,4,2,5,75,0,0
109979,-86.9565217391304,4,2,5,75,0,0
110204,-86.9565217391304,4,2,31,5,0,0
110279,-86.9565217391304,4,2,5,75,0,0
110504,-86.9565217391304,4,2,31,5,0,0
110579,-100,4,2,5,75,0,0
114179,-86.9565217391304,4,2,5,75,0,0
114404,-86.9565217391304,4,2,31,5,0,0
114479,-86.9565217391304,4,2,5,75,0,0
114554,-86.9565217391304,4,2,31,5,0,0
114629,-86.9565217391304,4,2,5,75,0,0
115379,-83.3333333333333,4,2,5,75,0,0
124004,-83.3333333333333,4,2,31,5,0,0
124079,-83.3333333333333,4,2,5,75,0,0
124979,-100,4,2,5,75,0,0
127604,-100,4,2,31,5,0,0
127679,-100,4,2,5,75,0,0
127904,-100,4,2,31,5,0,0
127979,-100,4,2,5,75,0,0
128204,-100,4,2,31,5,0,0
128279,-100,4,2,5,75,0,0
128504,-100,4,2,31,5,0,0
128579,-100,4,2,5,75,0,0
128804,-100,4,2,31,5,0,0
128879,-100,4,2,5,75,0,0
129104,-100,4,2,31,5,0,0
129179,-100,4,2,5,75,0,0
129404,-100,4,2,31,5,0,0
129479,-100,4,2,5,75,0,0
132404,-100,4,2,31,5,0,0
132479,-100,4,2,5,75,0,0
132704,-100,4,2,31,5,0,0
132779,-100,4,2,5,75,0,0
133004,-100,4,2,31,5,0,0
133079,-100,4,2,5,75,0,0
133304,-100,4,2,31,5,0,0
133379,-100,4,2,5,75,0,0
133604,-100,4,2,31,5,0,0
133679,-100,4,2,5,75,0,0
133904,-100,4,2,31,5,0,0
133979,-100,4,2,5,75,0,0
134204,-100,4,2,31,5,0,0
134279,-100,4,2,5,75,0,0
142979,-100,4,2,5,40,0,0
143129,-100,4,2,5,44,0,0
143279,-100,4,2,5,48,0,0
143429,-100,4,2,5,52,0,0
143579,-100,4,2,5,56,0,0
143729,-100,4,2,5,60,0,0
143879,-100,4,2,5,64,0,0
144029,-100,4,2,5,68,0,0
144179,-200,4,2,5,75,0,0
145979,-200,4,2,6,75,0,0
146504,-200,4,2,31,5,0,0
146579,-200,4,2,5,75,0,0
147179,-200,4,2,6,75,0,0
148379,-200,4,2,6,75,0,0
148679,-200,4,2,5,75,0,0
149579,-200,4,2,6,75,0,0
150779,-200,4,2,6,75,0,0
151379,-100,4,2,5,40,0,0
151529,-100,4,2,5,44,0,0
151679,-100,4,2,5,48,0,0
151829,-100,4,2,5,52,0,0
151979,-100,4,2,5,56,0,0
152129,-100,4,2,5,60,0,0
152279,-100,4,2,5,64,0,0
152429,-100,4,2,5,68,0,0
152579,-100,4,2,5,72,0,0
153779,-76.9230769230769,4,2,5,85,0,1
154003,-76.9230769230769,4,2,31,5,0,1
154079,-76.9230769230769,4,2,5,85,0,1
154303,-76.9230769230769,4,2,31,5,0,1
154379,-76.9230769230769,4,2,5,85,0,1
154454,-76.9230769230769,4,2,31,5,0,1
154529,-76.9230769230769,4,2,5,85,0,1
155504,-76.9230769230769,4,2,31,5,0,1
155579,-76.9230769230769,4,2,5,85,0,1
156104,-76.9230769230769,4,2,31,5,0,1
156179,-76.9230769230769,4,2,5,85,0,1
156403,-76.9230769230769,4,2,31,5,0,1
156479,-76.9230769230769,4,2,5,85,0,1
156703,-76.9230769230769,4,2,31,5,0,1
156779,-76.9230769230769,4,2,5,85,0,1
156854,-76.9230769230769,4,2,31,5,0,1
156929,-76.9230769230769,4,2,5,85,0,1
157904,-76.9230769230769,4,2,31,5,0,1
157979,-76.9230769230769,4,2,5,85,0,1
158803,-76.9230769230769,4,2,31,5,0,1
158879,-76.9230769230769,4,2,5,85,0,1
159103,-76.9230769230769,4,2,31,5,0,1
159179,-76.9230769230769,4,2,5,85,0,1
159254,-76.9230769230769,4,2,31,5,0,1
159329,-76.9230769230769,4,2,5,85,0,1
160304,-76.9230769230769,4,2,31,5,0,1
160379,-76.9230769230769,4,2,5,85,0,1
161203,-76.9230769230769,4,2,31,5,0,1
161279,-76.9230769230769,4,2,5,85,0,1
161503,-76.9230769230769,4,2,31,5,0,1
161579,-76.9230769230769,4,2,5,85,0,1
161654,-76.9230769230769,4,2,31,5,0,1
161729,-76.9230769230769,4,2,5,85,0,1
162704,-76.9230769230769,4,2,31,5,0,1
162779,-76.9230769230769,4,2,5,85,0,1
163304,-76.9230769230769,4,2,31,5,0,1
163379,-76.9230769230769,4,2,5,85,0,1
163603,-76.9230769230769,4,2,31,5,0,1
163679,-76.9230769230769,4,2,5,85,0,1
163903,-76.9230769230769,4,2,31,5,0,1
163979,-76.9230769230769,4,2,5,85,0,1
164054,-76.9230769230769,4,2,31,5,0,1
164129,-76.9230769230769,4,2,5,85,0,1
165104,-76.9230769230769,4,2,31,5,0,1
165179,-76.9230769230769,4,2,5,85,0,1
166003,-76.9230769230769,4,2,31,5,0,1
166079,-76.9230769230769,4,2,5,85,0,1
166303,-76.9230769230769,4,2,31,5,0,1
166379,-76.9230769230769,4,2,5,85,0,1
166454,-76.9230769230769,4,2,31,5,0,1
166529,-76.9230769230769,4,2,5,75,0,1
167504,-76.9230769230769,4,2,31,5,0,1
167579,-76.9230769230769,4,2,5,75,0,1
168179,-76.9230769230769,4,2,5,75,0,0
169079,-76.9230769230769,4,2,31,5,0,0

[Colours]
Combo1 : 124,124,124
Combo2 : 37,142,205
Combo3 : 78,69,237
Combo4 : 177,84,168
Combo5 : 189,64,117
Combo6 : 214,214,214

[HitObjects]
117,88,179,5,8,0:0:0:0:
117,88,254,1,8,0:0:0:0:
117,88,329,2,0,L|107:147,1,47.5,0|0,3:0|3:0,0:0:0:0:
54,210,479,2,0,P|87:223|118:225,3,47.5,2|2|0|0,0:3|0:3|3:0|3:0,0:0:0:0:
184,197,779,2,0,P|217:184|248:182,3,47.5,2|2|0|0,0:3|0:3|3:0|3:0,0:0:0:0:
317,203,1079,2,0,L|306:304,1,95,2|2,0:3|0:3,0:0:0:0:
452,351,1379,5,8,0:0:0:0:
452,351,1454,1,8,0:0:0:0:
452,351,1529,2,0,P|480:347|509:335,1,47.5,0|0,3:0|3:0,0:0:0:0:
452,255,1679,2,0,P|456:210|493:164,1,95,2|0,0:3|3:0,0:0:0:0:
512,73,1979,69,8,0:0:0:0:
512,73,2054,1,8,0:0:0:0:
512,73,2129,2,0,L|458:57,1,47.5,0|0,3:0|3:0,0:0:0:0:
372,0,2279,5,8,0:0:0:0:
348,5,2354,1,8,0:0:0:0:
324,10,2429,1,8,0:0:0:0:
300,15,2504,1,8,0:0:0:0:
276,20,2579,70,0,B|252:83|252:83|265:144|265:144|238:215,1,190,6|0,3:2|3:0,0:0:0:0:
236,227,2954,1,0,3:0:0:0:
236,227,3029,1,8,0:0:0:0:
106,292,3179,2,0,L|138:202,1,95,0|8,3:0|0:0,0:0:0:0:
237,339,3479,1,0,3:0:0:0:
237,339,3554,1,0,3:0:0:0:
237,339,3629,1,8,0:0:0:0:
370,273,3779,5,2,3:2:0:0:
370,273,3929,2,0,P|420:279|465:299,1,95,10|0,0:0|3:0,0:0:0:0:
460,296,4229,1,10,0:0:0:0:
512,158,4379,69,2,3:2:0:0:
512,158,4529,2,0,P|462:164|417:184,1,95,10|0,0:0|3:0,0:0:0:0:
421,181,4829,1,10,0:0:0:0:
315,22,4979,6,0,B|299:66|299:66|314:95|315:129|315:129|297:163|306:203,1,190,2|0,3:2|3:0,0:0:0:0:
306,204,5354,1,0,3:0:0:0:
306,204,5429,1,8,0:0:0:0:
333,327,5579,2,0,P|283:326|233:304,1,95,0|8,3:0|0:0,0:0:0:0:
163,233,5879,1,0,3:0:0:0:
163,233,5954,1,0,3:0:0:0:
163,233,6029,1,8,0:0:0:0:
19,289,6179,69,2,3:2:0:0:
19,289,6329,2,0,L|38:196,1,95,10|0,0:0|3:0,0:0:0:0:
38,196,6629,1,10,0:0:0:0:
0,80,6779,5,2,3:2:0:0:
0,80,6929,1,10,0:0:0:0:
124,147,7079,1,8,0:0:0:0:
158,138,7154,1,8,0:0:0:0:
188,120,7229,1,8,0:0:0:0:
211,92,7304,1,8,0:0:0:0:
224,59,7379,70,0,B|264:73|296:60|296:60|319:65|319:65|340:55|340:55|376:52|412:69,1,190,6|0,3:2|3:0,0:0:0:0:
408,67,7754,1,0,3:0:0:0:
408,67,7829,1,8,0:0:0:0:
373,235,7979,2,0,B|352:199|352:199|362:135,1,95,0|8,3:0|0:0,0:0:0:0:
509,192,8279,1,0,3:0:0:0:
509,192,8354,1,0,3:0:0:0:
509,192,8429,1,8,0:0:0:0:
443,346,8579,5,2,3:2:0:0:
443,346,8729,2,0,P|391:334|344:334,1,95,10|0,0:0|3:0,0:0:0:0:
349,333,9029,1,10,0:0:0:0:
184,269,9179,69,2,3:2:0:0:
184,269,9329,2,0,P|236:257|283:257,1,95,10|0,0:0|3:0,0:0:0:0:
277,256,9629,1,10,0:0:0:0:
127,375,9779,6,0,P|144:281|100:185,1,190,2|0,3:2|3:0,0:0:0:0:
102,188,10154,1,0,3:0:0:0:
94,180,10229,1,8,0:0:0:0:
13,81,10379,6,0,B|105:90|105:90|164:67,1,142.5,6|0,3:2|1:0,0:0:0:0:
175,58,10679,2,0,B|221:39|221:39|313:48,1,142.5,2|0,3:2|1:0,0:3:0:0:
344,54,10979,53,2,0:3:0:0:
351,76,11054,1,2,0:3:0:0:
358,98,11129,1,2,0:3:0:0:
365,120,11204,1,2,0:3:0:0:
372,142,11279,2,0,L|394:205,3,47.5,2|2|2|2,0:3|0:3|0:3|0:3,0:0:0:0:
338,261,11579,6,0,L|316:324,3,47.5,2|2|2|2,0:3|0:3|0:3|0:3,0:0:0:0:
361,382,11879,1,8,0:0:0:0:
331,362,11954,1,8,0:0:0:0:
297,351,12029,1,8,0:0:0:0:
262,347,12104,1,8,0:0:0:0:
226,352,12179,70,0,B|199:377|159:371|159:371|165:368|165:368|123:323|127:246,1,190,6|0,3:2|3:0,0:0:0:0:
130,258,12554,1,0,3:0:0:0:
135,251,12629,1,8,0:0:0:0:
7,277,12779,2,0,P|20:233|23:182,1,95,0|8,3:0|0:0,0:0:0:0:
0,68,13079,1,0,3:0:0:0:
0,68,13154,1,0,3:0:0:0:
0,68,13229,1,8,0:0:0:0:
190,102,13379,5,2,3:2:0:0:
190,102,13529,2,0,B|154:131|154:131|95:125,1,95,10|0,0:0|3:0,0:0:0:0:
105,126,13829,1,10,0:0:0:0:
258,23,13979,69,2,3:2:0:0:
258,23,14129,2,0,B|294:52|294:52|353:46,1,95,10|0,0:0|3:0,0:0:0:0:
342,47,14429,1,10,0:0:0:0:
377,166,14579,6,0,P|452:144|513:234,1,190,2|0,3:2|3:0,0:0:0:0:
512,231,14954,1,0,3:0:0:0:
512,240,15029,1,8,0:0:0:0:
361,314,15179,2,0,L|259:294,1,95,0|8,3:0|0:0,0:0:0:0:
150,378,15479,1,0,3:0:0:0:
150,378,15554,1,0,3:0:0:0:
150,378,15629,1,8,0:0:0:0:
20,192,15779,69,2,3:2:0:0:
20,192,15929,2,0,P|10:252|18:297,1,95,10|0,0:0|3:0,0:0:0:0:
14,285,16229,1,10,0:0:0:0:
149,212,16379,5,2,3:2:0:0:
149,212,16529,1,10,0:0:0:0:
60,103,16679,1,8,0:0:0:0:
95,104,16754,1,8,0:0:0:0:
130,100,16829,1,8,0:0:0:0:
165,91,16904,1,8,0:0:0:0:
198,78,16979,70,0,B|232:74|252:48|252:48|262:54|262:54|330:50|369:123,1,190,6|0,3:2|3:0,0:0:0:0:
358,105,17354,1,0,3:0:0:0:
358,105,17429,1,8,0:0:0:0:
267,259,17579,2,0,B|247:223|247:223|258:171,1,95,0|8,3:0|0:0,0:0:0:0:
403,245,17879,1,0,3:0:0:0:
403,245,17954,1,0,3:0:0:0:
403,245,18029,1,8,0:0:0:0:
284,370,18179,5,2,3:2:0:0:
284,370,18329,2,0,P|216:339|163:334,1,95,10|0,0:0|3:0,0:0:0:0:
196,335,18629,1,10,0:0:0:0:
0,295,18779,69,2,3:2:0:0:
0,295,18929,2,0,P|68:264|121:259,1,95,10|0,0:0|3:0,0:0:0:0:
87,260,19229,1,10,0:0:0:0:
271,229,19379,6,0,P|220:182|246:73,1,190,2|0,3:2|3:0,0:0:0:0:
249,79,19754,1,0,3:0:0:0:
254,84,19829,1,8,0:0:0:0:
431,146,19979,22,0,B|417:199|417:199|419:237|419:237|402:290,1,142.5,6|0,3:2|1:0,0:0:0:0:
475,242,20279,2,0,B|447:289|447:289|439:326|439:326|409:373,1,142.5,2|0,3:2|1:0,0:0:0:0:
316,334,20579,37,8,0:0:0:0:
288,312,20654,1,8,0:0:0:0:
255,296,20729,1,2,0:3:0:0:
221,289,20804,1,2,0:3:0:0:
185,289,20879,2,0,P|156:298|131:312,3,47.5,2|2|2|2,0:3|0:3|0:3|0:3,0:0:0:0:
67,357,21179,6,0,P|37:348|12:334,3,47.5,2|2|2|2,0:3|0:3|0:3|0:3,0:0:0:0:
3,251,21479,1,2,0:3:0:0:
22,221,21554,1,2,0:3:0:0:
37,188,21629,1,2,0:3:0:0:
44,154,21704,1,2,0:3:0:0:
45,118,21779,38,0,B|83:128|116:114|116:114|151:136|151:136|192:122|227:134,1,190,6|2,3:2|0:0,0:0:0:0:
367,5,22829,1,2,0:0:0:0:
367,5,22979,6,0,B|323:61|323:61|345:185,1,190,2|2,0:0|0:0,0:0:0:0:
474,293,24029,1,2,0:0:0:0:
474,293,24179,70,0,B|430:269|383:297|383:297|339:323|274:302,1,190,2|2,0:0|0:0,0:0:0:0:
64,107,25979,54,0,P|82:201|22:279,1,190,2|2,3:2|3:2,0:0:0:0:
30,273,26579,22,0,B|97:262|97:262|143:286|143:286|215:276,1,190,6|2,0:0|0:0,0:0:0:0:
356,354,27629,1,2,0:0:0:0:
356,354,27779,6,0,P|338:283|392:181,1,190,2|2,0:0|0:0,0:0:0:0:
509,28,28829,1,2,0:0:0:0:
509,28,28979,70,0,L|403:46,1,95,2|0,0:0|0:0,0:0:0:0:
306,112,29579,21,10,0:0:0:0:
292,107,29654,1,8,0:0:0:0:
278,102,29729,1,0,3:0:0:0:
264,97,29804,1,0,3:0:0:0:
250,92,29879,2,0,L|221:82,3,23.75,0|0|0|0,3:0|3:0|3:0|3:0,0:0:0:0:
166,13,30179,22,0,L|192:249,1,218.500004167557,6|8,3:2|0:0,0:0:0:0:
199,321,30629,1,8,0:0:0:0:
79,257,30779,6,0,P|171:266|245:378,1,218.500004167557,6|8,3:2|0:0,0:0:0:0:
314,267,31229,1,8,0:0:0:0:
449,373,31379,38,0,L|460:174,1,190,6|0,3:2|3:0,0:0:0:0:
422,31,31829,1,0,3:0:0:0:
283,140,31979,2,0,L|377:135,1,95,8|0,0:0|3:0,0:0:0:0:
512,89,32279,1,0,3:0:0:0:
399,22,32429,1,2,3:2:0:0:
225,48,32579,6,0,P|259:152|256:242,1,190,2|0,3:2|3:0,0:0:0:0:
220,344,33029,1,0,3:0:0:0:
397,305,33179,2,0,L|300:310,1,95,8|0,0:0|3:0,0:0:0:0:
158,254,33479,1,0,3:0:0:0:
238,370,33629,1,2,3:2:0:0:
104,342,33779,70,0,B|125:299|105:239|97:265|72:209|94:159,1,190,2|0,3:2|3:0,0:0:0:0:
153,57,34229,1,0,3:0:0:0:
273,198,34379,2,0,P|227:208|181:200,1,95,8|0,0:0|3:0,0:0:0:0:
266,80,34679,1,0,3:0:0:0:
365,231,34829,1,0,3:0:0:0:
430,72,34979,6,0,P|394:159|402:252,1,190,2|0,3:2|3:0,0:0:0:0:
492,351,35429,1,0,3:0:0:0:
223,360,35579,6,0,B|218:325|241:307|241:307|248:311|248:311|296:291|365:335,1,163.875003125668,14|0,0:0|1:0,0:0:0:0:
344,338,35879,2,0,B|298:307|250:327|250:327|243:323|243:323|220:341|225:376,1,163.875003125668,6|0,3:2|1:0,0:0:0:0:
96,376,36179,54,0,B|114:349|120:311|120:311|83:254|69:176,1,190,6|0,3:2|3:0,0:0:0:0:
190,91,36629,1,0,3:0:0:0:
192,264,36779,2,0,P|169:218|156:169,1,95,8|0,0:0|3:0,0:0:0:0:
145,7,37079,1,0,3:0:0:0:
45,82,37229,1,2,3:2:0:0:
190,91,37379,6,0,B|231:70|285:80|285:80|321:114|375:108,1,190,2|0,3:2|3:0,0:0:0:0:
430,0,37829,1,0,3:0:0:0:
489,161,37979,2,0,P|500:117|490:61,1,95,8|0,0:0|3:0,0:0:0:0:
402,192,38279,1,0,3:0:0:0:
480,289,38429,1,2,3:2:0:0:
369,363,38579,70,0,B|302:351|302:351|245:372|245:372|168:360,1,190,2|0,3:2|3:0,0:0:0:0:
117,263,39029,1,0,3:0:0:0:
22,340,39179,1,8,0:0:0:0:
25,314,39254,1,8,0:0:0:0:
28,288,39329,1,0,3:0:0:0:
31,262,39404,1,0,3:0:0:0:
34,236,39479,2,0,L|19:179,3,47.5,0|0|0|0,3:0|3:0|3:0|3:0,0:0:0:0:
27,141,39779,6,0,B|155:155|155:155|169:114|201:76,1,218.500004167557,6|0,3:2|3:0,0:0:0:0:
314,52,40229,1,0,3:0:0:0:
314,52,40304,1,0,3:0:0:0:
314,52,40379,2,0,B|325:115|287:159|287:159|292:221|352:243,1,218.500004167557,14|0,0:0|3:2,0:0:0:0:
134,371,40979,70,0,B|153:328|131:277|131:277|135:265|135:265|94:295|40:286,1,190,6|0,3:2|3:0,0:0:0:0:
60,156,41429,1,0,3:0:0:0:
151,248,41579,2,0,P|194:231|259:228,1,95,8|0,0:0|3:0,0:0:0:0:
344,280,41879,1,0,3:0:0:0:
424,201,42029,1,2,3:2:0:0:
501,303,42179,6,0,B|494:235|472:179|472:179|495:150|510:118,1,190,2|0,3:2|3:0,0:0:0:0:
395,64,42629,1,0,3:0:0:0:
296,173,42779,2,0,B|343:182|343:182|405:170,1,95,8|0,0:0|3:0,0:0:0:0:
270,46,43079,1,0,3:0:0:0:
270,46,43229,1,2,3:2:0:0:
180,152,43379,70,0,B|54:130|54:130|28:60,1,190,2|0,3:2|3:0,0:0:0:0:
142,19,43829,1,0,3:0:0:0:
39,154,43979,2,0,L|53:256,1,95,8|0,0:0|3:0,0:0:0:0:
129,305,44279,1,0,3:0:0:0:
129,305,44429,1,0,3:0:0:0:
36,372,44579,6,0,B|102:332|176:326|176:326|190:343|210:359,1,190,2|0,3:2|3:0,0:0:0:0:
282,271,45029,1,0,3:0:0:0:
384,362,45179,6,0,B|390:293|390:293|402:277|402:277|410:193,1,163.875003125668,14|0,0:0|1:0,0:0:0:0:
460,277,45479,2,0,B|454:208|454:208|442:192|442:192|434:117,1,163.875003125668,6|0,3:2|1:0,0:0:0:0:
366,56,45779,54,0,B|303:29|227:34|227:34|205:79,1,190,6|0,3:2|3:0,0:0:0:0:
162,170,46229,1,0,3:0:0:0:
139,5,46379,2,0,L|98:91,1,95,8|0,0:0|3:0,0:0:0:0:
37,207,46679,1,0,3:0:0:0:
37,207,46829,1,2,3:2:0:0:
162,170,46979,6,0,B|184:185|211:195|211:195|226:285|139:328,1,190,2|0,3:2|3:0,0:0:0:0:
74,364,47429,1,0,3:0:0:0:
226,289,47579,2,0,P|273:301|319:326,1,95,8|0,0:0|3:0,0:0:0:0:
406,384,47879,1,0,3:0:0:0:
370,244,48029,1,2,3:2:0:0:
492,273,48179,70,0,P|417:211|360:132,1,190,2|0,3:2|3:0,0:0:0:0:
335,6,48629,1,0,3:0:0:0:
512,89,48779,1,8,0:0:0:0:
477,96,48854,1,8,0:0:0:0:
441,99,48929,1,0,3:0:0:0:
405,99,49004,1,0,3:0:0:0:
370,95,49079,2,0,P|343:100|320:111,3,47.5,0|0|0|0,3:0|3:0|3:0|3:0,0:0:0:0:
294,127,49379,6,0,B|272:94|228:89|228:89|180:158|240:234,1,218.500004167557,6|0,3:2|3:0,0:0:0:0:
135,279,49829,1,0,3:0:0:0:
136,268,49904,1,0,3:0:0:0:
137,257,49979,2,0,P|81:244|15:252,1,109.250002083778,10|0,0:0|3:0,0:0:0:0:
103,380,50279,1,10,0:0:0:0:
129,377,50354,1,8,0:0:0:0:
155,374,50429,1,8,0:0:0:0:
181,371,50504,1,8,0:0:0:0:
207,368,50579,70,0,B|255:348|274:291|274:291|334:277|388:306,1,218.500004167557,6|0,3:2|3:0,0:0:0:0:
383,303,50954,1,0,3:0:0:0:
383,303,51029,1,8,0:0:0:0:
486,207,51179,2,0,L|493:315,2,109.250002083778,2|10|0,3:2|0:0|3:0,0:0:0:0:
411,111,51629,1,8,0:0:0:0:
512,22,51779,6,0,B|458:69|398:62|398:62|395:69|395:69|353:43|292:52,1,218.500004167557,2|0,3:2|3:0,0:0:0:0:
277,144,52229,1,8,0:0:0:0:
189,0,52379,2,0,P|203:52|193:105,2,109.250002083778,2|10|0,3:2|0:0|3:0,0:0:0:0:
15,86,52829,1,8,0:0:0:0:
21,98,52904,1,8,0:0:0:0:
27,110,52979,70,0,P|73:113|125:159,1,109.250002083778,6|8,3:2|0:0,0:0:0:0:
119,273,53279,2,0,P|165:270|217:224,1,109.250002083778,2|8,3:2|0:0,0:0:0:0:
312,106,53579,6,0,P|308:166|306:231,1,109.250002083778,2|8,3:2|0:0,0:0:0:0:
207,12,53879,2,0,P|210:66|212:121,1,109.250002083778,2|8,3:2|0:0,0:0:0:0:
410,26,54179,70,0,P|353:41|321:80,1,109.250002083778,2|8,3:2|0:0,0:0:0:0:
424,181,54479,2,0,P|481:166|513:127,1,109.250002083778,2|8,3:2|0:0,0:0:0:0:
389,267,54779,6,0,P|304:257|191:342,1,218.500004167557,2|8,3:2|0:0,0:0:0:0:
192,307,55154,1,8,0:0:0:0:
185,286,55229,1,8,0:0:0:0:
179,264,55304,1,8,0:0:0:0:
172,242,55379,70,0,B|186:174|204:110|204:110|226:161|288:185,1,218.500004167557,6|0,3:2|3:0,0:0:0:0:
258,170,55754,1,0,3:0:0:0:
258,170,55829,1,8,0:0:0:0:
419,85,55979,2,0,L|311:73,2,109.250002083778,2|10|0,3:2|0:0|3:0,0:0:0:0:
506,169,56429,1,8,0:0:0:0:
467,2,56579,6,0,L|454:239,1,218.500004167557,2|0,3:2|3:0,0:0:0:0:
512,345,57029,1,8,0:0:0:0:
323,326,57179,2,0,P|373:303|429:309,2,109.250002083778,2|10|0,3:2|0:0|3:0,0:0:0:0:
223,233,57629,1,8,0:0:0:0:
225,246,57704,1,8,0:0:0:0:
227,259,57779,70,0,L|245:420,1,109.250002083778,6|8,3:2|0:0,0:0:0:0:
120,197,58079,2,0,L|102:358,1,109.250002083778,2|8,3:2|0:0,0:0:0:0:
236,136,58379,6,0,P|183:147|129:152,1,109.250002083778,6|8,3:2|0:0,0:0:0:0:
0,44,58679,2,0,P|54:48|107:59,1,109.250002083778,2|8,3:2|0:0,0:0:0:0:
258,132,58979,70,0,P|237:77|256:23,1,109.250002083778,6|8,3:2|0:0,0:0:0:0:
455,175,59279,2,0,P|403:179|346:192,1,109.250002083778,6|8,3:2|0:0,0:0:0:0:
512,0,59579,6,0,L|500:250,1,218.500004167557,6|8,3:2|0:0,0:0:0:0:
501,245,59954,1,8,0:0:0:0:
499,272,60029,1,2,0:3:0:0:
497,300,60104,1,2,0:3:0:0:
496,327,60179,70,0,P|435:326|377:303,1,109.250002083778,6|8,3:2|0:0,0:0:0:0:
279,377,60479,1,0,3:0:0:0:
281,368,60554,1,0,3:0:0:0:
283,360,60629,1,8,0:0:0:0:
294,231,60779,1,2,3:2:0:0:
173,175,60929,2,0,P|188:227|193:281,1,109.250002083778,10|0,0:0|3:0,0:0:0:0:
263,135,61229,1,10,0:0:0:0:
76,168,61379,6,0,P|175:154|259:70,1,218.500004167557,2|0,3:2|3:0,0:0:0:0:
256,70,61754,1,0,3:0:0:0:
254,65,61829,1,8,0:0:0:0:
137,3,61979,1,2,3:2:0:0:
23,85,62129,2,0,P|48:140|47:192,1,109.250002083778,10|0,0:0|3:0,0:0:0:0:
9,283,62429,1,10,0:0:0:0:
157,384,62579,70,0,L|149:255,1,109.250002083778,6|8,3:2|0:0,0:0:0:0:
283,196,62879,1,0,3:0:0:0:
280,207,62954,1,0,3:0:0:0:
278,218,63029,1,8,0:0:0:0:
254,325,63179,1,2,3:2:0:0:
385,266,63329,2,0,P|445:279|488:319,1,109.250002083778,10|0,0:0|3:0,0:0:0:0:
352,365,63629,1,10,0:0:0:0:
391,250,63779,6,0,B|394:217|405:193|405:193|344:138|315:57,1,218.500004167557,2|0,3:2|3:0,0:0:0:0:
316,61,64229,1,8,0:0:0:0:
202,0,64379,1,2,3:2:0:0:
125,166,64529,1,10,0:0:0:0:
236,114,64679,1,8,0:0:0:0:
198,97,64754,1,8,0:0:0:0:
160,81,64829,1,10,0:0:0:0:
123,64,64904,1,8,0:0:0:0:
85,48,64979,70,0,B|106:201|106:201|79:230|60:273,1,218.500004167557,6|0,3:2|3:0,0:0:0:0:
55,276,65354,1,0,3:0:0:0:
47,302,65429,1,8,0:0:0:0:
143,368,65579,1,2,3:2:0:0:
276,275,65729,2,0,B|234:262|234:262|172:282,2,109.250002083778,10|0|10,0:0|3:0|0:0,0:0:0:0:
337,369,66179,6,0,B|303:324|332:259|343:268|374:217|345:161,1,218.500004167557,2|0,3:2|3:0,0:0:0:0:
330,138,66554,1,0,3:0:0:0:
311,119,66629,1,8,0:0:0:0:
353,12,66779,1,2,3:2:0:0:
501,71,66929,2,0,B|498:131|450:157|450:157|448:162|448:162|391:152|343:175,1,218.500004167557,2|2,3:2|3:2,0:0:0:0:
202,78,67379,69,4,3:2:0:0:
207,104,67454,1,0,3:0:0:0:
210,131,67529,1,8,0:0:0:0:
210,158,67604,1,8,0:0:0:0:
207,185,67679,2,0,P|180:190|150:191,3,54.6250010418892,0|0|8|8,3:0|3:0|0:0|0:0,0:0:0:0:
64,184,67979,5,0,3:0:0:0:
59,210,68054,1,0,3:0:0:0:
56,237,68129,1,8,0:0:0:0:
56,264,68204,1,8,0:0:0:0:
59,291,68279,2,0,P|85:296|115:297,3,54.6250010418892,0|0|8|8,3:0|3:0|0:0|0:0,0:0:0:0:
203,282,68579,69,8,0:0:0:0:
247,381,68729,1,8,0:0:0:0:
302,258,68879,1,8,0:0:0:0:
258,357,69029,1,8,0:0:0:0:
393,368,69179,5,8,0:0:0:0:
302,258,69329,1,8,0:0:0:0:
465,238,69479,1,8,0:0:0:0:
388,382,69629,1,8,0:0:0:0:
284,239,69779,38,2,B|267:179|301:131|301:131|299:113|299:113|347:72|348:13|348:13|396:9|418:53|418:53|347:71|336:136,1,456,4|2,3:2|0:0,0:0:0:0:
36,272,72179,6,2,B|114:246|184:272|184:272|159:194|194:115|194:115|165:93|148:72|148:72|120:102|119:147,1,456,0|2,0:0|0:0,0:0:0:0:
109,313,74279,1,0,3:0:0:0:
290,206,74579,70,2,B|350:181|447:205|447:205|436:228|435:254|435:254|438:279|450:299|450:299|377:260|394:196|394:196|404:159|399:124,1,456,4|2,3:2|0:0,0:0:0:0:
43,47,76979,21,8,0:0:0:0:
132,133,77129,1,8,0:0:0:0:
24,248,77279,2,0,L|35:138,1,95,8|8,0:0|0:0,0:0:0:0:
237,145,77579,5,8,0:0:0:0:
151,234,77729,1,8,0:0:0:0:
140,35,77879,2,0,L|235:45,1,95,8|8,0:0|0:0,0:0:0:0:
386,60,78179,5,8,0:0:0:0:
386,60,78629,53,0,3:0:0:0:
395,84,78704,1,0,3:0:0:0:
404,108,78779,2,0,L|422:155,1,47.5,2|2,0:3|0:3,0:0:0:0:
358,237,78929,2,0,L|341:192,1,47.5,0|0,3:0|3:0,0:0:0:0:
460,249,79079,53,8,0:0:0:0:
460,249,79379,54,0,B|422:234|373:242|373:242|341:287|291:287,1,185.249991519928,4|0,3:2|1:0,0:0:0:0:
229,359,79679,2,0,P|261:295|192:200,1,185.249991519928,8|0,0:0|1:0,0:0:0:0:
168,288,79979,2,0,P|110:303|41:280,1,123.499994346619,2|2,3:2|3:2,0:0:0:0:
2,155,80279,1,10,0:0:0:0:
191,99,80429,6,0,B|172:46|130:36|130:36|84:115|110:185,1,246.999988693238,2|0,3:2|3:0,0:0:0:0:
41,347,80879,2,0,P|100:332|158:348,1,123.499994346619,8|0,0:0|0:0,0:0:0:0:
347,295,81179,1,2,3:2:0:0:
163,251,81329,1,2,3:2:0:0:
258,384,81479,2,0,L|252:246,1,123.499994346619,10|0,0:0|0:0,0:0:0:0:
415,186,81779,70,0,P|326:196|262:132,1,185.249991519928,0|0,3:0|1:0,0:0:0:0:
296,48,82079,2,0,P|384:37|448:101,1,185.249991519928,8|0,0:0|1:0,0:0:0:0:
509,177,82379,2,0,P|500:240|502:304,1,123.499994346619,2|2,3:2|3:2,0:0:0:0:
371,384,82679,1,10,0:0:0:0:
508,333,82829,6,0,B|459:275|390:291|391:289|390:292|328:311|267:264,1,246.999988693238,2|0,3:2|3:0,0:0:0:0:
104,362,83279,2,0,P|175:317|182:212,1,185.249991519928,10|0,0:0|0:0,0:0:0:0:
142,145,83579,1,2,3:2:0:0:
235,107,83729,1,2,3:2:0:0:
325,149,83879,1,10,0:0:0:0:
417,114,84029,1,2,3:2:0:0:
398,0,84179,70,0,B|378:134|378:134|404:197,1,185.249991519928,6|0,3:2|1:0,0:0:0:0:
485,182,84479,2,0,B|503:228|503:228|483:362,1,185.249991519928,8|0,0:0|1:0,0:0:0:0:
397,354,84779,2,0,B|335:335|335:335|266:350,1,123.499994346619,2|2,3:2|3:2,0:0:0:0:
166,384,85079,1,10,0:0:0:0:
4,264,85229,6,0,P|120:258|154:147,1,246.999988693238,6|0,3:2|3:0,0:0:0:0:
41,53,85679,2,0,P|42:114|55:175,1,123.499994346619,8|0,0:0|0:0,0:0:0:0:
191,39,85979,1,2,3:2:0:0:
273,168,86129,1,2,3:2:0:0:
273,168,86204,1,0,3:0:0:0:
273,168,86279,1,10,0:0:0:0:
376,85,86429,1,0,3:0:0:0:
483,225,86579,70,0,B|426:198|357:213|357:213|323:249|310:304,1,185.249991519928,6|0,3:2|1:0,0:0:0:0:
276,341,86879,2,0,B|219:368|150:353|150:353|116:317|103:262,1,185.249991519928,8|0,0:0|1:0,0:0:0:0:
132,199,87179,2,0,P|68:211|18:263,1,123.499994346619,2|2,3:2|3:2,0:0:0:0:
200,269,87479,1,10,0:0:0:0:
189,90,87629,6,0,B|166:48|119:45|119:45|87:124|133:200,1,246.999988693238,2|0,3:2|3:0,0:0:0:0:
276,211,88079,2,0,P|336:174|398:162,1,123.499994346619,8|0,0:0|0:0,0:0:0:0:
502,200,88379,1,2,3:2:0:0:
502,200,88529,1,2,3:2:0:0:
386,39,88679,2,0,B|388:97|388:97|386:101|386:101|387:161,1,123.499994346619,10|0,0:0|0:0,0:0:0:0:
512,320,88979,70,0,B|468:293|421:309|421:309|388:346|340:342,1,185.249991519928,0|0,3:0|1:0,0:0:0:0:
257,358,89279,2,0,P|284:274|232:200,1,185.249991519928,8|0,0:0|1:0,0:0:0:0:
188,287,89579,2,0,P|127:289|69:258,1,123.499994346619,2|2,3:2|3:2,0:0:0:0:
43,163,89879,1,10,0:0:0:0:
5,338,90029,6,0,P|31:250|-6:91,1,246.999988693238,2|0,3:2|3:0,0:0:0:0:
81,0,90479,2,0,P|108:72|151:102,1,123.499994346619,10|0,0:0|0:0,0:0:0:0:
370,146,90779,1,2,3:2:0:0:
236,16,90929,1,2,3:2:0:0:
263,125,91079,1,10,0:0:0:0:
343,37,91229,1,2,3:2:0:0:
510,124,91379,70,0,P|421:126|375:205,1,185.249991519928,6|0,3:2|1:0,0:0:0:0:
295,240,91679,2,0,P|384:242|430:321,1,185.249991519928,8|0,0:0|1:0,0:0:0:0:
355,365,91979,2,0,P|289:354|225:367,1,123.499994346619,2|2,3:2|3:2,0:0:0:0:
150,312,92279,1,10,0:0:0:0:
28,380,92429,6,0,B|-8:329|26:269|26:269|25:259|25:259|31:254|31:254|62:203|37:148,1,246.999988693238,6|0,3:2|3:0,0:0:0:0:
17,30,92879,2,0,P|15:91|37:148,1,123.499994346619,8|0,0:0|0:0,0:0:0:0:
157,183,93179,1,2,3:2:0:0:
259,109,93329,1,2,3:2:0:0:
259,109,93404,1,0,3:0:0:0:
259,109,93479,1,10,0:0:0:0:
114,73,93629,1,2,3:2:0:0:
77,234,93779,5,6,3:2:0:0:
256,192,93854,12,0,95429,0:0:0:0:
234,318,95579,53,8,0:0:0:0:
248,311,95654,1,8,0:0:0:0:
262,304,95729,2,0,L|167:300,1,54.6250010418892,8|8,0:0|0:0,0:0:0:0:
358,223,95879,5,0,3:0:0:0:
344,230,95954,1,0,3:0:0:0:
330,237,96029,2,0,L|425:241,1,54.6250010418892,0|0,3:0|3:0,0:0:0:0:
466,380,96179,38,0,B|436:338|455:287|469:295|489:244|466:197,1,190,6|0,3:2|3:0,0:0:0:0:
387,81,96629,1,0,3:0:0:0:
511,90,96779,2,0,P|457:99|401:86,1,95,8|0,0:0|3:0,0:0:0:0:
319,9,97079,1,0,3:0:0:0:
319,9,97229,1,2,3:2:0:0:
249,182,97379,6,0,P|248:92|171:41,1,190,2|0,3:2|3:0,0:0:0:0:
48,137,97829,1,0,3:0:0:0:
166,136,97979,2,0,P|112:146|66:143,1,95,8|0,0:0|3:0,0:0:0:0:
3,235,98279,1,0,3:0:0:0:
3,235,98429,1,2,3:2:0:0:
101,349,98579,70,0,B|159:306|159:306|270:343,1,190,2|0,3:2|3:0,0:0:0:0:
376,383,99029,1,0,3:0:0:0:
255,235,99179,2,0,L|344:265,1,95,8|0,0:0|3:0,0:0:0:0:
465,309,99479,1,0,3:0:0:0:
364,272,99629,1,0,3:0:0:0:
509,153,99779,6,0,P|419:144|376:64,1,190,2|0,3:2|3:0,0:0:0:0:
474,63,100229,1,0,3:0:0:0:
306,5,100379,6,0,B|246:12|246:12|212:51|212:51|148:60,1,163.875003125668,14|0,0:0|1:0,0:0:0:0:
82,0,100679,2,0,B|117:43|117:43|100:163,1,163.875003125668,6|0,3:2|1:0,0:0:0:0:
22,203,100979,54,0,B|71:184|119:206|119:206|173:233|228:211,1,190,6|0,3:2|3:0,0:0:0:0:
286,135,101429,1,0,3:0:0:0:
397,255,101579,2,0,P|349:246|303:251,1,95,8|0,0:0|3:0,0:0:0:0:
224,322,101879,1,0,3:0:0:0:
224,322,102029,1,2,3:2:0:0:
426,362,102179,6,0,B|453:315|422:272|422:272|391:229|412:182,1,190,2|0,3:2|3:0,0:0:0:0:
366,8,102629,1,0,3:0:0:0:
423,163,102779,2,0,P|440:120|433:74,1,95,8|0,0:0|3:0,0:0:0:0:
286,135,103079,1,0,3:0:0:0:
286,135,103229,1,2,3:2:0:0:
160,0,103379,70,0,B|142:139|142:139|108:148|80:168,1,190,2|0,3:2|3:0,0:0:0:0:
13,226,103829,1,0,3:0:0:0:
162,267,103979,1,8,0:0:0:0:
168,244,104054,1,8,0:0:0:0:
174,221,104129,2,0,L|123:243,1,47.5,0|0,3:0|3:0,0:0:0:0:
52,364,104279,2,0,L|95:345,3,47.5,0|0|0|0,3:0|3:0|3:0|3:0,0:0:0:0:
199,362,104579,22,0,B|263:333|263:333|341:343|341:343|405:315,1,218.500004167557,6|0,3:2|3:0,0:0:0:0:
464,196,105029,1,0,3:0:0:0:
488,194,105104,1,0,3:0:0:0:
512,192,105179,2,0,B|400:140|400:140|407:76|458:53,1,218.500004167557,14|0,0:0|3:0,0:0:0:0:
202,0,105779,70,0,P|221:90|161:160,1,190,6|8,3:2|0:0,0:0:0:0:
119,64,106229,1,0,3:0:0:0:
6,140,106379,2,0,B|8:186|8:186|6:191|6:191|7:234,1,95,0|0,3:0|3:0,0:0:0:0:
11,364,106679,1,8,0:0:0:0:
9,262,106829,1,2,3:2:0:0:
131,340,106979,70,0,B|200:364|200:364|311:283,1,190,2|8,3:2|0:0,0:0:0:0:
325,182,107429,1,0,3:0:0:0:
403,335,107579,2,0,B|389:289|389:289|399:242,1,95,0|0,3:0|3:0,0:0:0:0:
512,162,107879,1,8,0:0:0:0:
484,285,108029,1,2,3:2:0:0:
411,113,108179,6,0,P|349:77|232:122,1,190,2|8,3:2|0:0,0:0:0:0:
178,197,108629,1,0,3:0:0:0:
46,89,108779,2,0,L|155:99,1,95,0|0,3:0|3:0,0:0:0:0:
204,5,109079,1,8,0:0:0:0:
204,5,109229,1,0,3:0:0:0:
0,0,109379,70,0,P|17:87|12:204,1,190,2|0,3:2|3:0,0:0:0:0:
75,277,109829,1,0,3:0:0:0:
13,372,109979,22,0,B|111:308|111:308|146:313|174:343,1,163.875003125668,14|0,0:0|1:0,0:0:0:0:
237,254,110279,2,0,B|200:275|184:317|184:317|200:358|231:380,1,163.875003125668,6|0,3:2|1:0,0:0:0:0:
308,326,110579,70,0,B|368:328|368:328|400:279|400:279|494:258,1,190,6|8,3:2|0:0,0:0:0:0:
512,167,111029,1,0,3:0:0:0:
385,84,111179,2,0,B|394:126|394:126|394:137|394:137|404:176,1,95,0|0,3:0|3:0,0:0:0:0:
436,291,111479,1,8,0:0:0:0:
436,291,111629,1,2,3:2:0:0:
303,236,111779,70,0,B|254:212|205:247|205:247|184:309|123:305,1,190,2|8,3:2|0:0,0:0:0:0:
67,246,112229,1,0,3:0:0:0:
0,370,112379,2,0,P|11:325|15:273,1,95,0|0,3:0|3:0,0:0:0:0:
0,123,112679,1,8,0:0:0:0:
58,229,112829,1,2,3:2:0:0:
160,96,112979,6,0,B|229:80|229:80|280:91|280:91|345:76,1,190,2|0,3:2|3:0,0:0:0:0:
422,1,113429,1,0,3:0:0:0:
511,99,113579,1,8,0:0:0:0:
488,107,113654,1,8,0:0:0:0:
466,116,113729,2,0,L|512:125,1,47.5,0|0,3:0|3:0,0:0:0:0:
394,180,113879,2,0,L|347:189,3,47.5,0|0|0|0,3:0|3:0|3:0|3:0,0:0:0:0:
488,218,114179,6,0,B|459:326|459:326|357:362,1,218.500004167557,6|0,3:2|3:0,0:0:0:0:
215,215,114629,1,0,3:0:0:0:
233,218,114704,1,0,3:0:0:0:
251,221,114779,2,0,B|263:276|263:276|249:327,1,109.250002083778,10|0,0:0|3:0,0:0:0:0:
77,373,115079,1,10,0:0:0:0:
80,332,115154,1,8,0:0:0:0:
84,291,115229,1,8,0:0:0:0:
88,250,115304,1,8,0:0:0:0:
90,209,115379,54,0,P|50:171|39:116,1,113.999996520996,6|0,3:2|3:0,0:0:0:0:
202,21,115679,2,0,P|191:76|151:115,1,113.999996520996,10|0,0:0|3:0,0:0:0:0:
0,23,115979,2,0,L|120:28,1,113.999996520996,2|0,3:2|3:0,0:0:0:0:
210,130,116279,2,0,L|323:125,1,113.999996520996,10|0,0:0|3:0,0:0:0:0:
496,6,116579,6,0,B|508:66|508:66|489:116,1,113.999996520996,2|0,3:2|3:0,0:0:0:0:
415,262,116879,2,0,B|396:211|396:211|408:152,1,113.999996520996,10|0,0:0|3:0,0:0:0:0:
512,362,117179,2,0,P|456:352|399:356,1,113.999996520996,2|0,3:2|3:0,0:0:0:0:
286,380,117479,1,10,0:0:0:0:
93,329,117629,70,0,P|167:332|224:205,1,227.999993041992,6|2,3:2|3:2,0:0:0:0:
105,129,118079,2,0,P|112:185|132:239,1,113.999996520996,10|0,0:0|3:0,0:0:0:0:
317,96,118379,2,0,B|263:98|263:98|259:102|259:102|204:105,1,113.999996520996,2|0,3:2|3:0,0:0:0:0:
22,25,118679,2,0,B|75:27|75:27|79:31|79:31|134:34,1,113.999996520996,10|0,0:0|3:0,0:0:0:0:
346,95,118979,5,10,0:0:0:0:
346,95,119129,1,0,3:0:0:0:
297,215,119279,1,10,0:0:0:0:
297,215,119429,1,0,3:0:0:0:
423,256,119579,1,10,0:0:0:0:
423,256,119729,1,0,3:0:0:0:
472,125,119879,1,10,0:0:0:0:
512,278,120029,70,0,B|439:284|439:284|367:332|367:332|290:339,1,227.999993041992,6|2,3:2|3:2,0:0:0:0:
108,271,120479,2,0,L|221:282,1,113.999996520996,10|0,0:0|3:0,0:0:0:0:
57,356,120779,1,2,3:2:0:0:
57,356,120929,1,0,3:0:0:0:
3,215,121079,2,0,P|5:158|40:115,1,113.999996520996,10|0,0:0|3:0,0:0:0:0:
191,74,121379,5,2,3:2:0:0:
97,194,121529,1,0,3:0:0:0:
0,26,121679,2,0,L|128:20,1,113.999996520996,10|0,0:0|3:0,0:0:0:0:
313,175,121979,2,0,L|185:169,1,113.999996520996,2|0,3:2|3:0,0:0:0:0:
277,35,122279,1,10,0:0:0:0:
414,120,122429,70,0,P|349:197|381:315,1,227.999993041992,6|2,3:2|3:2,0:0:0:0:
490,380,122879,1,10,0:0:0:0:
490,380,123029,1,2,3:2:0:0:
468,233,123179,1,10,0:0:0:0:
468,233,123329,1,2,3:2:0:0:
393,326,123479,1,10,0:0:0:0:
393,326,123629,1,2,3:2:0:0:
252,209,123779,5,6,3:2:0:0:
252,209,124079,69,8,0:0:0:0:
233,210,124154,1,8,0:0:0:0:
214,211,124229,2,0,P|218:243|227:271,1,56.9999982604981,0|0,3:0|3:0,0:0:0:0:
131,381,124379,1,2,0:3:0:0:
133,338,124454,1,2,0:3:0:0:
117,299,124529,1,2,0:3:0:0:
87,269,124604,1,2,0:3:0:0:
47,254,124679,5,8,0:0:0:0:
47,254,124979,70,0,P|29:198|89:86,1,190,6|0,3:2|3:0,0:0:0:0:
100,83,125354,1,0,3:0:0:0:
114,81,125429,1,8,0:0:0:0:
240,184,125579,2,0,B|221:198|221:198|184:208|152:191,2,95,2|10|0,3:2|0:0|3:0,0:0:0:0:
321,106,126029,1,8,0:0:0:0:
297,268,126179,6,0,L|278:78,1,190,2|0,3:2|3:0,0:0:0:0:
357,0,126629,1,8,0:0:0:0:
417,133,126779,2,0,L|407:235,2,95,2|10|0,3:2|0:0|3:0,0:0:0:0:
495,267,127229,1,8,0:0:0:0:
489,290,127304,1,8,0:0:0:0:
476,309,127379,70,0,P|432:333|383:327,1,95,6|8,3:2|0:0,0:0:0:0:
292,378,127679,2,0,P|248:353|199:359,1,95,2|8,3:2|0:0,0:0:0:0:
87,265,127979,6,0,L|94:362,1,95,2|8,3:2|0:0,0:0:0:0:
190,156,128279,2,0,L|183:253,1,95,2|8,3:2|0:0,0:0:0:0:
0,127,128579,70,0,P|49:110|100:111,1,95,2|8,3:2|0:0,0:0:0:0:
265,36,128879,2,0,P|216:53|165:52,1,95,2|8,3:2|0:0,0:0:0:0:
296,153,129179,6,0,P|383:144|412:236,1,190,2|8,3:2|0:0,0:0:0:0:
412,251,129554,1,8,0:0:0:0:
412,274,129629,1,8,0:0:0:0:
419,296,129704,1,8,0:0:0:0:
431,316,129779,70,0,B|394:317|342:328|342:328|314:361|314:361|271:359|228:366,1,190,6|0,3:2|3:0,0:0:0:0:
243,360,130154,1,0,3:0:0:0:
229,356,130229,1,8,0:0:0:0:
122,258,130379,2,0,L|109:366,2,95,2|10|0,3:2|0:0|3:0,0:0:0:0:
137,148,130829,1,8,0:0:0:0:
0,214,130979,6,0,B|72:201|72:201|112:211|112:211|194:198,1,190,2|0,3:2|3:0,0:0:0:0:
310,178,131429,1,8,0:0:0:0:
242,22,131579,2,0,B|226:68|226:68|236:120,2,95,2|10|0,3:2|0:0|3:0,0:0:0:0:
394,100,132029,1,8,0:0:0:0:
401,112,132104,1,8,0:0:0:0:
407,124,132179,70,0,B|423:170|423:170|413:222,1,95,6|8,3:2|0:0,0:0:0:0:
506,333,132479,2,0,B|460:325|460:325|459:328|459:328|414:321,1,95,2|8,3:2|0:0,0:0:0:0:
288,379,132779,6,0,B|272:333|272:333|282:281,1,95,6|8,3:2|0:0,0:0:0:0:
189,170,133079,2,0,B|235:178|235:178|236:175|236:175|280:181,1,95,2|8,3:2|0:0,0:0:0:0:
501,116,133379,70,0,L|398:124,1,95,6|8,3:2|0:0,0:0:0:0:
189,170,133679,2,0,L|86:162,1,95,6|8,3:2|0:0,0:0:0:0:
280,50,133979,2,0,B|225:79|228:155|228:155|249:188|278:200,1,190,6|8,3:2|0:0,0:0:0:0:
298,208,134354,1,8,0:0:0:0:
316,222,134429,1,2,0:3:0:0:
330,240,134504,1,2,0:3:0:0:
337,262,134579,6,0,P|331:313|339:358,1,95,6|8,3:2|0:0,0:0:0:0:
503,316,134879,1,0,3:0:0:0:
485,310,134954,1,0,3:0:0:0:
467,304,135029,1,8,0:0:0:0:
338,355,135179,1,2,3:2:0:0:
206,307,135329,2,0,P|157:317|114:349,1,95,10|0,0:0|3:0,0:0:0:0:
0,273,135629,1,10,0:0:0:0:
114,210,135779,70,0,B|127:159|105:149|125:103|125:103|106:57|120:17,1,190,2|0,3:2|3:0,0:0:0:0:
123,10,136154,1,0,3:0:0:0:
133,0,136229,1,8,0:0:0:0:
261,14,136379,1,2,3:2:0:0:
305,138,136529,2,0,P|260:153|213:155,1,95,10|0,0:0|3:0,0:0:0:0:
104,101,136829,1,10,0:0:0:0:
12,261,136979,6,0,B|72:247|72:247|136:264|136:264|196:251,1,190,6|0,3:2|3:0,0:0:0:0:
211,248,137354,1,0,3:0:0:0:
225,245,137429,1,8,0:0:0:0:
399,314,137579,1,2,3:2:0:0:
318,372,137729,2,0,B|304:326|304:326|309:269,2,95,10|0|10,0:0|3:0|0:0,0:0:0:0:
489,273,138179,70,0,B|455:237|455:237|472:146|472:146|436:88,1,190,2|0,3:2|3:0,0:0:0:0:
332,102,138629,1,8,0:0:0:0:
477,4,138779,2,0,B|426:-1|426:-1|385:15,1,95,2|10,3:2|0:0,0:0:0:0:
320,123,139079,1,8,0:0:0:0:
284,117,139154,1,8,0:0:0:0:
249,111,139229,1,10,0:0:0:0:
214,105,139304,1,8,0:0:0:0:
179,90,139379,6,0,B|148:139|157:213|157:213|117:214|76:239,1,190,6|0,3:2|3:0,0:0:0:0:
89,229,139754,1,0,3:0:0:0:
80,230,139829,1,8,0:0:0:0:
238,279,139979,1,2,3:2:0:0:
149,374,140129,2,0,B|138:344|144:307|144:307|148:324|158:335,1,95,10|0,0:0|3:0,0:0:0:0:
263,374,140429,1,10,0:0:0:0:
254,196,140579,70,0,P|164:254|58:233,1,190,2|0,3:2|3:0,0:0:0:0:
74,236,140954,1,0,3:0:0:0:
66,224,141029,1,8,0:0:0:0:
18,121,141179,1,2,3:2:0:0:
152,45,141329,2,0,B|149:93|149:93|147:96|147:96|144:140,2,95,2|8|2,3:2|0:0|3:2,0:0:0:0:
274,123,141779,5,4,3:2:0:0:
308,129,141854,1,0,3:0:0:0:
343,122,141929,1,8,0:0:0:0:
372,102,142004,1,0,3:0:0:0:
391,72,142079,2,0,P|425:59|463:57,3,47.5,0|0|8|0,3:0|3:0|0:0|3:0,0:0:0:0:
511,102,142379,69,0,3:0:0:0:
509,137,142454,1,0,3:0:0:0:
507,173,142529,1,8,0:0:0:0:
505,208,142604,1,0,3:0:0:0:
504,244,142679,2,0,L|502:309,3,47.5,0|0|8|0,3:0|3:0|0:0|3:0,0:0:0:0:
447,367,142979,5,8,0:0:0:0:
367,283,143129,1,8,0:0:0:0:
241,300,143279,1,8,0:0:0:0:
321,384,143429,1,8,0:0:0:0:
286,209,143579,69,8,0:0:0:0:
189,384,143729,1,8,0:0:0:0:
92,284,143879,1,8,0:0:0:0:
241,300,144029,1,8,0:0:0:0:
87,383,144179,54,2,B|89:339|68:300|68:300|70:297|70:297|48:261|53:217|53:217|110:269|190:251|213:167|166:110|103:117|103:117|73:58|105:2,1,570,4|2,3:2|0:0,0:0:0:0:
357,102,146579,6,2,B|442:150|504:114|504:114|450:52|358:78|358:78|352:58|352:58|345:71|345:71|277:98|207:52|207:52|243:54|279:35,1,570,0|2,0:0|0:0,0:0:0:0:
297,170,148679,1,0,3:0:0:0:
496,297,148979,70,2,B|435:241|357:263|357:263|318:274|277:257|277:257|277:284|266:311|266:311|208:370|138:342|138:342|66:310|-7:336,1,570,4|2,3:2|0:0,0:0:0:0:
202,146,151379,21,8,0:0:0:0:
133,259,151529,1,8,0:0:0:0:
6,159,151679,2,0,L|110:164,1,95,8|8,0:0|0:0,0:0:0:0:
133,33,151979,5,8,0:0:0:0:
202,146,152129,1,8,0:0:0:0:
329,46,152279,2,0,L|225:51,1,95,8|8,0:0|0:0,0:0:0:0:
311,152,152579,5,8,0:0:0:0:
311,152,153029,53,0,3:0:0:0:
321,159,153104,1,0,3:0:0:0:
331,166,153179,2,0,L|373:198,1,47.5,0|0,3:0|3:0,0:0:0:0:
474,161,153329,2,0,L|436:132,1,47.5,2|2,0:3|0:3,0:0:0:0:
443,256,153479,53,8,0:0:0:0:
443,256,153779,54,0,B|384:290|384:290|333:282|333:282|277:315,1,185.249991519928,4|0,3:2|1:0,0:0:0:0:
204,369,154079,2,0,B|222:299|222:299|146:196,1,185.249991519928,8|0,0:0|1:0,0:0:0:0:
59,213,154379,2,0,P|73:154|126:116,1,123.499994346619,2|2,3:2|3:2,0:0:0:0:
243,155,154679,1,10,0:0:0:0:
409,101,154829,6,0,P|340:139|217:28,1,246.999988693238,2|0,3:2|3:0,0:0:0:0:
88,142,155279,2,0,P|98:78|90:13,1,123.499994346619,8|0,0:0|0:0,0:0:0:0:
0,177,155579,1,2,3:2:0:0:
0,177,155729,1,2,3:2:0:0:
145,220,155879,2,0,P|155:284|147:349,1,123.499994346619,10|0,0:0|0:0,0:0:0:0:
2,376,156179,70,0,B|76:365|76:365|112:375|112:375|184:365,1,185.249991519928,0|0,3:0|1:0,0:0:0:0:
272,348,156479,2,0,B|297:312|268:263|268:263|238:210|262:173,1,185.249991519928,8|0,0:0|1:0,0:0:0:0:
297,83,156779,2,0,P|236:84|184:117,1,123.499994346619,2|2,3:2|3:2,0:0:0:0:
126,212,157079,1,10,0:0:0:0:
7,54,157229,6,0,B|36:90|33:141|33:141|-11:211|29:292,1,246.999988693238,2|0,3:2|3:0,0:0:0:0:
241,220,157679,2,0,B|200:196|200:196|120:212,1,123.499994346619,10|0,0:0|0:0,0:0:0:0:
233,332,157979,1,2,3:2:0:0:
325,296,158129,1,2,3:2:0:0:
346,199,158279,1,10,0:0:0:0:
288,118,158429,1,2,3:2:0:0:
138,55,158579,70,0,P|240:80|328:54,1,185.249991519928,6|0,3:2|1:0,0:0:0:0:
383,7,158879,2,0,B|437:40|437:40|455:112|406:176,1,185.249991519928,8|0,0:0|1:0,0:0:0:0:
353,213,159179,2,0,P|326:270|338:335,1,123.499994346619,2|2,3:2|3:2,0:0:0:0:
464,371,159479,1,10,0:0:0:0:
512,177,159629,6,0,B|427:167|427:167|361:200|361:200|273:191,1,246.999988693238,6|0,3:2|3:0,0:0:0:0:
122,103,160079,2,0,B|73:130|73:130|56:210,1,123.499994346619,8|0,0:0|0:0,0:0:0:0:
71,313,160379,1,2,3:2:0:0:
185,274,160529,1,2,3:2:0:0:
185,274,160604,1,0,3:0:0:0:
185,274,160679,1,10,0:0:0:0:
270,356,160829,1,0,3:0:0:0:
396,280,160979,70,0,P|369:222|367:102,1,185.249991519928,6|0,3:2|1:0,0:0:0:0:
436,43,161279,2,0,B|368:84|368:84|264:48,1,185.249991519928,8|0,0:0|1:0,0:0:0:0:
187,6,161579,2,0,L|66:51,1,123.499994346619,2|2,3:2|3:2,0:0:0:0:
40,148,161879,1,10,0:0:0:0:
0,0,162029,6,0,B|41:83|21:177|21:177|38:214|86:225,1,246.999988693238,2|0,3:2|3:0,0:0:0:0:
215,147,162479,2,0,P|180:168|185:247,1,123.499994346619,8|0,0:0|0:0,0:0:0:0:
263,310,162779,1,2,3:2:0:0:
263,310,162929,1,2,3:2:0:0:
165,362,163079,2,0,P|235:343|283:352,1,123.499994346619,10|0,0:0|0:0,0:0:0:0:
410,316,163379,70,0,B|384:251|384:251|434:208|427:117,1,185.249991519928,0|0,3:0|1:0,0:0:0:0:
349,89,163679,2,0,P|422:120|501:58,1,185.249991519928,8|0,0:0|1:0,0:0:0:0:
416,27,163979,2,0,P|355:-1|284:25,1,123.499994346619,2|2,3:2|3:2,0:0:0:0:
219,85,164279,1,10,0:0:0:0:
91,0,164429,6,0,B|123:58|86:114|86:114|91:124|91:124|62:185|106:240,1,246.999988693238,2|0,3:2|3:0,0:0:0:0:
10,369,164879,2,0,P|66:344|132:343,1,123.499994346619,10|0,0:0|0:0,0:0:0:0:
331,259,165179,1,2,3:2:0:0:
208,384,165329,1,2,3:2:0:0:
224,229,165479,1,10,0:0:0:0:
306,352,165629,1,2,3:2:0:0:
431,263,165779,70,0,P|405:190|465:97,1,185.249991519928,6|0,3:2|1:0,0:0:0:0:
512,193,166079,2,0,B|438:182|438:182|395:195|395:195|329:187,1,185.249991519928,8|0,0:0|1:0,0:0:0:0:
241,126,166379,2,0,B|224:83|224:83|252:4,1,123.499994346619,2|2,3:2|3:2,0:0:0:0:
368,0,166679,1,10,0:0:0:0:
250,146,166829,6,0,B|168:207|66:160|66:160|106:99,1,246.999988693238,6|0,3:2|3:0,0:0:0:0:
0,247,167279,2,0,P|71:259|126:307,1,123.499994346619,8|0,0:0|0:0,0:0:0:0:
180,380,167579,1,2,3:2:0:0:
286,264,167729,1,2,3:2:0:0:
272,266,167804,1,0,3:0:0:0:
258,268,167879,1,10,0:0:0:0:
373,253,168029,1,0,3:0:0:0:
177,220,168179,6,2,B|149:202|92:209|92:209|100:189|100:169|100:169|96:164|96:164|94:143|104:120|104:120|169:165|229:140|229:140|227:136|227:136|329:94|408:141|408:141|393:77|328:66|328:66|283:100|206:100,1,740.999966079714,6|0,3:2|2:0,0:0:0:0:
