osu file format v14

[General]
AudioFilename: audio.mp3
AudioLeadIn: 0
PreviewTime: 79384
Countdown: 1
SampleSet: Soft
StackLeniency: 0.2
Mode: 0
LetterboxInBreaks: 0
WidescreenStoryboard: 1

[Editor]
Bookmarks: 21777,31377,50577,60177,69777,79377,93777,96177,115377,124977,134577,144177,153777,168177
DistanceSpacing: 1
BeatDivisor: 4
GridSize: 4
TimelineZoom: 2.299999

[Metadata]
Title:Forcefield
TitleUnicode:Forcefield
Artist:Thaehan
ArtistUnicode:Thaehan
Creator:-Kemsyt
Version:Hard
Source:
Tags:symphonic melodic metal rock instrumental fa featured artist loki never give up entry
BeatmapID:2822019
BeatmapSetID:1362365

[Difficulty]
HPDrainRate:5
CircleSize:2.4
OverallDifficulty:6.6
ApproachRate:8
SliderMultiplier:1.5
SliderTickRate:1

[Events]
//Background and Video events
0,0,"sentinel.jpg",0,0
//Break Periods
//Storyboard Layer 0 (Background)
//Storyboard Layer 1 (Fail)
//Storyboard Layer 2 (Pass)
//Storyboard Layer 3 (Foreground)
//Storyboard Layer 4 (Overlay)
//Storyboard Sound Samples

[TimingPoints]
179,300,4,2,5,75,1,0
3854,-100,4,2,31,5,0,0
3929,-100,4,2,5,75,0,0
4454,-100,4,2,31,5,0,0
4529,-100,4,2,5,75,0,0
5654,-100,4,2,31,5,0,0
5729,-100,4,2,5,75,0,0
6254,-100,4,2,31,5,0,0
6329,-100,4,2,5,75,0,0
6854,-100,4,2,31,5,0,0
6929,-100,4,2,5,75,0,0
8054,-100,4,2,31,5,0,0
8129,-100,4,2,5,75,0,0
8654,-100,4,2,31,5,0,0
8729,-100,4,2,5,75,0,0
9254,-100,4,2,31,5,0,0
9329,-100,4,2,5,75,0,0
10604,-100,4,2,31,5,0,0
10679,-100,4,2,5,75,0,0
10904,-100,4,2,31,5,0,0
10979,-100,4,2,5,75,0,0
12854,-100,4,2,31,5,0,0
12929,-100,4,2,5,75,0,0
13454,-100,4,2,31,5,0,0
13529,-100,4,2,5,75,0,0
14054,-100,4,2,31,5,0,0
14129,-100,4,2,5,75,0,0
15254,-100,4,2,31,5,0,0
15329,-100,4,2,5,75,0,0
15854,-100,4,2,31,5,0,0
15929,-100,4,2,5,75,0,0
16454,-100,4,2,31,5,0,0
16529,-100,4,2,5,75,0,0
17654,-100,4,2,31,5,0,0
17729,-100,4,2,5,75,0,0
18254,-100,4,2,31,5,0,0
18329,-100,4,2,5,75,0,0
18854,-100,4,2,31,5,0,0
18929,-100,4,2,5,75,0,0
20204,-100,4,2,31,5,0,0
20279,-100,4,2,5,75,0,0
20504,-100,4,2,31,5,0,0
20579,-100,4,2,5,75,0,0
21779,-142.857142857143,4,2,5,75,0,0
22379,-142.857142857143,4,2,6,75,0,0
22828,-142.857142857143,4,2,5,75,0,0
23579,-142.857142857143,4,2,6,75,0,0
23728,-142.857142857143,4,2,5,75,0,0
24779,-142.857142857143,4,2,6,75,0,0
24929,-142.857142857143,4,2,5,75,0,0
25228,-142.857142857143,4,2,5,75,0,0
26204,-142.857142857143,4,2,31,5,0,0
26279,-142.857142857143,4,2,5,75,0,0
26504,-142.857142857143,4,2,31,5,0,0
26579,-142.857142857143,4,2,5,75,0,0
27179,-142.857142857143,4,2,6,75,0,0
27479,-142.857142857143,4,2,5,75,0,0
28379,-142.857142857143,4,2,6,75,0,0
28528,-142.857142857143,4,2,5,75,0,0
30404,-142.857142857143,4,2,31,5,0,0
30479,-142.857142857143,4,2,5,75,0,0
30554,-142.857142857143,4,2,31,5,0,0
30629,-142.857142857143,4,2,5,75,0,0
30704,-142.857142857143,4,2,31,5,0,0
30779,-142.857142857143,4,2,5,75,0,0
31004,-142.857142857143,4,2,31,5,0,0
31079,-142.857142857143,4,2,5,75,0,0
31379,-100,4,2,5,75,0,0
35804,-100,4,2,31,5,0,0
35879,-100,4,2,5,75,0,0
36104,-100,4,2,31,5,0,0
36179,-100,4,2,5,75,0,0
40004,-100,4,2,31,5,0,0
40079,-100,4,2,5,75,0,0
40154,-100,4,2,31,5,0,0
40229,-100,4,2,5,75,0,0
40604,-100,4,2,31,5,0,0
40679,-100,4,2,5,75,0,0
40904,-100,4,2,31,5,0,0
40979,-100,4,2,5,75,0,0
45404,-100,4,2,31,5,0,0
45479,-100,4,2,5,75,0,0
45704,-100,4,2,31,5,0,0
45779,-100,4,2,5,75,0,0
49604,-100,4,2,31,5,0,0
49679,-100,4,2,5,75,0,0
49754,-100,4,2,31,5,0,0
49829,-100,4,2,5,75,0,0
53204,-100,4,2,31,5,0,0
53279,-100,4,2,5,75,0,0
53504,-100,4,2,31,5,0,0
53579,-100,4,2,5,75,0,0
53804,-100,4,2,31,5,0,0
53879,-100,4,2,5,75,0,0
54104,-100,4,2,31,5,0,0
54179,-100,4,2,5,75,0,0
54404,-100,4,2,31,5,0,0
54479,-100,4,2,5,75,0,0
54704,-100,4,2,31,5,0,0
54779,-100,4,2,5,75,0,0
55004,-100,4,2,31,5,0,0
55079,-100,4,2,5,75,0,0
58004,-100,4,2,31,5,0,0
58079,-100,4,2,5,75,0,0
58304,-100,4,2,31,5,0,0
58379,-100,4,2,5,75,0,0
58604,-100,4,2,31,5,0,0
58679,-100,4,2,5,75,0,0
58904,-100,4,2,31,5,0,0
58979,-100,4,2,5,75,0,0
59204,-100,4,2,31,5,0,0
59279,-100,4,2,5,75,0,0
59504,-100,4,2,31,5,0,0
59579,-100,4,2,5,75,0,0
59804,-100,4,2,31,5,0,0
59879,-100,4,2,5,75,0,0
68579,-100,4,2,5,40,0,0
68729,-100,4,2,5,44,0,0
68879,-100,4,2,5,48,0,0
69029,-100,4,2,5,52,0,0
69179,-100,4,2,5,56,0,0
69329,-100,4,2,5,60,0,0
69479,-100,4,2,5,64,0,0
69629,-100,4,2,5,68,0,0
69779,-200,4,2,5,72,0,0
70379,-200,4,2,6,75,0,0
72104,-200,4,2,31,5,0,0
72179,-200,4,2,5,75,0,0
72779,-200,4,2,6,75,0,0
73979,-200,4,2,6,75,0,0
74279,-200,4,2,5,75,0,0
75179,-200,4,2,6,75,0,0
76379,-200,4,2,6,75,0,0
76979,-100,4,2,5,40,0,0
77129,-100,4,2,5,44,0,0
77279,-100,4,2,5,48,0,0
77429,-100,4,2,5,52,0,0
77579,-100,4,2,5,56,0,0
77729,-100,4,2,5,60,0,0
77879,-100,4,2,5,64,0,0
78029,-100,4,2,5,68,0,0
78179,-100,4,2,5,72,0,0
79079,-100,4,2,5,75,0,0
79304,-100,4,2,31,5,0,0
79379,-86.9565217391304,4,2,5,85,0,1
79604,-86.9565217391304,4,2,31,5,0,1
79679,-86.9565217391304,4,2,5,85,0,1
79904,-86.9565217391304,4,2,31,5,0,1
79979,-86.9565217391304,4,2,5,85,0,1
80054,-86.9565217391304,4,2,31,5,0,1
80129,-86.9565217391304,4,2,5,85,0,1
81104,-86.9565217391304,4,2,31,5,0,1
81179,-86.9565217391304,4,2,5,85,0,1
81704,-86.9565217391304,4,2,31,5,0,1
81779,-86.9565217391304,4,2,5,85,0,1
82004,-86.9565217391304,4,2,31,5,0,1
82079,-86.9565217391304,4,2,5,85,0,1
82304,-86.9565217391304,4,2,31,5,0,1
82379,-86.9565217391304,4,2,5,85,0,1
82454,-86.9565217391304,4,2,31,5,0,1
82529,-86.9565217391304,4,2,5,85,0,1
83504,-86.9565217391304,4,2,31,5,0,1
83579,-86.9565217391304,4,2,5,85,0,1
84404,-86.9565217391304,4,2,31,5,0,1
84479,-86.9565217391304,4,2,5,85,0,1
84704,-86.9565217391304,4,2,31,5,0,1
84779,-86.9565217391304,4,2,5,85,0,1
84854,-86.9565217391304,4,2,31,5,0,1
84929,-86.9565217391304,4,2,5,85,0,1
85904,-86.9565217391304,4,2,31,5,0,1
85979,-86.9565217391304,4,2,5,85,0,1
86804,-86.9565217391304,4,2,31,5,0,1
86879,-86.9565217391304,4,2,5,85,0,1
87104,-86.9565217391304,4,2,31,5,0,1
87179,-86.9565217391304,4,2,5,85,0,1
87254,-86.9565217391304,4,2,31,5,0,1
87329,-86.9565217391304,4,2,5,85,0,1
88304,-86.9565217391304,4,2,31,5,0,1
88379,-86.9565217391304,4,2,5,85,0,1
88904,-86.9565217391304,4,2,31,5,0,1
88979,-86.9565217391304,4,2,5,85,0,1
89204,-86.9565217391304,4,2,31,5,0,1
89279,-86.9565217391304,4,2,5,85,0,1
89504,-86.9565217391304,4,2,31,5,0,1
89579,-86.9565217391304,4,2,5,85,0,1
89654,-86.9565217391304,4,2,31,5,0,1
89729,-86.9565217391304,4,2,5,85,0,1
90704,-86.9565217391304,4,2,31,5,0,1
90779,-86.9565217391304,4,2,5,85,0,1
91604,-86.9565217391304,4,2,31,5,0,1
91679,-86.9565217391304,4,2,5,85,0,1
91904,-86.9565217391304,4,2,31,5,0,1
91979,-86.9565217391304,4,2,5,85,0,1
92054,-86.9565217391304,4,2,31,5,0,1
92129,-86.9565217391304,4,2,5,85,0,1
93104,-86.9565217391304,4,2,31,5,0,1
93179,-86.9565217391304,4,2,5,85,0,1
93779,-86.9565217391304,4,2,5,75,0,0
94979,-86.9565217391304,4,2,5,5,0,0
95429,-86.9565217391304,4,2,5,5,0,0
95579,-86.9565217391304,4,2,5,75,0,0
96179,-100,4,2,5,75,0,0
100604,-100,4,2,31,5,0,0
100679,-100,4,2,5,75,0,0
100904,-100,4,2,31,5,0,0
100979,-100,4,2,5,75,0,0
104804,-100,4,2,31,5,0,0
104879,-100,4,2,5,75,0,0
104954,-100,4,2,31,5,0,0
105029,-100,4,2,5,75,0,0
105404,-100,4,2,31,5,0,0
105479,-100,4,2,5,75,0,0
105704,-100,4,2,31,5,0,0
105779,-100,4,2,5,75,0,0
110204,-100,4,2,31,5,0,0
110279,-100,4,2,5,75,0,0
110504,-100,4,2,31,5,0,0
110579,-100,4,2,5,75,0,0
114404,-100,4,2,31,5,0,0
114479,-100,4,2,5,75,0,0
114554,-100,4,2,31,5,0,0
114629,-100,4,2,5,75,0,0
124004,-100,4,2,31,5,0,0
124079,-100,4,2,5,75,0,0
127604,-100,4,2,31,5,0,0
127679,-100,4,2,5,75,0,0
127904,-100,4,2,31,5,0,0
127979,-100,4,2,5,75,0,0
128204,-100,4,2,31,5,0,0
128279,-100,4,2,5,75,0,0
128504,-100,4,2,31,5,0,0
128579,-100,4,2,5,75,0,0
128804,-100,4,2,31,5,0,0
128879,-100,4,2,5,75,0,0
129104,-100,4,2,31,5,0,0
129179,-100,4,2,5,75,0,0
129404,-100,4,2,31,5,0,0
129479,-100,4,2,5,75,0,0
132404,-100,4,2,31,5,0,0
132479,-100,4,2,5,75,0,0
132704,-100,4,2,31,5,0,0
132779,-100,4,2,5,75,0,0
133004,-100,4,2,31,5,0,0
133079,-100,4,2,5,75,0,0
133304,-100,4,2,31,5,0,0
133379,-100,4,2,5,75,0,0
133604,-100,4,2,31,5,0,0
133679,-100,4,2,5,75,0,0
133904,-100,4,2,31,5,0,0
133979,-100,4,2,5,75,0,0
134204,-100,4,2,31,5,0,0
134279,-100,4,2,5,75,0,0
142979,-100,4,2,5,40,0,0
143129,-100,4,2,5,44,0,0
143279,-100,4,2,5,48,0,0
143429,-100,4,2,5,52,0,0
143579,-100,4,2,5,56,0,0
143729,-100,4,2,5,60,0,0
143879,-100,4,2,5,64,0,0
144029,-100,4,2,5,68,0,0
144179,-200,4,2,5,75,0,0
145979,-200,4,2,6,75,0,0
146504,-200,4,2,31,5,0,0
146579,-200,4,2,5,75,0,0
147179,-200,4,2,6,75,0,0
148379,-200,4,2,6,75,0,0
148679,-200,4,2,5,75,0,0
149579,-200,4,2,6,75,0,0
150779,-200,4,2,6,75,0,0
151379,-100,4,2,5,40,0,0
151529,-100,4,2,5,44,0,0
151679,-100,4,2,5,48,0,0
151829,-100,4,2,5,52,0,0
151979,-100,4,2,5,56,0,0
152129,-100,4,2,5,60,0,0
152279,-100,4,2,5,64,0,0
152429,-100,4,2,5,68,0,0
152579,-100,4,2,5,72,0,0
153779,-86.9565217391304,4,2,5,85,0,1
154004,-86.9565217391304,4,2,31,5,0,1
154079,-86.9565217391304,4,2,5,85,0,1
154304,-86.9565217391304,4,2,31,5,0,1
154379,-86.9565217391304,4,2,5,85,0,1
154454,-86.9565217391304,4,2,31,5,0,1
154529,-86.9565217391304,4,2,5,85,0,1
155504,-86.9565217391304,4,2,31,5,0,1
155579,-86.9565217391304,4,2,5,85,0,1
156104,-86.9565217391304,4,2,31,5,0,1
156179,-86.9565217391304,4,2,5,85,0,1
156404,-86.9565217391304,4,2,31,5,0,1
156479,-86.9565217391304,4,2,5,85,0,1
156704,-86.9565217391304,4,2,31,5,0,1
156779,-86.9565217391304,4,2,5,85,0,1
156854,-86.9565217391304,4,2,31,5,0,1
156929,-86.9565217391304,4,2,5,85,0,1
157904,-86.9565217391304,4,2,31,5,0,1
157979,-86.9565217391304,4,2,5,85,0,1
158804,-86.9565217391304,4,2,31,5,0,1
158879,-86.9565217391304,4,2,5,85,0,1
159104,-86.9565217391304,4,2,31,5,0,1
159179,-86.9565217391304,4,2,5,85,0,1
159254,-86.9565217391304,4,2,31,5,0,1
159329,-86.9565217391304,4,2,5,85,0,1
160304,-86.9565217391304,4,2,31,5,0,1
160379,-86.9565217391304,4,2,5,85,0,1
161204,-86.9565217391304,4,2,31,5,0,1
161279,-86.9565217391304,4,2,5,85,0,1
161504,-86.9565217391304,4,2,31,5,0,1
161579,-86.9565217391304,4,2,5,85,0,1
161654,-86.9565217391304,4,2,31,5,0,1
161729,-86.9565217391304,4,2,5,85,0,1
162704,-86.9565217391304,4,2,31,5,0,1
162779,-86.9565217391304,4,2,5,85,0,1
163304,-86.9565217391304,4,2,31,5,0,1
163379,-86.9565217391304,4,2,5,85,0,1
163604,-86.9565217391304,4,2,31,5,0,1
163679,-86.9565217391304,4,2,5,85,0,1
163904,-86.9565217391304,4,2,31,5,0,1
163979,-86.9565217391304,4,2,5,85,0,1
164054,-86.9565217391304,4,2,31,5,0,1
164129,-86.9565217391304,4,2,5,85,0,1
165104,-86.9565217391304,4,2,31,5,0,1
165179,-86.9565217391304,4,2,5,85,0,1
166004,-86.9565217391304,4,2,31,5,0,1
166079,-86.9565217391304,4,2,5,85,0,1
166304,-86.9565217391304,4,2,31,5,0,1
166379,-86.9565217391304,4,2,5,85,0,1
166454,-86.9565217391304,4,2,31,5,0,1
166529,-86.9565217391304,4,2,5,75,0,1
167504,-86.9565217391304,4,2,31,5,0,1
167579,-86.9565217391304,4,2,5,75,0,1
168179,-86.9565217391304,4,2,5,75,0,0
169079,-86.9565217391304,4,2,31,5,0,0

[Colours]
Combo1 : 124,124,124
Combo2 : 37,142,205
Combo3 : 78,69,237
Combo4 : 177,84,168
Combo5 : 189,64,117
Combo6 : 214,214,214

[HitObjects]
95,286,179,6,0,P|140:279|172:254,1,75,8|0,0:0|3:0,0:0:0:0:
230,173,479,2,0,P|247:181|262:198,3,37.5,2|2|0|0,0:3|0:3|3:0|3:0,0:0:0:0:
292,183,779,2,0,P|301:199|303:221,3,37.5,2|2|0|0,0:3|0:3|3:0|3:0,0:0:0:0:
337,227,1079,2,0,P|335:245|324:265,3,37.5,2|2|2|2,0:3|0:3|0:3|0:3,0:0:0:0:
301,294,1379,6,0,P|337:308|366:342,1,75,8|0,0:0|3:0,0:0:0:0:
452,379,1679,2,0,L|458:336,3,37.5,2|2|0|0,0:3|0:3|3:0|3:0,0:0:0:0:
496,311,1979,2,0,L|484:231,1,75,8|0,0:0|3:0,0:0:0:0:
407,173,2279,2,0,L|413:130,1,37.5,8|8,0:0|0:0,0:0:0:0:
452,106,2429,2,0,L|458:63,1,37.5,8|8,0:0|0:0,0:0:0:0:
425,30,2579,70,0,P|380:28|342:41,1,75,6|0,3:2|0:0,0:0:0:0:
272,79,2879,2,0,P|252:59|241:40,2,37.5,0|0|8,3:0|3:0|0:0,0:0:0:0:
297,165,3179,2,0,L|288:252,1,75,0|8,3:0|0:0,0:0:0:0:
218,294,3479,2,0,L|226:373,1,75,0|8,3:0|0:0,0:0:0:0:
95,354,3779,5,2,3:2:0:0:
95,354,3929,2,0,P|110:308|109:271,1,75,10|0,0:0|3:0,0:0:0:0:
50,214,4229,1,10,0:0:0:0:
74,130,4379,1,2,3:2:0:0:
74,130,4529,2,0,L|156:149,1,75,10|0,0:0|3:0,0:0:0:0:
236,151,4829,1,10,0:0:0:0:
323,90,4979,70,0,B|364:108|364:108|413:144|398:235,1,150,2|0,3:2|3:0,0:0:0:0:
401,201,5354,1,0,3:0:0:0:
401,201,5429,1,8,0:0:0:0:
483,266,5579,2,0,P|445:298|409:306,1,75,0|8,3:0|0:0,0:0:0:0:
325,275,5879,2,0,P|277:262|241:270,1,75,0|8,3:0|0:0,0:0:0:0:
186,341,6179,5,2,3:2:0:0:
186,341,6329,2,0,P|156:290|150:260,1,75,10|0,0:0|3:0,0:0:0:0:
134,175,6629,1,10,0:0:0:0:
227,138,6779,1,2,3:2:0:0:
227,138,6929,1,10,0:0:0:0:
168,61,7079,2,0,P|147:59|125:65,3,37.5,8|8|8|8,0:0|0:0|0:0|0:0,0:0:0:0:
84,82,7379,70,0,P|98:136|46:223,1,150,6|0,3:2|3:0,0:0:0:0:
56,216,7754,1,0,3:0:0:0:
56,216,7829,1,8,0:0:0:0:
26,334,7979,2,0,L|108:312,1,75,0|8,3:0|0:0,0:0:0:0:
186,352,8279,2,0,L|268:374,1,75,0|8,3:0|0:0,0:0:0:0:
342,338,8579,5,2,3:2:0:0:
342,338,8729,2,0,P|356:297|353:262,1,75,10|0,0:0|3:0,0:0:0:0:
308,187,9029,1,10,0:0:0:0:
220,206,9179,1,2,3:2:0:0:
220,206,9329,2,0,P|206:165|209:130,1,75,10|0,0:0|3:0,0:0:0:0:
276,74,9629,1,10,0:0:0:0:
321,164,9779,70,0,P|401:160|463:103,1,150,2|0,3:2|3:0,0:0:0:0:
453,118,10154,1,0,3:0:0:0:
453,118,10229,1,8,0:0:0:0:
500,5,10379,6,0,P|443:21|377:12,1,112.5,6|0,3:2|1:0,0:0:0:0:
346,28,10679,2,0,P|286:12|223:21,1,112.5,2|0,3:2|1:0,0:3:0:0:
197,41,10979,70,0,L|203:94,3,37.5,2|2|2|2,0:3|0:3|0:3|0:3,0:0:0:0:
168,109,11279,2,0,L|163:148,3,37.5,2|2|2|2,0:3|0:3|0:3|0:3,0:0:0:0:
148,189,11579,6,0,L|152:228,3,37.5,2|2|2|2,0:3|0:3|0:3|0:3,0:0:0:0:
130,265,11879,2,0,L|125:304,3,37.5,8|8|8|8,0:0|0:0|0:0|0:0,0:0:0:0:
122,347,12179,70,0,P|186:342|256:271,1,150,6|0,3:2|3:0,0:0:0:0:
248,287,12554,1,0,3:0:0:0:
256,295,12629,1,8,0:0:0:0:
244,200,12779,2,0,L|330:214,1,75,0|8,3:0|0:0,0:0:0:0:
392,161,13079,2,0,L|478:175,1,75,0|8,3:0|0:0,0:0:0:0:
512,262,13379,5,2,3:2:0:0:
512,262,13529,2,0,P|504:303|475:335,1,75,10|0,0:0|3:0,0:0:0:0:
383,342,13829,1,10,0:0:0:0:
301,303,13979,1,2,3:2:0:0:
301,303,14129,2,0,L|215:315,1,75,10|0,0:0|3:0,0:0:0:0:
127,330,14429,1,10,0:0:0:0:
44,379,14579,70,0,B|77:339|77:339|99:264|51:221,1,150,2|0,3:2|3:0,0:0:0:0:
70,244,14954,1,0,3:0:0:0:
70,244,15029,1,8,0:0:0:0:
61,136,15179,2,0,P|101:130|141:137,1,75,0|8,3:0|0:0,0:0:0:0:
193,204,15479,2,0,P|233:210|273:203,1,75,0|8,3:0|0:0,0:0:0:0:
347,160,15779,5,2,3:2:0:0:
347,160,15929,2,0,L|350:78,1,75,10|0,0:0|3:0,0:0:0:0:
434,56,16229,1,10,0:0:0:0:
512,118,16379,1,2,3:2:0:0:
512,118,16529,2,0,L|509:200,1,75,10|8,0:0|0:0,0:0:0:0:
501,212,16754,1,8,0:0:0:0:
493,226,16829,2,0,P|486:253|487:280,1,37.5,8|8,0:0|0:0,0:0:0:0:
502,309,16979,70,0,B|449:276|449:276|352:300,1,150,6|0,3:2|3:0,0:0:0:0:
355,306,17354,1,0,3:0:0:0:
348,313,17429,1,8,0:0:0:0:
253,341,17579,2,0,B|248:301|248:301|261:258,1,75,0|8,3:0|0:0,0:0:0:0:
225,183,17879,2,0,B|265:178|265:178|308:191,1,75,0|8,3:0|0:0,0:0:0:0:
392,198,18179,5,2,3:2:0:0:
392,198,18329,2,0,L|402:115,1,75,10|0,0:0|3:0,0:0:0:0:
386,34,18629,1,10,0:0:0:0:
295,44,18779,1,2,3:2:0:0:
295,44,18929,2,0,P|243:41|206:25,1,75,10|0,0:0|3:0,0:0:0:0:
135,62,19229,1,10,0:0:0:0:
27,27,19379,70,0,B|3:63|10:98|10:98|33:143|79:164,1,150,2|0,3:2|3:0,0:0:0:0:
68,162,19754,1,0,3:0:0:0:
75,169,19829,1,8,0:0:0:0:
219,159,19979,6,0,B|203:181|170:191|170:191|161:232|134:248,1,112.5,6|0,3:2|1:0,0:0:0:0:
176,275,20279,2,0,B|191:252|225:243|225:243|234:202|261:186,1,112.5,2|0,3:2|1:0,0:0:0:0:
293,190,20579,70,0,L|336:182,3,37.5,8|8|2|2,0:0|0:0|0:3|0:3,0:0:0:0:
368,172,20879,2,0,L|370:130,3,37.5,2|2|2|2,0:3|0:3|0:3|0:3,0:0:0:0:
372,105,21179,6,0,P|348:97|330:82,3,37.5,2|2|2|2,0:3|0:3|0:3|0:3,0:0:0:0:
304,62,21479,2,0,P|292:39|290:16,3,37.5,2|2|2|2,0:3|0:3|0:3|0:3,0:0:0:0:
265,7,21779,38,0,B|234:14|205:3|205:3|177:5|153:33,1,104.999996795654,6|0,3:2|0:0,0:0:0:0:
110,94,22229,1,0,0:0:0:0:
18,80,22379,1,2,0:0:0:0:
18,80,22529,2,0,L|13:200,1,104.999996795654,2|2,0:0|0:0,0:0:0:0:
2,293,22979,6,0,P|63:286|120:206,1,157.499995193482,2|0,0:0|0:0,0:0:0:0:
212,170,23579,2,0,L|222:244,1,52.4999983978272,2|0,0:0|0:0,0:0:0:0:
178,313,23879,2,0,L|237:358,1,52.4999983978272,0|2,0:0|0:0,0:0:0:0:
321,342,24179,70,0,B|311:281|311:281|358:178,1,157.499995193482,2|0,0:0|0:0,0:0:0:0:
469,157,24779,2,0,B|479:218|479:218|434:314,1,157.499995193482,2|0,0:0|0:0,0:0:0:0:
507,371,25379,2,0,P|434:355|343:371,1,157.499995193482
248,307,25979,54,0,P|218:310|231:366,1,104.999996795654,2|2,3:2|3:2,0:0:0:0:
92,175,26579,22,0,P|143:129|246:133,1,157.499995193482,6|0,0:0|0:0,0:0:0:0:
304,203,27179,2,0,P|322:179|336:136,1,52.4999983978272,2|2,0:0|0:0,0:0:0:0:
309,62,27479,2,0,P|319:38|336:17,1,52.4999983978272,2|2,0:0|0:0,0:0:0:0:
423,58,27779,6,0,B|452:67|481:62|481:62|521:99|508:161,1,157.499995193482,2|0,0:0|0:0,0:0:0:0:
485,246,28379,2,0,L|497:318,2,52.4999983978272,2|0|0,0:0|0:0|0:0,0:0:0:0:
406,192,28829,1,2,0:0:0:0:
330,245,28979,70,0,B|270:259|270:259|166:215,1,157.499995193482,2|0,0:0|0:0,0:0:0:0:
120,144,29579,2,0,P|120:122|114:98,3,26.2499991989136,10|8|0|0,0:0|0:0|3:0|3:0,0:0:0:0:
89,99,29879,2,0,P|88:112|89:126,3,26.2499991989136,0|0|0|0,3:0|3:0|3:0|3:0,0:0:0:0:
74,157,30179,54,0,P|76:216|52:266,1,104.999996795654,6|8,3:2|0:0,0:0:0:0:
30,352,30629,1,8,0:0:0:0:
125,366,30779,2,0,B|166:344|166:344|198:356|245:357,1,104.999996795654,6|8,3:2|0:0,0:0:0:0:
388,324,31379,54,0,B|400:284|380:255|380:255|332:232|329:172,1,150,6|0,3:2|3:0,0:0:0:0:
332,196,31829,1,0,3:0:0:0:
371,99,31979,2,0,P|367:51|348:17,1,75,8|0,0:0|3:0,0:0:0:0:
267,8,32279,1,0,3:0:0:0:
187,50,32429,1,2,3:2:0:0:
98,34,32579,6,0,P|71:101|102:186,1,150,2|0,3:2|3:0,0:0:0:0:
159,233,33029,1,0,3:0:0:0:
242,198,33179,2,0,P|286:184|338:194,2,75,8|0|0,0:0|3:0|3:0,0:0:0:0:
239,287,33629,1,2,3:2:0:0:
308,354,33779,70,0,B|310:314|349:291|349:291|391:302|431:293,1,150,2|0,3:2|3:0,0:0:0:0:
494,220,34229,1,0,3:0:0:0:
411,134,34379,2,0,P|396:173|401:225,2,75,8|0|0,0:0|3:0|3:0,0:0:0:0:
497,108,34829,1,0,3:0:0:0:
436,35,34979,6,0,P|384:74|284:67,1,150,2|0,3:2|3:0,0:0:0:0:
223,29,35429,1,0,3:0:0:0:
140,64,35579,2,0,B|135:95|148:125|148:125|133:167|133:167|148:197|146:233,1,150,14|6,0:0|3:2,0:0:0:0:
10,370,36179,70,0,B|22:345|56:331|56:331|98:359|167:354,1,150,6|0,3:2|3:0,0:0:0:0:
215,305,36629,1,0,3:0:0:0:
303,343,36779,1,8,0:0:0:0:
303,343,36929,1,0,3:0:0:0:
386,295,37079,2,0,P|396:248|388:204,1,75,0|2,3:0|3:2,0:0:0:0:
473,165,37379,6,0,P|402:177|323:129,1,150,2|0,3:2|3:0,0:0:0:0:
312,54,37829,1,0,3:0:0:0:
225,77,37979,2,0,P|182:77|144:95,1,75,8|0,0:0|3:0,0:0:0:0:
107,167,38279,1,0,3:0:0:0:
60,90,38429,1,2,3:2:0:0:
2,184,38579,70,0,P|27:248|124:272,1,150,2|0,3:2|3:0,0:0:0:0:
182,243,39029,1,0,3:0:0:0:
267,271,39179,2,0,L|263:344,3,37.5,8|8|0|0,0:0|0:0|3:0|3:0,0:0:0:0:
232,333,39479,2,0,L|228:406,3,37.5,0|0|0|0,3:0|3:0|3:0|3:0,0:0:0:0:
283,380,39779,6,0,P|350:343|434:345,1,150,6|0,3:2|3:0,0:0:0:0:
491,284,40229,1,0,3:0:0:0:
484,267,40304,1,0,3:0:0:0:
477,250,40379,2,0,B|457:211|466:167|466:167|499:138|499:96,1,150,14|0,0:0|3:2,0:0:0:0:
343,18,40979,70,0,P|275:62|184:75,1,150,6|0,3:2|3:0,0:0:0:0:
126,38,41429,1,0,3:0:0:0:
95,121,41579,2,0,L|101:223,1,75,8|0,0:0|3:0,0:0:0:0:
64,278,41879,1,0,3:0:0:0:
90,364,42029,1,2,3:2:0:0:
187,364,42179,6,0,B|234:335|234:335|343:354,1,150,2|0,3:2|3:0,0:0:0:0:
415,328,42629,1,0,3:0:0:0:
472,258,42779,2,0,P|475:208|459:167,1,75,8|0,0:0|3:0,0:0:0:0:
417,110,43079,1,0,3:0:0:0:
329,131,43229,1,2,3:2:0:0:
247,91,43379,70,0,B|223:60|183:54|183:54|151:87|94:89,1,150,2|0,3:2|3:0,0:0:0:0:
38,42,43829,1,0,3:0:0:0:
8,124,43979,2,0,B|11:165|11:165|2:213,1,75,8|0,0:0|3:0,0:0:0:0:
89,262,44279,2,0,B|86:221|86:221|95:173,1,75,0|0,3:0|3:0,0:0:0:0:
189,182,44579,6,0,P|272:175|320:116,1,150,2|0,3:2|3:0,0:0:0:0:
366,54,45029,1,0,3:0:0:0:
454,69,45179,2,0,B|474:94|476:127|476:127|459:160|466:209|466:209|456:236,1,150,14|6,0:0|3:2,0:0:0:0:
357,378,45779,70,0,B|300:382|271:339|271:339|268:291|296:260,1,150,6|0,3:2|3:0,0:0:0:0:
305,203,46229,1,0,3:0:0:0:
231,150,46379,2,0,L|140:163,1,75,8|0,0:0|3:0,0:0:0:0:
66,140,46679,2,0,L|79:231,1,75,0|2,3:0|3:2,0:0:0:0:
42,302,46979,6,0,P|109:253|195:262,1,150,2|0,3:2|3:0,0:0:0:0:
243,311,47429,1,0,3:0:0:0:
331,284,47579,1,8,0:0:0:0:
331,284,47729,1,0,3:0:0:0:
416,325,47879,2,0,L|421:228,1,75,0|2,3:0|3:2,0:0:0:0:
483,174,48179,70,0,B|455:154|417:152|417:152|374:118|379:56,1,150,2|0,3:2|3:0,0:0:0:0:
307,29,48629,1,0,3:0:0:0:
229,73,48779,2,0,L|180:78,3,37.5,8|8|0|0,0:0|0:0|3:0|3:0,0:0:0:0:
150,57,49079,2,0,L|101:52,3,37.5,0|0|0|0,3:0|3:0|3:0|3:0,0:0:0:0:
68,47,49379,6,0,B|52:150|52:150|82:199,1,150,6|0,3:2|3:0,0:0:0:0:
171,220,49829,1,0,3:0:0:0:
171,220,49904,1,0,3:0:0:0:
171,220,49979,2,0,B|187:323|187:323|157:372,1,150,10|10,0:0|0:0,0:0:0:0:
179,359,50354,1,8,0:0:0:0:
194,356,50429,2,0,L|245:348,1,37.5,8|8,0:0|0:0,0:0:0:0:
279,363,50579,70,0,L|285:265,1,75,6|8,3:2|0:0,0:0:0:0:
364,248,50879,2,0,L|407:253,2,37.5,0|0|8,3:0|3:0|0:0,0:0:0:0:
320,168,51179,2,0,P|275:162|236:172,1,75,2|10,3:2|0:0,0:0:0:0:
179,226,51479,1,0,3:0:0:0:
179,226,51554,1,0,3:0:0:0:
179,226,51629,1,8,0:0:0:0:
86,252,51779,6,0,P|61:219|52:174,1,75,2|8,3:2|0:0,0:0:0:0:
0,99,52079,2,0,P|20:91|77:87,1,75,0|8,3:0|0:0,0:0:0:0:
165,117,52379,2,0,P|201:106|233:88,1,75,2|10,3:2|0:0,0:0:0:0:
328,107,52679,1,0,3:0:0:0:
421,77,52829,1,8,0:0:0:0:
432,86,52904,1,8,0:0:0:0:
443,95,52979,70,0,P|474:162|452:253,3,150,6|2|2|2,3:2|3:2|3:2|3:2,0:0:0:0:
320,360,54179,2,0,B|269:330|269:330|169:344,1,150,2|2,3:2|3:2,0:0:0:0:
178,343,54779,2,0,B|183:305|172:274|172:274|187:244|214:232|214:232|221:166|184:129,1,225,2|8,3:2|0:0,0:0:0:0:
112,102,55379,6,0,P|147:63|191:46,1,75,6|8,3:2|0:0,0:0:0:0:
257,66,55679,1,0,3:0:0:0:
269,55,55754,1,0,3:0:0:0:
281,44,55829,1,8,0:0:0:0:
370,47,55979,2,0,L|378:131,1,75,2|10,3:2|0:0,0:0:0:0:
447,178,56279,2,0,L|493:184,2,37.5,0|0|8,3:0|3:0|0:0,0:0:0:0:
379,237,56579,70,0,P|338:234|301:249,1,75,2|8,3:2|0:0,0:0:0:0:
240,306,56879,2,0,P|199:309|162:294,1,75,0|8,3:0|0:0,0:0:0:0:
106,231,57179,2,0,L|109:138,2,75,2|10|0,3:2|0:0|3:0,0:0:0:0:
45,298,57629,1,8,0:0:0:0:
50,313,57704,1,8,0:0:0:0:
55,328,57779,6,0,B|116:350|116:350|211:321,3,150,6|2|6|2,3:2|3:2|3:2|3:2,0:0:0:0:
289,158,58979,2,0,B|323:139|323:139|369:144,1,75,6|8,3:2|0:0,0:0:0:0:
451,175,59279,2,0,B|484:194|484:194|503:237,1,75,6|8,3:2|0:0,0:0:0:0:
510,328,59579,2,0,B|476:360|421:355|421:355|422:349|422:349|393:310|352:291|303:304,1,225,6|2,3:2|0:3,0:0:0:0:
226,297,60179,70,0,L|155:321,1,75,6|8,3:2|0:0,0:0:0:0:
74,265,60479,2,0,L|61:229,2,37.5,0|0|8,3:0|3:0|0:0,0:0:0:0:
148,181,60779,1,2,3:2:0:0:
148,181,60929,2,0,L|219:157,1,75,10|0,3:2|3:0,0:0:0:0:
312,181,61229,1,10,0:0:0:0:
400,229,61379,6,0,P|411:187|407:152,1,75,2|8,3:2|0:0,0:0:0:0:
454,73,61679,2,0,L|503:51,2,37.5,0|0|8,3:0|3:0|0:0,0:0:0:0:
362,51,61979,1,2,3:2:0:0:
362,51,62129,2,0,L|283:15,1,75,10|0,0:2|3:0,0:0:0:0:
186,17,62429,1,10,0:0:0:0:
170,119,62579,70,0,P|125:106|93:80,1,75,6|8,3:2|0:0,0:0:0:0:
20,36,62879,2,0,L|30:-2,2,37.5,0|0|8,3:0|3:0|0:0,0:0:0:0:
12,135,63179,1,2,3:2:0:0:
12,135,63329,2,0,L|17:223,1,75,10|0,0:2|3:0,0:0:0:0:
13,316,63629,1,10,0:0:0:0:
100,267,63779,6,0,B|148:273|148:273|173:288,1,75,2|8,3:2|0:0,0:0:0:0:
237,359,64079,2,0,B|285:353|285:353|310:338,1,75,0|8,3:0|0:0,0:0:0:0:
352,256,64379,2,0,L|431:264,1,75,2|10,3:2|0:0,0:0:0:0:
501,209,64679,2,0,L|493:164,3,37.5,8|8|10|8,0:0|0:0|0:0|0:0,0:0:0:0:
482,138,64979,70,0,P|435:129|402:110,1,75,6|8,3:2|0:0,0:0:0:0:
366,15,65279,1,0,3:0:0:0:
375,23,65354,1,0,3:0:0:0:
375,23,65429,1,8,0:0:0:0:
304,93,65579,1,2,3:2:0:0:
304,93,65729,2,0,L|315:188,1,75,10|0,0:2|3:2,0:0:0:0:
246,235,66029,1,10,0:2:0:0:
310,306,66179,6,0,P|350:299|388:304,1,75,2|8,3:2|0:0,0:0:0:0:
465,364,66479,1,0,3:0:0:0:
465,364,66554,1,0,3:0:0:0:
465,364,66629,1,8,0:0:0:0:
501,281,66779,1,2,3:2:0:0:
460,200,66929,2,0,P|390:211|306:180,1,150,2|2,3:2|3:2,0:0:0:0:
248,86,67379,70,0,P|266:88|284:93,2,37.5,4|0|8,3:2|3:0|0:0,0:0:0:0:
161,34,67679,2,0,P|149:76|154:123,1,75,0|8,3:0|0:0,0:0:0:0:
91,205,67979,2,0,L|84:169,2,37.5,0|0|8,3:0|3:0|0:0,0:0:0:0:
169,256,68279,2,0,L|187:340,1,75,0|8,3:0|0:0,0:0:0:0:
275,287,68579,6,0,P|323:277|358:279,1,75,8|8,0:0|0:0,0:0:0:0:
453,336,68879,2,0,P|463:288|461:253,1,75,8|8,0:0|0:0,0:0:0:0:
427,176,69179,1,8,0:0:0:0:
427,176,69329,1,8,0:0:0:0:
340,131,69479,1,8,0:0:0:0:
340,131,69629,1,8,0:0:0:0:
240,161,69779,38,2,B|237:69|132:44|132:44|86:144|230:175|172:306,1,450,4|2,3:2|0:0,0:0:0:0:
3,197,72179,2,2,B|110:121|229:220|229:220|325:305|413:274,1,450,0|2,0:0|0:0,0:0:0:0:
413,273,74279,1,0,3:0:0:0:
448,141,74579,6,2,P|361:178|459:64,1,450,4|2,3:2|0:0,0:0:0:0:
512,216,76979,6,0,L|493:302,1,75,8|8,0:0|0:0,0:0:0:0:
405,297,77279,2,0,L|386:383,1,75,8|8,0:0|0:0,0:0:0:0:
288,341,77579,2,0,L|269:255,1,75,8|8,0:0|0:0,0:0:0:0:
181,260,77879,2,0,L|162:174,1,75,8|8,0:0|0:0,0:0:0:0:
37,171,78179,21,8,0:0:0:0:
37,171,78629,69,0,3:0:0:0:
41,152,78704,1,0,3:0:0:0:
45,133,78779,2,0,L|55:88,4,37.5,2|2|0|0|8,0:3|0:3|3:0|3:0|0:0,0:0:0:0:
198,26,79379,6,0,P|270:40|376:19,1,172.500003290176,4|8,3:2|0:0,0:0:0:0:
366,22,79979,2,0,L|390:116,1,86.2500016450882,2|2,3:2|3:2,0:0:0:0:
417,192,80279,1,10,0:0:0:0:
510,210,80429,2,0,B|436:218|436:218|399:320,1,172.500003290176,2|0,3:2|3:0,0:0:0:0:
321,359,80879,2,0,L|229:333,1,86.2500016450882,8|0,0:0|0:0,0:0:0:0:
238,240,81179,2,0,L|320:263,2,86.2500016450882,2|2|10,3:2|3:2|0:0,0:0:0:0:
98,369,81779,6,0,B|129:336|137:300|137:300|132:240|86:209,1,172.500003290176,0|8,3:0|0:0,0:0:0:0:
98,218,82379,2,0,P|66:177|64:137,1,86.2500016450882,2|2,3:2|3:2,0:0:0:0:
114,64,82679,1,10,0:0:0:0:
155,149,82829,2,0,B|195:163|229:158|229:158|247:110|307:83,1,172.500003290176,2|0,3:2|3:0,0:0:0:0:
388,104,83279,2,0,P|432:118|485:111,1,86.2500016450882,10|0,0:0|0:0,0:0:0:0:
501,211,83579,1,2,3:2:0:0:
501,211,83729,1,2,3:2:0:0:
473,304,83879,1,10,0:0:0:0:
473,304,84029,1,2,3:2:0:0:
388,347,84179,70,0,P|314:312|220:325,1,172.500003290176,6|8,3:2|0:0,0:0:0:0:
226,322,84779,2,0,P|208:284|212:234,1,86.2500016450882,2|2,3:2|3:2,0:0:0:0:
273,169,85079,1,10,0:0:0:0:
179,152,85229,6,0,B|116:158|116:158|77:188|77:188|15:195,1,172.500003290176,6|0,3:2|3:0,0:0:0:0:
1,288,85679,2,0,L|89:279,1,86.2500016450882,8|0,0:0|0:0,0:0:0:0:
160,339,85979,1,2,3:2:0:0:
251,312,86129,2,0,L|249:264,2,43.1250008225441,2|0|10,3:2|3:0|0:0,0:0:0:0:
333,358,86429,1,0,3:0:0:0:
431,314,86579,70,0,P|403:265|432:144,1,172.500003290176,6|8,3:2|0:0,0:0:0:0:
422,155,87179,2,0,P|458:118|466:74,1,86.2500016450882,2|2,3:2|3:2,0:0:0:0:
423,0,87479,1,10,0:0:0:0:
336,38,87629,2,0,B|270:60|270:60|172:23,1,172.500003290176,2|0,3:2|3:0,0:0:0:0:
78,29,88079,2,0,B|63:70|63:70|72:112,1,86.2500016450882,8|0,0:0|0:0,0:0:0:0:
166,198,88379,2,0,B|175:156|175:156|160:115,1,86.2500016450882,2|2,3:2|3:2,0:0:0:0:
76,201,88679,1,10,0:0:0:0:
218,289,88979,6,0,B|241:275|259:248|259:248|262:252|262:252|321:230|373:274,1,172.500003290176,0|8,3:0|0:0,0:0:0:0:
364,267,89579,2,0,P|389:232|393:185,1,86.2500016450882,2|2,3:2|3:2,0:0:0:0:
363,99,89879,1,10,0:0:0:0:
282,149,90029,2,0,P|225:137|168:40,1,172.500003290176,2|0,3:2|3:0,0:0:0:0:
80,9,90479,2,0,L|76:95,1,86.2500016450882,10|0,0:0|0:0,0:0:0:0:
14,168,90779,1,2,3:2:0:0:
14,168,90929,1,2,3:2:0:0:
53,260,91079,1,10,0:0:0:0:
53,260,91229,1,2,3:2:0:0:
154,239,91379,70,0,P|232:258|277:341,1,172.500003290176,6|8,3:2|0:0,0:0:0:0:
276,333,91979,2,0,P|321:348|367:345,1,86.2500016450882,2|2,3:2|3:2,0:0:0:0:
428,282,92279,1,10,0:0:0:0:
503,339,92429,6,0,B|474:277|474:277|487:170,1,172.500003290176,6|0,3:2|3:0,0:0:0:0:
434,93,92879,2,0,L|424:6,1,86.2500016450882,8|0,0:0|0:0,0:0:0:0:
329,17,93179,1,2,3:2:0:0:
263,85,93329,1,2,3:2:0:0:
245,79,93404,1,0,3:0:0:0:
227,73,93479,2,0,P|184:75|137:95,1,86.2500016450882,10|2,0:0|3:2,0:0:0:0:
86,181,93779,69,6,3:2:0:0:
256,192,93929,12,0,94979,0:0:0:0:
107,112,95579,6,0,L|95:171,3,43.1250008225441,8|8|8|8,0:0|0:0|0:0|0:0,0:0:0:0:
111,200,95879,2,0,L|119:242,3,43.1250008225441,0|0|0|0,3:0|3:0|3:0|3:0,0:0:0:0:
107,288,96179,38,0,P|174:255|249:263,1,150,6|0,3:2|3:0,0:0:0:0:
316,320,96629,1,0,3:0:0:0:
394,276,96779,2,0,L|399:191,1,75,8|0,0:0|3:0,0:0:0:0:
316,164,97079,2,0,L|321:79,1,75,0|2,3:0|3:2,0:0:0:0:
395,39,97379,6,0,B|323:63|323:63|249:24,1,150,2|0,3:2|3:0,0:0:0:0:
167,36,97829,1,0,3:0:0:0:
97,93,97979,2,0,B|64:109|64:109|20:108,2,75,8|0|0,0:0|3:0|3:0,0:0:0:0:
167,36,98429,1,2,3:2:0:0:
182,124,98579,70,0,B|190:175|190:175|177:217|177:217|187:274,1,150,2|0,3:2|3:0,0:0:0:0:
210,357,99029,1,0,3:0:0:0:
277,296,99179,1,8,0:0:0:0:
277,296,99329,1,0,3:0:0:0:
356,338,99479,2,0,P|395:331|430:309,1,75,0|0,3:0|3:0,0:0:0:0:
503,359,99779,6,0,P|457:287|458:222,1,150,2|0,3:2|3:0,0:0:0:0:
489,140,100229,1,0,3:0:0:0:
399,149,100379,2,0,B|360:127|325:134|325:134|308:168|264:183,1,150,14|6,0:0|3:2,0:0:0:0:
204,315,100979,70,0,P|197:251|123:207,1,150,6|0,3:2|3:0,0:0:0:0:
58,258,101429,1,0,3:0:0:0:
6,187,101579,2,0,P|2:143|11:108,1,75,8|0,0:0|3:0,0:0:0:0:
87,70,101879,2,0,P|124:74|160:67,1,75,0|2,3:0|3:2,0:0:0:0:
240,25,102179,6,0,B|274:69|274:69|262:180,1,150,2|0,3:2|3:0,0:0:0:0:
253,252,102629,1,0,3:0:0:0:
337,219,102779,2,0,L|415:224,2,75,8|0|0,0:0|3:0|3:0,0:0:0:0:
253,252,103229,1,2,3:2:0:0:
304,326,103379,70,0,L|466:336,1,150,2|0,3:2|3:0,0:0:0:0:
495,255,103829,1,0,3:0:0:0:
419,190,103979,2,0,L|410:146,3,37.5,8|8|0|0,0:0|0:0|3:0|3:0,0:0:0:0:
424,113,104279,2,0,L|433:69,3,37.5,0|0|0|0,3:0|3:0|3:0|3:0,0:0:0:0:
404,39,104579,6,0,P|321:46|259:7,1,150,6|0,3:2|3:0,0:0:0:0:
175,21,105029,1,0,3:0:0:0:
171,43,105104,1,0,3:0:0:0:
167,65,105179,2,0,B|155:123|155:123|127:151|127:151|117:207,1,150,14|0,0:0|3:0,0:0:0:0:
3,339,105779,70,0,P|75:311|154:328,1,150,6|8,3:2|0:0,0:0:0:0:
213,382,106229,1,0,3:0:0:0:
279,320,106379,1,0,3:0:0:0:
279,320,106529,1,0,3:0:0:0:
359,359,106679,2,0,P|395:355|431:332,1,75,8|2,0:0|3:2,0:0:0:0:
512,305,106979,6,0,P|455:297|406:223,1,150,2|8,3:2|0:0,0:0:0:0:
394,134,107429,1,0,3:0:0:0:
324,191,107579,2,0,L|239:204,1,75,0|0,3:0|3:0,0:0:0:0:
160,189,107879,1,8,0:0:0:0:
125,105,108029,1,2,3:2:0:0:
35,98,108179,70,0,P|110:82|146:18,1,150,2|8,3:2|0:0,0:0:0:0:
232,0,108629,1,0,3:0:0:0:
311,42,108779,2,0,L|391:34,2,75,0|0|8,3:0|3:0|0:0,0:0:0:0:
254,111,109229,1,0,3:0:0:0:
328,161,109379,6,0,B|338:195|358:217|358:217|345:266|298:284,1,150,2|0,3:2|3:0,0:0:0:0:
216,274,109829,1,0,3:0:0:0:
150,334,109979,2,0,L|67:321,1,75,14|0,0:0|0:0,0:0:0:0:
15,255,110279,1,6,3:2:0:0:
144,185,110579,70,0,P|163:105|131:29,1,150,6|8,3:2|0:0,0:0:0:0:
56,12,111029,1,0,3:0:0:0:
141,42,111179,2,0,P|185:40|235:21,1,75,0|0,3:0|3:0,0:0:0:0:
300,3,111479,1,8,0:0:0:0:
367,62,111629,1,2,3:2:0:0:
448,23,111779,6,0,B|487:16|513:36|513:36|532:76|504:131,1,150,2|8,3:2|0:0,0:0:0:0:
468,194,112229,1,0,3:0:0:0:
379,179,112379,2,0,P|339:185|304:206,1,75,0|0,3:0|3:0,0:0:0:0:
275,285,112679,1,8,0:0:0:0:
315,365,112829,1,2,3:2:0:0:
226,380,112979,70,0,P|161:341|82:340,1,150,2|0,3:2|3:0,0:0:0:0:
0,326,113429,1,0,3:0:0:0:
4,235,113579,2,0,L|16:185,3,37.5,8|8|0|0,0:0|0:0|3:0|3:0,0:0:0:0:
57,170,113879,2,0,L|107:182,3,37.5,0|0|0|0,3:0|3:0|3:0|3:0,0:0:0:0:
145,158,114179,6,0,B|186:142|222:156|216:163|261:179|297:160,1,150,6|0,3:2|3:0,0:0:0:0:
365,112,114629,1,0,3:0:0:0:
386,119,114704,1,0,3:0:0:0:
407,126,114779,2,0,L|445:140,3,37.5,10|8|0|0,0:0|0:0|3:0|3:0,0:0:0:0:
467,176,115079,2,0,L|505:190,3,37.5,10|8|8|8,0:0|0:0|0:0|0:0,0:0:0:0:
501,233,115379,70,0,P|486:275|485:309,1,75,6|0,3:2|3:0,0:0:0:0:
432,379,115679,2,0,P|394:376|359:362,1,75,10|0,0:0|3:0,0:0:0:0:
307,291,115979,1,2,3:2:0:0:
307,291,116129,1,0,3:0:0:0:
219,266,116279,2,0,P|181:268|146:282,1,75,10|0,0:0|3:0,0:0:0:0:
70,330,116579,6,0,B|47:300|47:300|41:259,1,75,2|0,3:2|3:0,0:0:0:0:
104,197,116879,2,0,B|127:167|127:167|133:126,1,75,10|0,0:0|3:0,0:0:0:0:
99,45,117179,1,2,3:2:0:0:
99,45,117329,1,0,3:0:0:0:
179,3,117479,1,10,0:0:0:0:
265,26,117629,70,0,B|296:16|326:36|326:36|347:81|326:137,1,150,6|2,3:2|3:2,0:0:0:0:
282,196,118079,2,0,P|272:241|276:279,1,75,10|0,0:0|3:0,0:0:0:0:
334,344,118379,1,2,3:2:0:0:
334,344,118529,1,0,3:0:0:0:
423,333,118679,2,0,P|459:314|499:302,1,75,10|0,0:0|3:0,0:0:0:0:
506,214,118979,6,0,P|466:193|445:160,1,75,10|0,0:0|3:0,0:0:0:0:
366,133,119279,2,0,P|345:173|312:194,1,75,10|0,0:0|3:0,0:0:0:0:
285,273,119579,2,0,P|325:294|346:327,1,75,10|0,0:0|3:0,0:0:0:0:
430,334,119879,1,10,0:0:0:0:
487,265,120029,70,0,B|499:222|486:193|486:193|466:153|485:96,1,150,6|2,3:2|3:2,0:0:0:0:
499,30,120479,2,0,P|458:20|406:21,1,75,10|0,0:0|3:0,0:0:0:0:
344,53,120779,1,2,3:2:0:0:
344,53,120929,1,0,3:0:0:0:
273,109,121079,2,0,P|232:119|180:118,1,75,10|0,0:0|3:0,0:0:0:0:
129,62,121379,5,2,3:2:0:0:
129,62,121529,1,0,3:0:0:0:
55,119,121679,2,0,L|61:209,1,75,10|0,0:0|3:0,0:0:0:0:
148,212,121979,2,0,L|143:286,1,75,2|0,3:2|3:0,0:0:0:0:
77,349,122279,1,10,0:0:0:0:
162,377,122429,70,0,B|193:384|227:372|227:372|247:328|289:320,1,150,6|2,3:2|3:2,0:0:0:0:
380,346,122879,2,0,P|400:309|400:269,1,75,10|2,0:0|3:2,0:0:0:0:
488,252,123179,2,0,P|469:214|436:191,1,75,10|2,0:0|3:2,0:0:0:0:
476,110,123479,2,0,P|434:103|396:117,1,75,10|2,0:0|3:2,0:0:0:0:
332,35,123779,5,6,3:2:0:0:
332,35,124079,70,0,L|322:70,3,37.5,8|8|0|0,0:0|0:0|3:0|3:0,0:0:0:0:
310,121,124379,2,0,L|320:156,4,37.5,2|2|2|2|8,0:3|0:3|0:3|0:3|0:0,0:0:0:0:
416,253,124979,6,0,P|379:254|346:271,1,75,6|8,3:2|0:0,0:0:0:0:
281,338,125279,2,0,L|286:377,2,37.5,0|0|8,3:0|3:0|0:0,0:0:0:0:
209,282,125579,2,0,L|214:207,1,75,2|10,3:2|0:0,0:0:0:0:
157,138,125879,1,0,3:0:0:0:
157,138,125954,1,0,3:0:0:0:
157,138,126029,1,8,0:0:0:0:
76,177,126179,70,0,L|70:251,1,75,2|8,3:2|0:0,0:0:0:0:
34,337,126479,1,0,3:0:0:0:
34,337,126629,1,8,0:0:0:0:
125,323,126779,2,0,P|161:324|200:341,1,75,2|10,3:2|0:0,0:0:0:0:
275,382,127079,1,0,3:0:0:0:
345,325,127229,1,8,0:0:0:0:
342,308,127304,1,8,0:0:0:0:
339,291,127379,6,0,B|360:256|349:217|349:217|395:220|423:190,3,150,6|2|2|2,3:2|3:2|3:2|3:2,0:0:0:0:
508,40,128579,2,0,P|434:49|363:17,1,150,2|2,3:2|3:2,0:0:0:0:
186,32,129179,2,0,B|195:70|178:117|178:117|185:122|196:124|196:124|165:182|195:254,1,225,2|8,3:2|0:0,0:0:0:0:
262,300,129779,70,0,P|300:308|334:323,1,75,6|8,3:2|0:0,0:0:0:0:
424,341,130079,2,0,L|432:382,2,37.5,0|0|8,3:0|3:0|0:0,0:0:0:0:
416,249,130379,2,0,L|400:162,1,75,2|10,3:2|0:0,0:0:0:0:
436,93,130679,1,0,3:0:0:0:
436,93,130754,1,0,3:0:0:0:
436,93,130829,1,8,0:0:0:0:
342,51,130979,6,0,P|303:57|272:79,1,75,2|8,3:2|0:0,0:0:0:0:
208,139,131279,2,0,P|169:133|138:111,1,75,0|8,3:0|0:0,0:0:0:0:
71,54,131579,2,0,P|32:60|1:82,1,75,2|10,3:2|0:0,0:0:0:0:
5,170,131879,1,0,3:0:0:0:
81,217,132029,1,8,0:0:0:0:
85,236,132104,1,8,0:0:0:0:
89,255,132179,70,0,B|94:293|79:323|79:323|28:334|17:371,3,150,6|2|6|2,3:2|3:2|3:2|3:2,0:0:0:0:
185,300,133379,2,0,P|224:296|266:313,1,75,6|8,3:2|0:0,0:0:0:0:
363,289,133679,2,0,P|393:313|411:355,1,75,6|8,3:2|0:0,0:0:0:0:
494,257,133979,2,0,B|491:186|491:186|480:164|480:164|479:120|479:120|489:98|489:98|484:24,1,225,6|8,3:2|0:0,0:0:0:0:
397,0,134579,6,0,P|363:4|320:23,1,75,6|8,3:2|0:0,0:0:0:0:
288,108,134879,2,0,L|295:164,2,37.5,0|0|8,3:0|3:0|0:0,0:0:0:0:
220,42,135179,1,2,3:2:0:0:
220,42,135329,2,0,P|181:42|140:29,1,75,10|0,0:2|3:0,0:0:0:0:
55,45,135629,1,10,0:0:0:0:
83,135,135779,70,0,L|90:211,1,75,2|8,3:2|0:0,0:0:0:0:
35,290,136079,2,0,L|24:344,2,37.5,0|0|8,3:0|3:0|0:0,0:0:0:0:
121,335,136379,1,2,3:2:0:0:
191,276,136529,2,0,P|230:285|269:291,1,75,10|0,0:0|3:0,0:0:0:0:
306,377,136829,1,10,0:0:0:0:
363,301,136979,6,0,L|453:309,2,75,6|8|0,3:2|0:0|3:0,0:0:0:0:
358,291,137354,1,0,3:0:0:0:
353,281,137429,1,8,0:0:0:0:
303,196,137579,1,2,3:2:0:0:
390,158,137729,2,0,L|464:165,2,75,10|0|10,0:2|3:2|0:0,0:0:0:0:
346,59,138179,70,0,L|264:67,1,75,2|8,3:2|0:0,0:0:0:0:
199,122,138479,2,0,L|117:114,1,75,0|8,3:0|0:0,0:0:0:0:
35,97,138779,2,0,L|27:171,1,75,2|10,3:2|0:0,0:0:0:0:
57,256,139079,2,0,L|51:315,3,37.5,8|8|10|8,0:0|0:0|0:0|0:0,0:0:0:0:
50,338,139379,6,0,P|86:352|131:347,1,75,6|8,3:2|0:0,0:0:0:0:
193,285,139679,1,0,3:0:0:0:
193,285,139754,1,0,3:0:0:0:
193,285,139829,1,8,0:0:0:0:
269,336,139979,1,2,3:2:0:0:
345,276,140129,2,0,P|382:284|422:300,1,75,10|0,0:0|3:0,0:0:0:0:
504,267,140429,1,10,0:0:0:0:
441,195,140579,70,0,L|444:110,1,75,2|8,3:2|0:0,0:0:0:0:
504,50,140879,2,0,L|501:-9,2,37.5,0|0|8,3:2|3:0|0:0,0:0:0:0:
412,12,141179,1,2,3:2:0:0:
343,75,141329,2,0,P|257:70|214:20,1,150,2|2,3:2|3:2,0:0:0:0:
114,37,141779,6,0,L|118:-15,2,37.5,4|0|8,3:2|3:0|0:0,0:0:0:0:
165,119,142079,2,0,L|170:193,1,75,0|8,3:0|0:0,0:0:0:0:
58,172,142379,2,0,L|62:120,2,37.5,0|0|8,3:0|3:0|0:0,0:0:0:0:
11,251,142679,2,0,L|16:325,1,75,0|8,3:0|0:0,0:0:0:0:
118,328,142979,70,0,B|134:326|156:335|156:335|177:328|217:322,1,75,8|8,0:0|0:0,0:0:0:0:
271,367,143279,2,0,B|284:365|305:358|305:358|327:367|343:365,1,75,8|8,0:0|0:0,0:0:0:0:
411,306,143579,2,0,B|406:266|406:266|417:225,1,75,8|8,0:0|0:0,0:0:0:0:
492,186,143879,2,0,B|497:146|497:146|486:105,1,75,8|8,0:0|0:0,0:0:0:0:
420,32,144179,70,2,B|354:55|293:30|293:30|245:43|217:67|217:67|154:44|89:61|89:61|47:97|54:167,1,450,4|2,3:2|0:0,0:0:0:0:
0,331,146579,2,2,B|103:252|205:336|205:336|223:330|223:330|329:411|423:342,1,450,0|2,0:0|0:0,0:0:0:0:
413,348,148679,1,0,3:0:0:0:
485,224,148979,70,2,P|328:162|498:139,1,450,4|2,3:2|0:0,0:0:0:0:
295,195,151379,38,0,B|256:197|256:197|217:184,1,75,8|8,0:0|0:0,0:0:0:0:
177,108,151679,2,0,B|138:106|138:106|99:119,1,75,8|8,0:0|0:0,0:0:0:0:
32,171,151979,2,0,B|40:210|40:210|40:246,1,75,8|8,0:0|0:0,0:0:0:0:
110,302,152279,2,0,B|100:340|100:340|102:377,1,75,8|8,0:0|0:0,0:0:0:0:
203,357,152579,5,8,0:0:0:0:
203,357,153029,53,0,3:0:0:0:
220,351,153104,1,0,3:0:0:0:
238,345,153179,2,0,L|293:355,4,37.5,0|0|2|2|8,3:0|3:0|0:3|0:3|0:0,0:0:0:0:
440,298,153779,22,0,P|414:220|447:138,1,172.500003290176,4|8,3:2|0:0,0:0:0:0:
445,139,154379,2,0,P|415:100|371:89,1,86.2500016450882,2|2,3:2|3:2,0:0:0:0:
288,111,154679,1,10,0:0:0:0:
221,179,154829,2,0,P|135:166|87:93,1,172.500003290176,2|0,3:2|3:0,0:0:0:0:
8,47,155279,2,0,L|-1:140,1,86.2500016450882,8|0,0:0|0:0,0:0:0:0:
46,215,155579,2,0,L|54:300,2,86.2500016450882,2|2|10,3:2|3:2|0:0,0:0:0:0:
170,358,156179,6,0,P|248:315|338:318,1,172.500003290176,0|8,3:0|0:0,0:0:0:0:
329,315,156779,2,0,P|360:348|402:360,1,86.2500016450882,2|2,3:2|3:2,0:0:0:0:
457,285,157079,1,10,0:0:0:0:
507,365,157229,2,0,L|513:184,1,172.500003290176,2|0,3:2|3:0,0:0:0:0:
432,140,157679,2,0,L|427:13,1,86.2500016450882,10|0,0:0|0:0,0:0:0:0:
344,8,157979,1,2,3:2:0:0:
274,72,158129,1,2,3:2:0:0:
195,18,158279,1,10,0:0:0:0:
125,82,158429,1,2,3:2:0:0:
120,180,158579,70,0,B|140:238|140:238|97:345,1,172.500003290176,6|8,3:2|0:0,0:0:0:0:
98,341,159179,2,0,L|196:332,1,86.2500016450882,2|2,3:2|3:2,0:0:0:0:
278,321,159479,1,10,0:0:0:0:
355,376,159629,6,0,P|330:299|371:216,1,172.500003290176,6|0,3:2|3:0,0:0:0:0:
459,199,160079,2,0,P|487:167|494:125,1,86.2500016450882,8|0,0:0|0:0,0:0:0:0:
469,34,160379,1,2,3:2:0:0:
376,14,160529,2,0,L|326:11,2,43.1250008225441,2|0|10,3:2|3:0|0:0,0:0:0:0:
492,35,160829,1,0,3:0:0:0:
403,102,160979,70,0,B|277:94|277:94|322:128,1,172.500003290176,6|8,3:2|0:0,0:0:0:0:
315,123,161579,2,0,P|320:168|301:212,1,86.2500016450882,2|2,3:2|3:2,0:0:0:0:
219,247,161879,1,10,0:0:0:0:
133,205,162029,2,0,P|61:221|11:309,1,172.500003290176,2|0,3:2|3:0,0:0:0:0:
67,377,162479,2,0,L|157:364,1,86.2500016450882,8|0,0:0|0:0,0:0:0:0:
235,317,162779,2,0,L|325:330,2,86.2500016450882,2|2|10,3:2|3:2|0:0,0:0:0:0:
419,362,163379,6,0,B|399:334|416:289|416:289|462:263|459:204,1,172.500003290176,0|8,3:0|0:0,0:0:0:0:
459,208,163979,2,0,P|412:191|390:155,1,86.2500016450882,2|2,3:2|3:2,0:0:0:0:
374,68,164279,1,10,0:0:0:0:
451,13,164429,2,0,B|387:11|387:11|343:31|343:31|270:29,1,172.500003290176,2|0,3:2|3:0,0:0:0:0:
209,90,164879,2,0,L|108:92,1,86.2500016450882,10|0,0:0|0:0,0:0:0:0:
37,48,165179,1,2,3:2:0:0:
37,48,165329,1,2,3:2:0:0:
15,143,165479,1,10,0:0:0:0:
15,143,165629,1,2,3:2:0:0:
94,195,165779,70,0,B|116:239|98:282|98:282|78:321|102:366,1,172.500003290176,6|8,3:2|0:0,0:0:0:0:
99,361,166379,2,0,P|143:365|189:348,1,86.2500016450882,2|2,3:2|3:2,0:0:0:0:
260,295,166679,1,10,0:0:0:0:
330,359,166829,6,0,P|355:288|301:207,1,172.500003290176,6|0,3:2|3:0,0:0:0:0:
217,177,167279,2,0,P|206:136|216:85,1,86.2500016450882,8|0,0:0|0:0,0:0:0:0:
267,14,167579,1,2,3:2:0:0:
354,48,167729,2,0,L|399:43,2,43.1250008225441,2|0|10,3:2|3:0|0:0,0:0:0:0:
253,10,168029,1,0,3:0:0:0:
142,24,168179,69,6,3:2:0:0:
