osu file format v14

[General]
AudioFilename: audio.mp3
AudioLeadIn: 0
PreviewTime: 79384
Countdown: 1
SampleSet: Soft
StackLeniency: 0.4
Mode: 0
LetterboxInBreaks: 0
WidescreenStoryboard: 1

[Editor]
Bookmarks: 21777,31377,50577,60177,69777,79377,93777,96177,115377,124977,134577,144177,153777,168177
DistanceSpacing: 1
BeatDivisor: 4
GridSize: 4
TimelineZoom: 3.099998

[Metadata]
Title:Forcefield
TitleUnicode:Forcefield
Artist:Thaehan
ArtistUnicode:Thaehan
Creator:-Kemsyt
Version:Entry's Extra
Source:
Tags:symphonic melodic metal rock instrumental fa featured artist loki never give up entry
BeatmapID:2978009
BeatmapSetID:1362365

[Difficulty]
HPDrainRate:6
CircleSize:2.8
OverallDifficulty:8.8
ApproachRate:9.3
SliderMultiplier:1.9
SliderTickRate:1

[Events]
//Background and Video events
0,0,"sentinel.jpg",0,0
//Break Periods
//Storyboard Layer 0 (Background)
//Storyboard Layer 1 (Fail)
//Storyboard Layer 2 (Pass)
//Storyboard Layer 3 (Foreground)
//Storyboard Layer 4 (Overlay)
//Storyboard Sound Samples

[TimingPoints]
179,300,4,2,5,75,1,0
3854,-100,4,2,31,5,0,0
3929,-100,4,2,5,75,0,0
4379,-90.9090909090909,4,2,5,75,0,0
4454,-90.9090909090909,4,2,31,5,0,0
4529,-90.9090909090909,4,2,5,75,0,0
5579,-100,4,2,5,75,0,0
5654,-100,4,2,31,5,0,0
5729,-100,4,2,5,75,0,0
6254,-100,4,2,31,5,0,0
6329,-100,4,2,5,75,0,0
6854,-100,4,2,31,5,0,0
6929,-100,4,2,5,75,0,0
7379,-90.9090909090909,4,2,5,75,0,0
7979,-100,4,2,5,75,0,0
8054,-100,4,2,31,5,0,0
8129,-100,4,2,5,75,0,0
8654,-100,4,2,31,5,0,0
8729,-100,4,2,5,75,0,0
9179,-90.9090909090909,4,2,5,75,0,0
9254,-90.9090909090909,4,2,31,5,0,0
9329,-90.9090909090909,4,2,5,75,0,0
10379,-83.3333333333333,4,2,5,75,0,0
10604,-83.3333333333333,4,2,31,5,0,0
10679,-83.3333333333333,4,2,5,75,0,0
10904,-83.3333333333333,4,2,31,5,0,0
10979,-100,4,2,5,75,0,0
12854,-100,4,2,31,5,0,0
12929,-100,4,2,5,75,0,0
13454,-100,4,2,31,5,0,0
13529,-100,4,2,5,75,0,0
13979,-90.9090909090909,4,2,5,75,0,0
14054,-90.9090909090909,4,2,31,5,0,0
14129,-90.9090909090909,4,2,5,75,0,0
15179,-100,4,2,5,75,0,0
15254,-100,4,2,31,5,0,0
15329,-100,4,2,5,75,0,0
15854,-100,4,2,31,5,0,0
15929,-100,4,2,5,75,0,0
16454,-100,4,2,31,5,0,0
16529,-100,4,2,5,75,0,0
16979,-90.9090909090909,4,2,5,75,0,0
17579,-100,4,2,5,75,0,0
17654,-100,4,2,31,5,0,0
17729,-100,4,2,5,75,0,0
18254,-100,4,2,31,5,0,0
18329,-100,4,2,5,75,0,0
18779,-90.9090909090909,4,2,5,75,0,0
18854,-90.9090909090909,4,2,31,5,0,0
18929,-90.9090909090909,4,2,5,75,0,0
19979,-83.3333333333333,4,2,5,75,0,0
20204,-83.3333333333333,4,2,31,5,0,0
20279,-83.3333333333333,4,2,5,75,0,0
20504,-83.3333333333333,4,2,31,5,0,0
20579,-100,4,2,5,75,0,0
21779,-125,4,2,5,75,0,0
22379,-125,4,2,6,75,0,0
22829,-125,4,2,5,75,0,0
23579,-125,4,2,6,75,0,0
24029,-125,4,2,5,75,0,0
24779,-125,4,2,6,75,0,0
25079,-250,4,2,5,75,0,0
26204,-250,4,2,31,5,0,0
26279,-250,4,2,5,75,0,0
26504,-250,4,2,31,5,0,0
26579,-125,4,2,5,75,0,0
27179,-125,4,2,6,75,0,0
27629,-125,4,2,5,75,0,0
28379,-125,4,2,6,75,0,0
28829,-125,4,2,5,75,0,0
30179,-111.111111111111,4,2,5,75,0,0
30404,-111.111111111111,4,2,31,5,0,0
30479,-111.111111111111,4,2,5,75,0,0
30554,-111.111111111111,4,2,31,5,0,0
30629,-111.111111111111,4,2,5,75,0,0
30704,-111.111111111111,4,2,31,5,0,0
30779,-100,4,2,5,75,0,0
31004,-100,4,2,31,5,0,0
31079,-100,4,2,5,75,0,0
31379,-90.9090909090909,4,2,5,75,0,0
32129,-100,4,2,5,75,0,0
32579,-90.9090909090909,4,2,5,75,0,0
33329,-100,4,2,5,75,0,0
33779,-90.9090909090909,4,2,5,75,0,0
34529,-100,4,2,5,75,0,0
34979,-90.9090909090909,4,2,5,75,0,0
35579,-83.3333333333333,4,2,5,75,0,0
35804,-83.3333333333333,4,2,31,5,0,0
35879,-83.3333333333333,4,2,5,75,0,0
36104,-83.3333333333333,4,2,31,5,0,0
36179,-83.3333333333333,4,2,5,75,0,0
36929,-100,4,2,5,75,0,0
37379,-90.9090909090909,4,2,5,75,0,0
38129,-100,4,2,5,75,0,0
38579,-90.9090909090909,4,2,5,75,0,0
39179,-100,4,2,5,75,0,0
39779,-90.9090909090909,4,2,5,75,0,0
40004,-90.9090909090909,4,2,31,5,0,0
40079,-90.9090909090909,4,2,5,75,0,0
40154,-90.9090909090909,4,2,31,5,0,0
40229,-90.9090909090909,4,2,5,75,0,0
40604,-90.9090909090909,4,2,31,5,0,0
40679,-90.9090909090909,4,2,5,75,0,0
40904,-90.9090909090909,4,2,31,5,0,0
40979,-90.9090909090909,4,2,5,75,0,0
45179,-83.3333333333333,4,2,5,75,0,0
45404,-83.3333333333333,4,2,31,5,0,0
45479,-83.3333333333333,4,2,5,75,0,0
45704,-83.3333333333333,4,2,31,5,0,0
45779,-83.3333333333333,4,2,5,75,0,0
46979,-90.9090909090909,4,2,5,75,0,0
48779,-100,4,2,5,75,0,0
49604,-100,4,2,31,5,0,0
49679,-100,4,2,5,75,0,0
49754,-100,4,2,31,5,0,0
49829,-100,4,2,5,75,0,0
50579,-90.9090909090909,4,2,5,75,0,0
51779,-100,4,2,5,75,0,0
52979,-90.9090909090909,4,2,5,75,0,0
53204,-90.9090909090909,4,2,31,5,0,0
53279,-90.9090909090909,4,2,5,75,0,0
53504,-90.9090909090909,4,2,31,5,0,0
53579,-90.9090909090909,4,2,5,75,0,0
53804,-90.9090909090909,4,2,31,5,0,0
53879,-90.9090909090909,4,2,5,75,0,0
54104,-90.9090909090909,4,2,31,5,0,0
54179,-90.9090909090909,4,2,5,75,0,0
54404,-90.9090909090909,4,2,31,5,0,0
54479,-90.9090909090909,4,2,5,75,0,0
54704,-90.9090909090909,4,2,31,5,0,0
54779,-90.9090909090909,4,2,5,75,0,0
55004,-90.9090909090909,4,2,31,5,0,0
55079,-90.9090909090909,4,2,5,75,0,0
56579,-100,4,2,5,75,0,0
57779,-83.3333333333333,4,2,5,75,0,0
58004,-83.3333333333333,4,2,31,5,0,0
58079,-83.3333333333333,4,2,5,75,0,0
58304,-83.3333333333333,4,2,31,5,0,0
58379,-83.3333333333333,4,2,5,75,0,0
58604,-83.3333333333333,4,2,31,5,0,0
58679,-83.3333333333333,4,2,5,75,0,0
58904,-83.3333333333333,4,2,31,5,0,0
58979,-76.9230769230769,4,2,5,75,0,0
59204,-76.9230769230769,4,2,31,5,0,0
59279,-76.9230769230769,4,2,5,75,0,0
59504,-76.9230769230769,4,2,31,5,0,0
59579,-76.9230769230769,4,2,5,75,0,0
59804,-76.9230769230769,4,2,31,5,0,0
59879,-100,4,2,5,75,0,0
60179,-90.9090909090909,4,2,5,75,0,0
61304,-90.9090909090909,4,2,31,5,0,0
61379,-100,4,2,5,75,0,0
62204,-100,4,2,31,5,0,0
62279,-100,4,2,5,75,0,0
62504,-100,4,2,31,5,0,0
62579,-90.9090909090909,4,2,5,75,0,0
63704,-90.9090909090909,4,2,31,5,0,0
63779,-100,4,2,5,75,0,0
64454,-100,4,2,31,5,0,0
64529,-100,4,2,5,75,0,0
64604,-100,4,2,31,5,0,0
64679,-100,4,2,5,75,0,0
66104,-100,4,2,31,5,0,0
66179,-90.9090909090909,4,2,5,75,0,0
66854,-90.9090909090909,4,2,31,5,0,0
66929,-90.9090909090909,4,2,5,75,0,0
67004,-90.9090909090909,4,2,31,5,0,0
67079,-90.9090909090909,4,2,5,75,0,0
68579,-90.9090909090909,4,2,5,40,0,0
68729,-90.9090909090909,4,2,5,44,0,0
68879,-90.9090909090909,4,2,5,48,0,0
69029,-90.9090909090909,4,2,5,52,0,0
69179,-90.9090909090909,4,2,5,56,0,0
69329,-90.9090909090909,4,2,5,60,0,0
69479,-90.9090909090909,4,2,5,64,0,0
69629,-90.9090909090909,4,2,5,68,0,0
69779,-166.666666666667,4,2,5,72,0,0
71578,-166.666666666667,4,2,6,75,0,0
72104,-166.666666666667,4,2,31,5,0,0
72179,-166.666666666667,4,2,5,75,0,0
73978,-166.666666666667,4,2,6,75,0,0
74279,-166.666666666667,4,2,5,75,0,0
76378,-166.666666666667,4,2,6,75,0,0
76979,-90.9090909090909,4,2,5,40,0,0
77129,-90.9090909090909,4,2,5,44,0,0
77279,-90.9090909090909,4,2,5,48,0,0
77429,-90.9090909090909,4,2,5,52,0,0
77579,-90.9090909090909,4,2,5,56,0,0
77729,-90.9090909090909,4,2,5,60,0,0
77879,-90.9090909090909,4,2,5,64,0,0
78029,-90.9090909090909,4,2,5,68,0,0
78179,-90.9090909090909,4,2,5,72,0,0
79079,-111.111111111111,4,2,5,75,0,0
79304,-111.111111111111,4,2,31,5,0,0
79379,-83.3333333333333,4,2,5,75,0,1
79604,-83.3333333333333,4,2,31,5,0,1
79679,-83.3333333333333,4,2,5,75,0,1
79904,-83.3333333333333,4,2,31,5,0,1
79979,-83.3333333333333,4,2,5,75,0,1
80054,-83.3333333333333,4,2,31,5,0,1
80129,-83.3333333333333,4,2,5,75,0,1
81104,-83.3333333333333,4,2,31,5,0,1
81179,-83.3333333333333,4,2,5,75,0,1
81704,-83.3333333333333,4,2,31,5,0,1
81779,-83.3333333333333,4,2,5,75,0,1
82004,-83.3333333333333,4,2,31,5,0,1
82079,-83.3333333333333,4,2,5,75,0,1
82304,-83.3333333333333,4,2,31,5,0,1
82379,-83.3333333333333,4,2,5,75,0,1
82454,-83.3333333333333,4,2,31,5,0,1
82529,-83.3333333333333,4,2,5,75,0,1
83504,-83.3333333333333,4,2,31,5,0,1
83579,-83.3333333333333,4,2,5,75,0,1
84404,-83.3333333333333,4,2,31,5,0,1
84479,-83.3333333333333,4,2,5,75,0,1
84704,-83.3333333333333,4,2,31,5,0,1
84779,-83.3333333333333,4,2,5,75,0,1
84854,-83.3333333333333,4,2,31,5,0,1
84929,-83.3333333333333,4,2,5,75,0,1
85904,-83.3333333333333,4,2,31,5,0,1
85979,-83.3333333333333,4,2,5,75,0,1
86579,-76.9230769230769,4,2,5,75,0,1
86804,-76.9230769230769,4,2,31,5,0,1
86879,-76.9230769230769,4,2,5,75,0,1
87104,-76.9230769230769,4,2,31,5,0,1
87179,-76.9230769230769,4,2,5,75,0,1
87254,-76.9230769230769,4,2,31,5,0,1
87329,-76.9230769230769,4,2,5,75,0,1
88304,-76.9230769230769,4,2,31,5,0,1
88379,-76.9230769230769,4,2,5,75,0,1
88904,-76.9230769230769,4,2,31,5,0,1
88979,-76.9230769230769,4,2,5,75,0,1
89204,-76.9230769230769,4,2,31,5,0,1
89279,-76.9230769230769,4,2,5,75,0,1
89504,-76.9230769230769,4,2,31,5,0,1
89579,-76.9230769230769,4,2,5,75,0,1
89654,-76.9230769230769,4,2,31,5,0,1
89729,-76.9230769230769,4,2,5,75,0,1
90704,-76.9230769230769,4,2,31,5,0,1
90779,-76.9230769230769,4,2,5,75,0,1
91604,-76.9230769230769,4,2,31,5,0,1
91679,-76.9230769230769,4,2,5,75,0,1
91904,-76.9230769230769,4,2,31,5,0,1
91979,-76.9230769230769,4,2,5,75,0,1
92054,-76.9230769230769,4,2,31,5,0,1
92129,-76.9230769230769,4,2,5,75,0,1
93104,-76.9230769230769,4,2,31,5,0,1
93179,-76.9230769230769,4,2,5,75,0,1
93779,-100,4,2,5,75,0,0
95429,-100,4,2,5,5,0,0
95579,-100,4,2,5,75,0,0
96179,-90.9090909090909,4,2,5,75,0,0
96929,-100,4,2,5,75,0,0
97379,-90.9090909090909,4,2,5,75,0,0
98129,-100,4,2,5,75,0,0
98579,-90.9090909090909,4,2,5,75,0,0
99329,-100,4,2,5,75,0,0
99779,-90.9090909090909,4,2,5,75,0,0
100379,-83.3333333333333,4,2,5,75,0,0
100604,-83.3333333333333,4,2,31,5,0,0
100679,-83.3333333333333,4,2,5,75,0,0
100904,-83.3333333333333,4,2,31,5,0,0
100979,-83.3333333333333,4,2,5,75,0,0
101729,-100,4,2,5,75,0,0
102179,-90.9090909090909,4,2,5,75,0,0
102929,-100,4,2,5,75,0,0
103379,-90.9090909090909,4,2,5,75,0,0
103979,-100,4,2,5,75,0,0
104579,-90.9090909090909,4,2,5,75,0,0
104804,-90.9090909090909,4,2,5,5,0,0
104879,-90.9090909090909,4,2,5,75,0,0
105404,-90.9090909090909,4,2,5,5,0,0
105479,-90.9090909090909,4,2,5,75,0,0
105704,-90.9090909090909,4,2,5,5,0,0
105779,-90.9090909090909,4,2,5,75,0,0
109979,-83.3333333333333,4,2,5,75,0,0
110204,-83.3333333333333,4,2,31,5,0,0
110279,-83.3333333333333,4,2,5,75,0,0
110504,-83.3333333333333,4,2,31,5,0,0
110579,-83.3333333333333,4,2,5,75,0,0
111779,-90.9090909090909,4,2,5,75,0,0
113579,-100,4,2,5,75,0,0
115379,-90.9090909090909,4,2,5,75,0,0
118979,-76.9230769230769,4,2,5,75,0,0
120029,-83.3333333333333,4,2,5,75,0,0
120479,-90.9090909090909,4,2,5,75,0,0
121379,-86.9565217391304,4,2,5,75,0,0
121679,-83.3333333333333,4,2,5,75,0,0
124004,-83.3333333333333,4,2,31,5,0,0
124079,-100,4,2,5,75,0,0
124979,-90.9090909090909,4,2,5,75,0,0
126179,-100,4,2,5,75,0,0
127379,-90.9090909090909,4,2,5,75,0,0
130979,-100,4,2,5,75,0,0
132179,-83.3333333333333,4,2,5,75,0,0
133379,-76.9230769230769,4,2,5,75,0,0
134204,-76.9230769230769,4,2,31,5,0,0
134279,-100,4,2,5,75,0,0
134579,-90.9090909090909,4,2,5,75,0,0
135704,-90.9090909090909,4,2,31,5,0,0
135779,-100,4,2,5,75,0,0
136604,-100,4,2,31,5,0,0
136679,-100,4,2,5,75,0,0
136904,-100,4,2,31,5,0,0
136979,-90.9090909090909,4,2,5,75,0,0
138104,-90.9090909090909,4,2,31,5,0,0
138179,-100,4,2,5,75,0,0
138854,-100,4,2,31,5,0,0
138929,-100,4,2,5,75,0,0
139004,-100,4,2,31,5,0,0
139079,-100,4,2,5,75,0,0
140504,-100,4,2,31,5,0,0
140579,-90.9090909090909,4,2,5,75,0,0
141254,-90.9090909090909,4,2,31,5,0,0
141329,-90.9090909090909,4,2,5,75,0,0
141404,-90.9090909090909,4,2,31,5,0,0
141479,-90.9090909090909,4,2,5,75,0,0
142979,-90.9090909090909,4,2,5,40,0,0
143129,-90.9090909090909,4,2,5,44,0,0
143279,-90.9090909090909,4,2,5,48,0,0
143429,-90.9090909090909,4,2,5,52,0,0
143579,-90.9090909090909,4,2,5,56,0,0
143729,-90.9090909090909,4,2,5,60,0,0
143879,-90.9090909090909,4,2,5,64,0,0
144029,-90.9090909090909,4,2,5,68,0,0
144179,-166.666666666667,4,2,5,72,0,0
145978,-166.666666666667,4,2,6,75,0,0
146579,-166.666666666667,4,2,5,75,0,0
148378,-166.666666666667,4,2,6,75,0,0
148679,-166.666666666667,4,2,5,75,0,0
150778,-166.666666666667,4,2,6,75,0,0
151379,-90.9090909090909,4,2,5,40,0,0
151529,-90.9090909090909,4,2,5,44,0,0
151679,-90.9090909090909,4,2,5,48,0,0
151829,-90.9090909090909,4,2,5,52,0,0
151979,-90.9090909090909,4,2,5,56,0,0
152129,-90.9090909090909,4,2,5,60,0,0
152279,-90.9090909090909,4,2,5,64,0,0
152429,-90.9090909090909,4,2,5,68,0,0
152579,-90.9090909090909,4,2,5,72,0,0
153779,-83.3333333333333,4,2,5,75,0,1
154004,-83.3333333333333,4,2,31,5,0,1
154079,-83.3333333333333,4,2,5,75,0,1
154304,-83.3333333333333,4,2,31,5,0,1
154379,-83.3333333333333,4,2,5,75,0,1
155504,-83.3333333333333,4,2,31,5,0,1
155579,-83.3333333333333,4,2,5,75,0,1
156104,-83.3333333333333,4,2,31,5,0,1
156179,-83.3333333333333,4,2,5,75,0,1
156404,-83.3333333333333,4,2,31,5,0,1
156479,-83.3333333333333,4,2,5,75,0,1
156704,-83.3333333333333,4,2,31,5,0,1
156779,-83.3333333333333,4,2,5,75,0,1
157904,-83.3333333333333,4,2,31,5,0,1
157979,-83.3333333333333,4,2,5,75,0,1
158804,-83.3333333333333,4,2,31,5,0,1
158879,-83.3333333333333,4,2,5,75,0,1
159104,-83.3333333333333,4,2,31,5,0,1
159179,-83.3333333333333,4,2,5,75,0,1
160304,-83.3333333333333,4,2,31,5,0,1
160379,-83.3333333333333,4,2,5,75,0,1
160979,-76.9230769230769,4,2,5,75,0,1
161204,-76.9230769230769,4,2,31,5,0,1
161279,-76.9230769230769,4,2,5,75,0,1
161504,-76.9230769230769,4,2,31,5,0,1
161579,-76.9230769230769,4,2,5,75,0,1
162704,-76.9230769230769,4,2,31,5,0,1
162779,-76.9230769230769,4,2,5,75,0,1
163304,-76.9230769230769,4,2,31,5,0,1
163379,-76.9230769230769,4,2,5,75,0,1
163604,-76.9230769230769,4,2,31,5,0,1
163679,-76.9230769230769,4,2,5,75,0,1
163904,-76.9230769230769,4,2,31,5,0,1
163979,-76.9230769230769,4,2,5,75,0,1
165104,-76.9230769230769,4,2,31,5,0,1
165179,-76.9230769230769,4,2,5,75,0,1
166004,-76.9230769230769,4,2,31,5,0,1
166079,-76.9230769230769,4,2,5,75,0,1
166304,-76.9230769230769,4,2,31,5,0,1
166379,-76.9230769230769,4,2,5,75,0,1
167504,-76.9230769230769,4,2,31,5,0,1
167579,-76.9230769230769,4,2,5,75,0,1
168179,-71.4285714285714,4,2,5,75,0,0
169079,-71.4285714285714,4,2,31,5,0,0

[Colours]
Combo1 : 124,124,124
Combo2 : 37,142,205
Combo3 : 78,69,237
Combo4 : 177,84,168
Combo5 : 189,64,117
Combo6 : 214,214,214

[HitObjects]
303,138,179,5,8,0:0:0:0:
281,96,254,1,8,0:0:0:0:
288,49,329,1,0,3:0:0:0:
319,15,404,1,0,3:0:0:0:
365,5,479,1,2,0:3:0:0:
408,22,554,1,2,0:3:0:0:
434,61,629,2,0,P|438:93|429:119,1,47.5,0|0,3:0|3:0,0:0:0:0:
264,234,779,5,2,0:3:0:0:
264,234,854,1,2,0:3:0:0:
264,234,929,2,0,L|330:244,1,47.5,0|0,3:0|3:0,0:0:0:0:
496,199,1079,69,2,0:3:0:0:
496,199,1154,1,2,0:3:0:0:
496,199,1229,2,0,L|430:209,1,47.5,2|2,0:3|0:3,0:0:0:0:
344,356,1379,5,8,0:0:0:0:
298,343,1454,1,8,0:0:0:0:
251,333,1529,1,0,3:0:0:0:
204,326,1604,1,0,3:0:0:0:
157,321,1679,1,2,0:3:0:0:
110,320,1754,1,2,0:3:0:0:
62,321,1829,2,0,L|80:375,1,47.5,0|0,3:0|3:0,0:0:0:0:
46,179,1979,69,8,0:0:0:0:
46,179,2054,1,8,0:0:0:0:
46,179,2129,2,0,L|28:233,1,47.5,0|0,3:0|3:0,0:0:0:0:
137,65,2279,5,8,0:0:0:0:
131,116,2354,1,8,0:0:0:0:
148,166,2429,1,8,0:0:0:0:
182,205,2504,1,8,0:0:0:0:
228,229,2579,70,0,B|306:220|306:220|326:244|326:244|431:231,1,190,6|0,3:2|3:0,0:0:0:0:
457,231,2954,1,0,3:0:0:0:
457,231,3029,1,8,0:0:0:0:
329,384,3179,2,0,B|308:343|308:343|322:285,1,95,0|8,3:0|0:0,0:0:0:0:
372,117,3479,1,0,3:0:0:0:
372,117,3554,1,0,3:0:0:0:
372,117,3629,1,8,0:0:0:0:
160,36,3779,5,2,3:2:0:0:
160,36,3929,2,0,P|213:17|274:12,1,95,10|0,0:0|3:0,0:0:0:0:
73,89,4229,1,10,0:0:0:0:
251,184,4379,69,2,3:2:0:0:
251,184,4529,2,0,P|198:165|136:161,1,104.500003189087,10|0,0:0|3:0,0:0:0:0:
338,237,4829,1,10,0:0:0:0:
473,24,4979,6,0,B|423:83|423:83|443:240,1,209.000006378174,2|0,3:2|3:0,0:0:0:0:
449,261,5354,1,0,3:0:0:0:
449,261,5429,1,8,0:0:0:0:
313,50,5579,2,0,L|329:168,1,95,0|8,3:0|0:0,0:0:0:0:
360,338,5879,1,0,3:0:0:0:
360,338,5954,1,0,3:0:0:0:
360,338,6029,1,8,0:0:0:0:
151,267,6179,69,2,3:2:0:0:
151,267,6329,2,0,P|120:312|102:365,1,95,10|0,0:0|3:0,0:0:0:0:
243,216,6629,1,10,0:0:0:0:
79,180,6779,1,2,3:2:0:0:
251,107,6929,1,10,0:0:0:0:
324,287,7079,1,8,0:0:0:0:
301,328,7154,1,8,0:0:0:0:
265,359,7229,1,8,0:0:0:0:
221,375,7304,1,8,0:0:0:0:
174,375,7379,6,0,B|32:351|32:351|76:339|101:308,1,209.000006378174,6|0,3:2|3:0,0:0:0:0:
117,289,7754,1,0,3:0:0:0:
117,289,7829,1,8,0:0:0:0:
142,112,7979,2,0,P|89:95|25:97,1,95,0|8,3:0|0:0,0:0:0:0:
212,221,8279,1,0,3:0:0:0:
212,221,8354,1,0,3:0:0:0:
212,221,8429,1,8,0:0:0:0:
295,59,8579,69,2,3:2:0:0:
295,59,8729,2,0,L|311:177,1,95,10|0,0:0|3:0,0:0:0:0:
193,17,9029,1,10,0:0:0:0:
321,256,9179,5,2,3:2:0:0:
321,256,9329,2,0,L|305:138,1,104.500003189087,10|0,0:0|3:0,0:0:0:0:
423,298,9629,1,10,0:0:0:0:
483,106,9779,70,0,B|483:79|491:57|491:57|420:12|420:12|385:24|338:31,1,209.000006378174,2|0,3:2|3:0,0:0:0:0:
307,39,10154,1,0,3:0:0:0:
307,39,10229,1,8,0:0:0:0:
191,212,10379,6,0,B|229:288|229:288|203:379,1,170.999994781494,6|0,3:2|1:0,0:0:0:0:
183,374,10679,2,0,B|206:291|206:291|168:215,1,170.999994781494,2|0,3:2|1:0,0:3:0:0:
114,136,10979,69,2,0:3:0:0:
114,136,11054,1,2,0:3:0:0:
114,136,11129,2,0,L|58:161,1,47.5,2|2,0:3|0:3,0:0:0:0:
191,57,11279,5,2,0:3:0:0:
191,57,11354,1,2,0:3:0:0:
191,57,11429,2,0,L|141:21,1,47.5,2|2,0:3|0:3,0:0:0:0:
294,122,11579,69,2,0:3:0:0:
294,122,11654,1,2,0:3:0:0:
294,122,11729,2,0,L|300:61,1,47.5,2|2,0:3|0:3,0:0:0:0:
383,186,11879,5,8,0:0:0:0:
378,233,11954,1,8,0:0:0:0:
374,280,12029,1,8,0:0:0:0:
370,327,12104,1,8,0:0:0:0:
366,375,12179,70,0,B|331:337|331:337|481:282,1,190,6|0,3:2|3:0,0:0:0:0:
509,276,12554,1,0,3:0:0:0:
509,276,12629,1,8,0:0:0:0:
253,243,12779,2,0,L|373:202,1,95,0|8,3:0|0:0,0:0:0:0:
512,170,13079,1,0,3:0:0:0:
512,170,13154,1,0,3:0:0:0:
512,170,13229,1,8,0:0:0:0:
299,71,13379,5,2,3:2:0:0:
299,71,13529,2,0,P|233:49|192:16,1,95,10|0,0:0|3:0,0:0:0:0:
396,115,13829,1,10,0:0:0:0:
181,151,13979,69,2,3:2:0:0:
181,151,14129,2,0,P|121:115|87:74,1,104.500003189087,10|0,0:0|3:0,0:0:0:0:
265,213,14429,1,10,0:0:0:0:
48,264,14579,6,0,P|21:309|133:362,1,209.000006378174,2|0,3:2|3:0,0:0:0:0:
168,349,14954,1,0,3:0:0:0:
168,349,15029,1,8,0:0:0:0:
123,175,15179,2,0,P|51:152|2:150,1,95,0|8,3:0|0:0,0:0:0:0:
216,253,15479,1,0,3:0:0:0:
216,253,15554,1,0,3:0:0:0:
216,253,15629,1,8,0:0:0:0:
381,136,15779,69,2,3:2:0:0:
381,136,15929,2,0,P|429:117|481:110,1,95,10|0,0:0|3:0,0:0:0:0:
278,100,16229,1,10,0:0:0:0:
364,239,16379,1,2,3:2:0:0:
381,22,16529,1,10,0:0:0:0:
173,15,16679,1,8,0:0:0:0:
168,67,16754,1,8,0:0:0:0:
164,119,16829,1,8,0:0:0:0:
160,171,16904,1,8,0:0:0:0:
156,223,16979,6,0,B|34:204|34:204|7:159|58:111,1,209.000006378174,6|0,3:2|3:0,0:0:0:0:
69,92,17354,1,0,3:0:0:0:
69,92,17429,1,8,0:0:0:0:
130,326,17579,2,0,L|36:311,1,95,0|8,3:0|0:0,0:0:0:0:
234,384,17879,1,0,3:0:0:0:
234,384,17954,1,0,3:0:0:0:
234,384,18029,1,8,0:0:0:0:
266,185,18179,69,2,3:2:0:0:
266,185,18329,2,0,P|253:126|231:83,1,95,10|0,0:0|3:0,0:0:0:0:
323,273,18629,1,10,0:0:0:0:
448,106,18779,5,2,3:2:0:0:
448,106,18929,2,0,P|461:47|483:4,1,104.500003189087,10|0,0:0|3:0,0:0:0:0:
391,194,19229,1,10,0:0:0:0:
489,368,19379,70,0,B|462:276|462:276|431:324|384:359,1,209.000006378174,2|0,3:2|3:0,0:0:0:0:
348,376,19754,1,0,3:0:0:0:
348,376,19829,1,8,0:0:0:0:
100,257,19979,6,0,B|179:263|179:263|189:257|189:257|272:263,1,170.999994781494,6|0,3:2|1:0,0:0:0:0:
269,284,20279,2,0,B|189:278|189:278|179:284|179:284|100:278,1,170.999994781494,2|0,3:2|1:0,0:0:0:0:
17,220,20579,69,8,0:0:0:0:
17,220,20654,1,8,0:0:0:0:
17,220,20729,2,0,L|22:146,1,47.5,2|2,0:3|0:3,0:0:0:0:
91,51,20879,5,2,0:3:0:0:
91,51,20954,1,2,0:3:0:0:
91,51,21029,2,0,L|96:125,1,47.5,2|2,0:3|0:3,0:0:0:0:
176,206,21179,69,2,0:3:0:0:
176,206,21254,1,2,0:3:0:0:
176,206,21329,2,0,L|181:132,1,47.5,2|2,0:3|0:3,0:3:0:0:
252,41,21479,5,2,0:3:0:0:
252,41,21554,1,2,0:3:0:0:
252,41,21629,2,0,L|257:115,1,47.5,2|2,0:3|0:3,0:3:0:0:
259,266,21779,54,0,P|313:327|379:183,1,304,6|2,3:2|0:0,0:0:0:0:
389,191,22829,1,2,0:0:0:0:
389,191,22979,70,0,B|358:164|341:127|341:127|114:21,1,304,2|2,0:0|0:0,0:0:0:0:
138,32,24029,1,2,0:0:0:0:
138,32,24179,6,0,P|107:91|38:328,1,304,2|2,0:0|0:0,0:0:0:0:
162,383,25079,70,0,B|168:347|168:347|144:314,2,76
411,26,25979,69,2,3:2:0:0:
411,26,26279,1,2,3:2:0:0:
500,138,26579,6,0,P|407:125|187:104,1,304,6|2,0:0|0:0,0:0:0:0:
197,104,27629,1,2,0:0:0:0:
197,104,27779,6,0,B|317:307|317:307|296:333|280:370,1,304,2|2,0:0|0:0,0:0:0:0:
282,365,28829,1,2,0:0:0:0:
282,365,28979,70,0,P|192:343|175:268,1,152,2|0,0:0|0:0,0:0:0:0:
402,383,29579,1,10,0:0:0:0:
403,360,29654,1,8,0:0:0:0:
405,337,29729,1,0,3:0:0:0:
407,314,29804,1,0,3:0:0:0:
409,292,29879,1,0,3:0:0:0:
411,269,29954,1,0,3:0:0:0:
413,246,30029,1,0,3:0:0:0:
415,223,30104,1,0,3:0:0:0:
417,200,30179,54,0,P|346:186|292:160,1,128.249996086121,6|0,3:2|1:0,0:0:0:0:
224,98,30479,1,8,0:0:0:0:
28,118,30629,1,8,0:0:0:0:
111,19,30779,6,0,B|119:77|119:77|125:96|125:96|132:165,1,142.5,6|0,3:2|1:0,0:0:0:0:
148,257,31079,1,8,0:0:0:0:
148,257,31229,1,8,0:0:0:0:
285,18,31379,38,0,P|370:26|452:119,1,209.000006378174,6|0,3:2|3:0,0:0:0:0:
482,218,31829,1,0,3:0:0:0:
294,233,31979,1,8,0:0:0:0:
294,233,32129,2,0,P|357:211|406:170,1,95,0|0,3:0|3:0,0:0:0:0:
497,367,32429,1,2,3:2:0:0:
497,367,32579,6,0,B|468:329|468:329|434:333|396:354|396:354|287:333,1,209.000006378174,2|0,3:2|3:0,0:0:0:0:
209,374,33029,1,0,3:0:0:0:
103,220,33179,1,8,0:0:0:0:
103,220,33329,2,0,P|106:277|130:334,1,95,0|0,3:0|3:0,0:0:0:0:
209,374,33629,1,2,3:2:0:0:
239,166,33779,70,0,B|253:64|253:64|211:36|153:22,1,209.000006378174,2|0,3:2|3:0,0:0:0:0:
47,11,34229,1,0,3:0:0:0:
73,207,34379,1,8,0:0:0:0:
73,207,34529,2,0,L|91:82,1,95,0|0,3:0|3:0,0:0:0:0:
47,11,34829,1,0,3:0:0:0:
239,166,34979,6,0,P|287:196|442:225,1,209.000006378174,2|0,3:2|3:0,0:0:0:0:
487,322,35429,1,0,3:0:0:0:
489,127,35579,6,0,P|479:61|376:17,1,170.999994781494,14|0,0:0|1:0,0:0:0:0:
377,28,35879,2,0,P|452:60|472:140,1,170.999994781494,6|0,3:2|1:0,0:0:0:0:
430,225,36179,54,0,P|348:258|197:274,1,227.999993041992,6|0,3:2|3:0,0:0:0:0:
121,211,36629,1,0,3:0:0:0:
32,373,36779,1,8,0:0:0:0:
32,373,36929,2,0,P|80:346|112:294,1,95,0|0,3:0|3:0,0:0:0:0:
25,84,37229,1,2,3:2:0:0:
25,84,37379,6,0,P|78:107|218:43,1,209.000006378174,2|0,3:2|3:0,0:0:0:0:
308,2,37829,1,0,3:0:0:0:
330,196,37979,1,8,0:0:0:0:
330,196,38129,2,0,P|348:139|354:88,1,95,0|0,3:0|3:0,0:0:0:0:
472,302,38429,1,2,3:2:0:0:
472,302,38579,70,0,B|449:227|449:227|473:165|474:87,1,209.000006378174,2|0,3:2|3:0,0:0:0:0:
413,7,39029,1,0,3:0:0:0:
270,81,39179,1,8,0:0:0:0:
306,84,39254,1,8,0:0:0:0:
342,88,39329,2,0,L|336:140,1,47.5,0|0,3:0|3:0,0:0:0:0:
361,255,39479,2,0,P|331:231|308:223,1,47.5,0|0,3:0|3:0,0:0:0:0:
192,245,39629,2,0,P|212:233|230:217,1,47.5,0|0,3:0|3:0,0:0:0:0:
287,384,39779,22,0,B|273:308|273:308|218:352|140:376,1,209.000006378174,6|0,3:2|3:0,0:0:0:0:
15,218,40229,1,0,3:0:0:0:
15,218,40304,1,0,3:0:0:0:
15,218,40379,2,0,B|51:178|51:178|55:221|81:255|81:255|56:282|56:327,1,209.000006378174,14|0,0:0|3:2,0:0:0:0:
286,74,40979,54,0,B|264:35|198:10|139:21|139:21|161:44|168:77,1,209.000006378174,6|0,3:2|3:0,0:0:0:0:
164,168,41429,1,0,3:0:0:0:
349,255,41579,1,8,0:0:0:0:
239,248,41729,1,0,3:0:0:0:
164,168,41879,1,0,3:0:0:0:
392,110,42029,1,2,3:2:0:0:
392,110,42179,6,0,P|453:133|503:285,1,209.000006378174,2|0,3:2|3:0,0:0:0:0:
472,360,42629,1,0,3:0:0:0:
325,255,42779,1,8,0:0:0:0:
362,358,42929,1,0,3:0:0:0:
472,360,43079,1,0,3:0:0:0:
509,257,43229,1,2,3:2:0:0:
263,334,43379,70,0,B|171:321|171:321|152:323|152:323|56:308,1,209.000006378174,2|0,3:2|3:0,0:0:0:0:
14,207,43829,1,0,3:0:0:0:
67,0,43979,1,8,0:0:0:0:
16,97,44129,1,0,3:0:0:0:
14,207,44279,1,0,3:0:0:0:
56,308,44429,1,0,3:0:0:0:
141,80,44579,6,0,P|121:143|176:285,1,209.000006378174,2|0,3:2|3:0,0:0:0:0:
237,357,45029,1,0,3:0:0:0:
357,192,45179,6,0,B|443:185|443:185|499:251,1,170.999994781494,14|0,0:0|1:0,0:0:0:0:
508,232,45479,2,0,B|453:167|453:167|367:173,1,170.999994781494,6|0,3:2|1:0,0:0:0:0:
277,149,45779,54,0,B|277:80|293:18|293:18|274:62|236:123,1,227.999993041992,6|0,3:2|3:0,0:0:0:0:
165,173,46229,1,0,3:0:0:0:
13,38,46379,1,8,0:0:0:0:
116,75,46529,1,0,3:0:0:0:
165,173,46679,1,0,3:0:0:0:
37,381,46829,1,2,3:2:0:0:
37,381,46979,6,0,B|38:353|21:328|21:328|174:279,1,209.000006378174,2|0,3:2|3:0,0:0:0:0:
272,248,47429,1,0,3:0:0:0:
438,375,47579,1,8,0:0:0:0:
335,338,47729,1,0,3:0:0:0:
272,248,47879,1,0,3:0:0:0:
445,95,48029,1,2,3:2:0:0:
445,95,48179,70,0,P|476:142|399:276,1,209.000006378174,2|0,3:2|3:0,0:0:0:0:
335,338,48629,1,0,3:0:0:0:
127,371,48779,1,8,0:0:0:0:
163,368,48854,1,8,0:0:0:0:
199,366,48929,2,0,P|220:342|231:313,1,47.5,0|0,3:0|3:0,0:0:0:0:
160,213,49079,2,0,L|166:264,1,47.5,0|0,3:0|3:0,0:0:0:0:
45,331,49229,2,0,L|38:279,1,47.5,0|0,3:0|3:0,0:0:0:0:
241,160,49379,22,0,P|230:92|123:16,1,190,6|0,3:2|3:0,0:0:0:0:
20,106,49829,2,0,L|73:125,1,47.5,0|0,3:0|3:0,0:0:0:0:
139,18,49979,1,10,0:0:0:0:
139,18,50054,1,8,0:0:0:0:
139,18,50129,2,0,L|94:34,1,47.5,0|0,3:0|3:0,0:0:0:0:
31,208,50279,1,10,0:0:0:0:
61,230,50354,1,8,0:0:0:0:
94,248,50429,1,8,0:0:0:0:
130,261,50504,1,8,0:0:0:0:
167,268,50579,54,0,B|323:231|323:231|393:258,1,209.000006378174,6|0,3:2|3:0,0:0:0:0:
414,268,50954,1,0,3:0:0:0:
414,268,51029,1,8,0:0:0:0:
216,355,51179,1,2,3:2:0:0:
317,330,51329,1,10,0:0:0:0:
426,373,51479,1,0,3:0:0:0:
426,373,51554,1,0,3:0:0:0:
426,373,51629,1,8,0:0:0:0:
485,197,51779,6,0,B|514:159|514:159|499:80|431:36,1,190,2|0,3:2|3:0,0:0:0:0:
332,22,52229,1,8,0:0:0:0:
181,155,52379,1,2,3:2:0:0:
223,1,52529,1,10,0:0:0:0:
288,176,52679,1,0,3:0:0:0:
105,231,52829,1,8,0:0:0:0:
105,231,52904,1,8,0:0:0:0:
105,231,52979,70,0,B|50:210|50:210|-29:220,1,104.500003189087,6|8,3:2|0:0,0:0:0:0:
282,327,53279,2,0,B|227:306|227:306|181:311,1,104.500003189087,2|8,3:2|0:0,0:0:0:0:
213,105,53579,2,0,L|223:-8,1,104.500003189087,2|8,3:2|0:0,0:0:0:0:
446,218,53879,2,0,L|436:322,1,104.500003189087,2|8,3:2|0:0,0:0:0:0:
337,85,54179,6,0,L|327:189,1,104.500003189087,2|8,3:2|0:0,0:0:0:0:
222,384,54479,2,0,L|231:279,1,104.500003189087,2|8,3:2|0:0,0:0:0:0:
448,110,54779,2,0,P|465:63|438:73,1,104.500003189087,2|8,3:2|0:0,0:0:0:0:
215,172,55079,1,8,0:0:0:0:
177,169,55154,1,8,0:0:0:0:
139,167,55229,1,8,0:0:0:0:
101,164,55304,1,8,0:0:0:0:
63,162,55379,70,0,B|11:195|29:268|29:268|103:350,1,209.000006378174,6|0,3:2|3:0,0:0:0:0:
123,370,55754,1,0,3:0:0:0:
123,370,55829,1,8,0:0:0:0:
291,284,55979,1,2,3:2:0:0:
186,275,56129,1,10,0:0:0:0:
235,380,56279,1,0,3:0:0:0:
235,380,56354,1,0,3:0:0:0:
235,380,56429,1,8,0:0:0:0:
269,181,56579,6,0,B|356:141|356:141|386:101|431:87,1,190,2|0,3:2|3:0,0:0:0:0:
490,179,57029,1,8,0:0:0:0:
368,8,57179,1,2,3:2:0:0:
385,178,57329,1,10,0:0:0:0:
201,98,57479,1,0,3:0:0:0:
235,290,57629,1,8,0:0:0:0:
235,290,57704,1,8,0:0:0:0:
235,290,57779,70,0,P|261:351|330:384,1,113.999996520996,6|8,3:2|0:0,0:0:0:0:
156,195,58079,2,0,P|116:248|122:324,1,113.999996520996,2|8,3:2|0:0,0:0:0:0:
348,275,58379,2,0,L|480:257,1,113.999996520996,6|8,3:2|0:0,0:0:0:0:
201,98,58679,2,0,L|69:80,1,113.999996520996,2|8,3:2|0:0,0:0:0:0:
204,324,58979,6,0,B|220:348|227:378|227:378|245:351|273:334,1,123.499994346619,6|8,3:2|0:0,0:0:0:0:
292,65,59279,2,0,B|308:40|315:10|315:10|334:36|362:55,1,123.499994346619,6|8,3:2|0:0,0:0:0:0:
207,210,59579,2,0,P|128:216|16:167,1,185.249991519928,6|0,3:2|1:0,0:0:0:0:
11,282,59879,69,8,0:0:0:0:
11,282,59954,1,8,0:0:0:0:
11,282,60029,2,0,L|16:347,1,47.5,2|2,0:3|0:3,0:0:0:0:
0,138,60179,6,0,P|25:91|166:36,1,209.000006378174,6|0,3:2|3:0,0:0:0:0:
210,46,60554,1,0,3:0:0:0:
210,46,60629,1,8,0:0:0:0:
280,131,60779,1,2,3:2:0:0:
348,217,60929,2,0,L|465:199,1,104.500003189087,10|0,0:0|3:0,0:0:0:0:
498,198,61154,1,0,3:0:0:0:
498,198,61229,2,0,L|510:261,1,52.2500015945435,10|0,0:0|1:0,0:0:0:0:
262,379,61379,70,0,L|467:347,1,190,2|0,3:2|3:0,0:0:0:0:
500,345,61754,1,0,3:0:0:0:
500,345,61829,1,8,0:0:0:0:
395,315,61979,1,2,3:2:0:0:
348,217,62129,2,0,L|355:159,1,47.5,10|0,0:0|1:0,0:0:0:0:
441,107,62279,1,0,3:0:0:0:
441,107,62354,1,0,3:0:0:0:
441,107,62429,2,0,L|434:49,1,47.5,10|0,0:0|1:0,0:0:0:0:
306,3,62579,6,0,B|258:27|258:27|250:80|250:80|253:98|253:98|242:193,1,209.000006378174,6|0,3:2|3:0,0:0:0:0:
243,228,62954,1,0,3:0:0:0:
243,228,63029,1,8,0:0:0:0:
296,324,63179,1,2,3:2:0:0:
199,376,63329,2,0,L|81:359,1,104.500003189087,10|0,0:0|3:0,0:0:0:0:
49,350,63554,1,0,3:0:0:0:
49,350,63629,2,0,L|55:286,1,52.2500015945435,10|0,0:0|1:0,0:0:0:0:
113,128,63779,70,0,P|85:75|50:165,1,190,2|0,3:2|3:0,0:0:0:0:
60,250,64229,1,8,0:0:0:0:
182,268,64379,2,0,L|238:258,1,47.5,2|0,3:2|1:0,0:0:0:0:
316,181,64529,2,0,L|260:171,1,47.5,10|0,0:0|1:0,0:0:0:0:
207,95,64679,1,8,0:0:0:0:
218,59,64754,1,8,0:0:0:0:
242,29,64829,1,10,0:0:0:0:
275,11,64904,1,8,0:0:0:0:
312,6,64979,6,0,P|346:70|465:122,1,190,6|0,3:2|3:0,0:0:0:0:
499,131,65354,1,0,3:0:0:0:
499,131,65429,1,8,0:0:0:0:
512,239,65579,1,2,3:2:0:0:
487,345,65729,2,0,P|438:369|376:376,1,95,10|0,0:0|3:0,0:0:0:0:
354,377,65954,1,0,3:0:0:0:
354,377,66029,2,0,P|328:362|293:352,1,47.5,10|0,0:0|1:0,0:0:0:0:
395,227,66179,70,0,P|302:184|195:152,1,209.000006378174,2|0,3:2|3:0,0:0:0:0:
162,147,66554,1,0,3:0:0:0:
162,147,66629,1,8,0:0:0:0:
185,305,66779,2,0,P|187:275|197:240,1,52.2500015945435,2|0,3:2|1:0,0:0:0:0:
308,150,66929,2,0,P|306:120|296:85,1,52.2500015945435,2|0,3:2|1:0,0:0:0:0:
288,292,67079,1,8,0:0:0:0:
95,226,67229,1,2,3:2:0:0:
122,46,67379,5,4,3:2:0:0:
103,27,67454,1,0,3:0:0:0:
79,19,67529,1,8,0:0:0:0:
53,22,67604,1,8,0:0:0:0:
31,36,67679,1,0,3:0:0:0:
18,58,67754,1,0,3:0:0:0:
15,84,67829,1,8,0:0:0:0:
24,108,67904,1,8,0:0:0:0:
43,126,67979,1,0,3:0:0:0:
67,135,68054,1,0,3:0:0:0:
92,130,68129,1,8,0:0:0:0:
118,130,68204,1,8,0:0:0:0:
143,134,68279,2,0,P|172:137|198:147,1,52.2500015945435,0|0,3:0|3:0,0:0:0:0:
272,36,68429,2,0,P|242:39|217:49,1,52.2500015945435,8|8,0:0|0:0,0:0:0:0:
261,222,68579,69,8,0:0:0:0:
359,138,68729,1,8,0:0:0:0:
241,238,68879,1,8,0:0:0:0:
409,301,69029,1,8,0:0:0:0:
222,380,69179,5,8,0:0:0:0:
379,251,69329,1,8,0:0:0:0:
204,130,69479,1,8,0:0:0:0:
310,328,69629,1,8,0:0:0:0:
467,90,69779,38,2,B|438:44|381:18|381:18|399:3|399:3|450:12|494:68|505:131|505:131|414:170|329:223|329:223|332:89|332:89|362:97|378:117,1,683.999979125977,4|2,3:2|0:0,0:0:0:0:
99,373,72179,6,2,B|104:280|159:206|159:206|107:120|115:10|115:10|42:57|42:57|82:113|93:175|93:175|88:224|55:266,1,683.999979125977,0|2,0:0|0:0,0:0:0:0:
391,313,74279,69,0,3:0:0:0:
391,313,74579,2,2,B|381:379|381:379|477:304|477:304|230:279|230:279|292:352|292:352|322:276|279:201,1,683.999979125977,4|2,3:2|0:0,0:0:0:0:
281,206,76979,21,8,0:0:0:0:
188,115,77129,1,8,0:0:0:0:
320,35,77279,1,8,0:0:0:0:
277,225,77429,1,8,0:0:0:0:
406,378,77579,5,8,0:0:0:0:
366,182,77729,1,8,0:0:0:0:
164,248,77879,1,8,0:0:0:0:
371,334,78029,1,8,0:0:0:0:
142,384,78179,5,8,0:0:0:0:
142,384,78629,54,0,L|86:364,1,52.2500015945435,0|0,3:0|3:0,0:0:0:0:
208,299,78779,1,2,0:3:0:0:
183,290,78854,1,2,0:3:0:0:
158,281,78929,1,0,3:0:0:0:
134,272,79004,1,0,3:0:0:0:
109,263,79079,2,0,B|95:234|93:205|93:205|61:194|61:194|57:232,1,128.249996086121,8|0,0:0|1:0,0:0:0:0:
51,272,79379,22,0,B|49:244|34:222|34:222|35:145|59:90,1,170.999994781494,4|0,3:2|1:0,0:0:0:0:
11,24,79679,2,0,B|70:11|70:11|113:37|113:37|142:27|176:29,1,170.999994781494,8|0,0:0|1:0,0:0:0:0:
263,46,79979,1,2,3:2:0:0:
322,201,80129,1,2,3:2:0:0:
497,150,80279,1,10,0:0:0:0:
362,384,80429,6,0,B|371:285|371:285|364:271|364:271|376:156,1,227.999993041992,2|0,3:2|3:0,0:0:0:0:
258,278,80879,2,0,P|190:267|97:219,1,170.999994781494,8|0,0:0|1:0,0:0:0:0:
35,153,81179,1,2,3:2:0:0:
35,153,81329,1,2,3:2:0:0:
280,66,81479,2,0,P|205:106|121:122,1,170.999994781494,10|0,0:0|1:0,0:0:0:0:
52,64,81779,70,0,B|39:45|23:32|23:32|91:7|160:7,1,170.999994781494,0|0,3:0|1:0,0:0:0:0:
194,86,82079,2,0,B|205:126|205:167|205:167|223:202|236:250,1,170.999994781494,8|0,0:0|1:0,0:0:0:0:
254,341,82379,1,2,3:2:0:0:
320,190,82529,1,2,3:2:0:0:
113,211,82679,1,10,0:0:0:0:
422,226,82829,6,0,B|509:210|509:210|514:131|450:89,1,227.999993041992,2|0,3:2|3:0,0:0:0:0:
326,243,83279,2,0,P|290:309|191:361,1,170.999994781494,10|0,0:0|1:0,0:0:0:0:
119,377,83579,1,2,3:2:0:0:
25,240,83729,1,2,3:2:0:0:
214,79,83879,1,10,0:0:0:0:
308,216,84029,1,2,3:2:0:0:
119,377,84179,70,0,P|125:306|221:263,1,170.999994781494,6|0,3:2|1:0,0:0:0:0:
273,323,84479,2,0,B|319:337|319:337|382:283|382:283|429:279,1,170.999994781494,8|0,0:0|1:0,0:0:0:0:
494,222,84779,1,2,3:2:0:0:
334,182,84929,1,2,3:2:0:0:
421,370,85079,1,10,0:0:0:0:
506,128,85229,6,0,P|500:57|363:23,1,227.999993041992,6|0,3:2|3:0,0:0:0:0:
275,195,85679,2,0,B|268:138|268:138|282:102|282:102|283:62|254:31,1,170.999994781494,8|0,0:0|1:0,0:0:0:0:
170,1,85979,1,2,3:2:0:0:
14,103,86129,1,2,3:2:0:0:
14,103,86204,1,0,3:0:0:0:
14,103,86279,1,10,0:0:0:0:
170,1,86429,1,0,3:0:0:0:
169,210,86579,70,0,B|150:352|150:352|107:386,1,185.249991519928,6|0,3:2|1:0,0:0:0:0:
28,384,86879,2,0,B|19:336|19:336|175:314,1,185.249991519928,8|0,0:0|1:0,0:0:0:0:
245,304,87179,1,2,3:2:0:0:
67,232,87329,1,2,3:2:0:0:
243,141,87479,1,10,0:0:0:0:
18,17,87629,6,0,B|39:57|90:86|147:93|147:93|175:52|226:37,1,246.999988693238,2|0,3:2|3:0,0:0:0:0:
407,8,88079,2,0,B|350:16|330:81|330:81|360:174,1,185.249991519928,8|0,0:0|1:0,0:0:0:0:
384,240,88379,1,2,3:2:0:0:
384,240,88529,1,2,3:2:0:0:
310,379,88679,2,0,P|325:314|262:367,1,185.249991519928,10|0,0:0|1:0,0:0:0:0:
168,383,88979,70,0,P|154:288|153:161,1,185.249991519928,0|0,3:0|1:0,0:0:0:0:
84,136,89279,2,0,B|70:92|70:92|126:80|126:80|151:65|151:65|203:54,1,185.249991519928,8|0,0:0|1:0,0:0:0:0:
284,16,89579,1,2,3:2:0:0:
440,128,89729,1,2,3:2:0:0:
260,210,89879,1,10,0:0:0:0:
485,362,90029,6,0,B|475:311|475:311|506:273|506:273|448:216|372:249,1,246.999988693238,2|0,3:2|3:0,0:0:0:0:
141,174,90479,2,0,B|198:131|269:161|269:161|256:229,1,185.249991519928,10|0,0:0|1:0,0:0:0:0:
242,301,90779,1,2,3:2:0:0:
60,241,90929,1,2,3:2:0:0:
215,60,91079,1,10,0:0:0:0:
33,0,91229,1,2,3:2:0:0:
60,241,91379,70,0,B|61:279|61:279|34:300|32:337|32:337|60:370|112:377,1,185.249991519928,6|0,3:2|1:0,0:0:0:0:
177,327,91679,2,0,P|256:334|380:367,1,185.249991519928,8|0,0:0|1:0,0:0:0:0:
446,384,91979,1,2,3:2:0:0:
497,199,92129,1,2,3:2:0:0:
306,252,92279,1,10,0:0:0:0:
445,16,92429,6,0,P|438:81|277:121,1,246.999988693238,6|0,3:2|3:0,0:0:0:0:
99,9,92879,2,0,P|168:48|152:157,1,185.249991519928,8|0,0:0|1:0,0:0:0:0:
110,217,93179,1,2,3:2:0:0:
206,382,93329,1,2,3:2:0:0:
206,382,93404,1,0,3:0:0:0:
206,382,93479,1,10,0:0:0:0:
110,217,93629,1,2,3:2:0:0:
270,29,93779,5,6,3:2:0:0:
256,192,93854,12,0,95429,0:0:0:0:
482,266,95579,53,8,0:0:0:0:
458,224,95654,1,8,0:0:0:0:
424,192,95729,1,8,0:0:0:0:
382,170,95804,1,8,0:0:0:0:
336,160,95879,1,0,3:0:0:0:
288,164,95954,1,0,3:0:0:0:
244,181,96029,2,0,L|256:236,1,47.5,0|0,3:0|3:0,0:0:0:0:
78,59,96179,54,0,B|125:26|125:26|160:199,1,209.000006378174,6|0,3:2|3:0,0:0:0:0:
114,277,96629,1,0,3:0:0:0:
308,309,96779,1,8,0:0:0:0:
308,309,96929,2,0,P|281:246|243:218,1,95,0|0,3:0|3:0,0:0:0:0:
34,162,97229,1,2,3:2:0:0:
34,162,97379,6,0,B|-23:235|7:319|7:319|52:362,1,209.000006378174,2|0,3:2|3:0,0:0:0:0:
143,377,97829,1,0,3:0:0:0:
233,209,97979,1,8,0:0:0:0:
233,209,98129,2,0,L|118:185,1,95,0|0,3:0|3:0,0:0:0:0:
34,162,98429,1,2,3:2:0:0:
229,58,98579,70,0,B|297:37|297:37|363:42|363:42|432:24,1,209.000006378174,2|0,3:2|3:0,0:0:0:0:
499,112,99029,1,0,3:0:0:0:
452,301,99179,1,8,0:0:0:0:
452,301,99329,2,0,P|457:250|440:193,1,95,0|0,3:0|3:0,0:0:0:0:
499,112,99629,1,0,3:0:0:0:
339,261,99779,6,0,B|196:306|196:306|166:247,1,209.000006378174,2|0,3:2|3:0,0:0:0:0:
125,152,100229,1,0,3:0:0:0:
295,5,100379,6,0,P|210:17|118:44,1,170.999994781494,14|0,0:0|1:0,0:0:0:0:
131,62,100679,2,0,P|213:39|297:26,1,170.999994781494,6|0,3:2|1:0,0:0:0:0:
385,60,100979,54,0,B|375:168|375:168|383:216|381:301,1,227.999993041992,6|0,3:2|3:0,0:0:0:0:
441,378,101429,1,0,3:0:0:0:
272,267,101579,1,8,0:0:0:0:
272,267,101729,2,0,L|285:380,1,95,0|0,3:0|3:0,0:0:0:0:
42,376,102029,1,2,3:2:0:0:
42,376,102179,6,0,P|124:358|160:243,1,209.000006378174,2|0,3:2|3:0,0:0:0:0:
117,149,102629,1,0,3:0:0:0:
313,167,102779,1,8,0:0:0:0:
313,167,102929,2,0,P|269:140|225:133,1,95,0|0,3:0|3:0,0:0:0:0:
22,25,103229,1,2,3:2:0:0:
22,25,103379,70,0,B|71:11|71:11|172:38|172:38|243:23,1,209.000006378174,2|0,3:2|3:0,0:0:0:0:
331,0,103829,1,0,3:0:0:0:
456,142,103979,1,8,0:0:0:0:
443,108,104054,1,8,0:0:0:0:
430,74,104129,2,0,L|381:93,1,47.5,0|0,3:0|3:0,0:0:0:0:
265,127,104279,2,0,L|313:146,1,47.5,0|0,3:0|3:0,0:0:0:0:
376,249,104429,2,0,L|383:197,1,47.5,0|0,3:0|3:0,0:0:0:0:
173,141,104579,22,0,B|148:215|155:293|155:293|201:348,1,209.000006378174,6|0,3:2|3:0,0:0:0:0:
417,381,105029,1,0,3:0:0:0:
417,381,105104,1,0,3:0:0:0:
417,381,105179,2,0,B|431:331|431:331|423:306|402:292|402:292|346:283|290:321,1,209.000006378174,14|0,0:0|3:0,0:0:0:0:
27,361,105779,54,0,P|37:247|43:135,1,209.000006378174,6|8,3:2|0:0,0:0:0:0:
148,121,106229,1,0,3:0:0:0:
123,14,106379,1,0,3:0:0:0:
17,44,106529,1,0,3:0:0:0:
173,228,106679,1,8,0:0:0:0:
285,27,106829,1,2,3:2:0:0:
285,27,106979,6,0,P|374:44|428:160,1,209.000006378174,2|8,3:2|0:0,0:0:0:0:
407,248,107429,1,0,3:0:0:0:
299,267,107579,1,0,3:0:0:0:
367,353,107729,1,0,3:0:0:0:
333,164,107879,1,8,0:0:0:0:
225,183,108029,1,2,3:2:0:0:
367,353,108179,70,0,B|438:360|471:308|471:308|452:265|400:245,1,209.000006378174,2|8,3:2|0:0,0:0:0:0:
299,267,108629,1,0,3:0:0:0:
204,211,108779,1,0,3:0:0:0:
175,105,108929,1,0,3:0:0:0:
124,330,109079,1,8,0:0:0:0:
95,224,109229,1,0,3:0:0:0:
297,155,109379,6,0,B|328:150|353:134|353:134|444:142|444:142|470:123|478:85,1,209.000006378174,2|0,3:2|3:0,0:0:0:0:
412,5,109829,1,0,3:0:0:0:
204,82,109979,6,0,P|120:74|34:22,1,170.999994781494,14|0,0:0|1:0,0:0:0:0:
37,52,110279,2,0,P|111:93|195:101,1,170.999994781494,6|0,3:2|1:0,0:0:0:0:
264,163,110579,54,0,B|266:204|254:236|254:236|336:250|415:283,1,227.999993041992,6|8,3:2|0:0,0:0:0:0:
479,352,111029,1,0,3:0:0:0:
401,277,111179,1,0,3:0:0:0:
485,209,111329,1,0,3:0:0:0:
317,345,111479,1,8,0:0:0:0:
97,239,111629,1,2,3:2:0:0:
97,239,111779,6,0,P|26:279|92:379,1,209.000006378174,2|8,3:2|0:0,0:0:0:0:
180,381,112229,1,0,3:0:0:0:
225,281,112379,1,0,3:0:0:0:
198,174,112529,1,0,3:0:0:0:
180,381,112679,1,8,0:0:0:0:
6,223,112829,1,2,3:2:0:0:
6,223,112979,70,0,B|-5:151|26:83|26:83|86:114,1,209.000006378174,2|0,3:2|3:0,0:0:0:0:
181,165,113429,1,0,3:0:0:0:
292,3,113579,1,8,0:0:0:0:
288,39,113654,1,8,0:0:0:0:
284,75,113729,2,0,L|277:166,1,47.5,0|0,3:0|3:0,0:0:0:0:
422,45,113879,2,0,P|397:36|364:31,1,47.5,0|0,3:0|3:0,0:0:0:0:
200,41,114029,2,0,P|176:36|154:28,1,47.5,0|0,3:0|3:0,0:0:0:0:
271,212,114179,22,0,P|361:233|465:243,1,190,6|0,3:2|3:0,0:0:0:0:
461,358,114629,2,0,P|440:345|418:338,1,47.5,0|0,3:0|3:0,0:0:0:0:
284,343,114779,1,10,0:0:0:0:
284,343,114854,1,8,0:0:0:0:
284,343,114929,2,0,P|304:330|326:323,1,47.5,0|0,3:0|3:0,0:0:0:0:
491,263,115079,1,10,0:0:0:0:
488,225,115154,1,8,0:0:0:0:
486,187,115229,1,8,0:0:0:0:
484,149,115304,1,8,0:0:0:0:
481,111,115379,53,6,3:2:0:0:
394,43,115529,1,0,3:0:0:0:
297,94,115679,2,0,P|249:92|171:62,1,104.500003189087,10|0,0:0|3:0,0:0:0:0:
223,182,115979,2,0,P|176:171|104:128,1,104.500003189087,2|0,3:2|3:0,0:0:0:0:
137,255,116279,2,0,P|92:236|29:181,1,104.500003189087,10|0,0:0|3:0,0:0:0:0:
277,269,116579,6,0,L|290:382,1,104.500003189087,2|0,3:2|3:0,0:0:0:0:
362,150,116879,2,0,L|375:263,1,104.500003189087,10|0,0:0|3:0,0:0:0:0:
447,31,117179,2,0,L|460:144,1,104.500003189087,2|0,3:2|3:0,0:0:0:0:
466,183,117404,1,0,3:0:0:0:
466,183,117479,1,10,0:0:0:0:
316,9,117629,70,0,B|306:32|288:47|288:47|284:58|284:58|229:97|122:93,1,209.000006378174,6|2,3:2|3:2,0:0:0:0:
102,95,118004,1,0,3:0:0:0:
102,95,118079,2,0,P|64:141|39:192,1,104.500003189087,10|0,0:0|3:0,0:0:0:0:
153,180,118379,2,0,P|123:231|107:286,1,104.500003189087,2|0,3:2|3:0,0:0:0:0:
217,253,118679,2,0,P|197:309|190:365,1,104.500003189087,10|0,0:0|3:0,0:0:0:0:
489,253,118979,6,0,L|356:234,1,123.499994346619,10|0,0:0|3:0,0:0:0:0:
68,370,119279,2,0,L|201:351,1,123.499994346619,10|0,0:0|3:0,0:0:0:0:
470,349,119579,2,0,L|337:330,1,123.499994346619,10|0,0:0|3:0,0:0:0:0:
306,325,119804,1,0,3:0:0:0:
306,325,119879,1,10,0:0:0:0:
75,264,120029,70,0,B|41:240|41:240|24:234|24:234|16:188|16:188|24:126|67:78,1,227.999993041992,6|2,3:2|3:2,0:0:0:0:
102,48,120404,1,0,3:0:0:0:
102,48,120479,2,0,P|161:40|220:21,1,104.500003189087,10|0,0:0|3:0,0:0:0:0:
177,134,120779,2,0,P|233:115|288:86,1,104.500003189087,2|0,3:2|3:0,0:0:0:0:
267,205,121079,2,0,P|319:177|368:139,1,104.500003189087,10|0,0:0|3:0,0:0:0:0:
203,271,121379,6,0,P|150:243|101:205,1,109.250002083778,2|0,3:2|3:0,0:0:0:0:
369,259,121679,2,0,P|416:222|457:176,1,113.999996520996,10|0,0:0|3:0,0:0:0:0:
292,335,121979,2,0,B|248:377|248:377|160:387|87:330,1,227.999993041992,2|10,3:2|0:0,0:0:0:0:
392,356,122429,70,0,B|425:370|462:367|462:367|504:299|482:210,1,227.999993041992,6|2,3:2|3:2,0:0:0:0:
300,81,122879,1,10,0:0:0:0:
481,40,123029,1,2,3:2:0:0:
305,180,123179,1,10,0:0:0:0:
124,139,123329,1,2,3:2:0:0:
310,279,123479,1,10,0:0:0:0:
491,238,123629,1,2,3:2:0:0:
481,40,123779,6,0,B|411:48|411:48|388:33|388:33|306:22,1,170.999994781494,6|0,3:2|1:0,0:0:0:0:
220,5,124079,1,8,0:0:0:0:
198,33,124154,1,8,0:0:0:0:
165,47,124229,2,0,L|101:57,1,47.5,0|0,3:0|3:0,0:0:0:0:
26,125,124379,2,0,L|90:135,1,47.5,2|2,0:3|0:3,0:0:0:0:
178,194,124529,2,0,L|114:204,1,47.5,2|2,0:3|0:3,0:0:0:0:
279,71,124679,1,8,0:0:0:0:
279,71,124979,70,0,B|321:108|364:131|364:131|396:171|437:205,1,209.000006378174,6|0,3:2|3:0,0:0:0:0:
476,236,125354,1,0,3:0:0:0:
476,236,125429,1,8,0:0:0:0:
307,369,125579,1,2,3:2:0:0:
336,269,125729,1,10,0:0:0:0:
427,344,125879,1,0,3:0:0:0:
427,344,125954,1,0,3:0:0:0:
427,344,126029,1,8,0:0:0:0:
232,264,126179,6,0,P|164:276|46:333,1,190,2|0,3:2|3:0,0:0:0:0:
122,240,126629,1,8,0:0:0:0:
272,373,126779,1,2,3:2:0:0:
96,362,126929,1,10,0:0:0:0:
307,369,127079,1,0,3:0:0:0:
302,187,127229,1,8,0:0:0:0:
302,187,127304,1,8,0:0:0:0:
302,187,127379,70,0,P|289:136|261:92,1,104.500003189087,6|8,3:2|0:0,0:0:0:0:
23,115,127679,2,0,P|35:64|63:20,1,104.500003189087,2|8,3:2|0:0,0:0:0:0:
175,226,127979,2,0,L|53:237,1,104.500003189087,2|8,3:2|0:0,0:0:0:0:
340,336,128279,2,0,L|218:347,1,104.500003189087,2|8,3:2|0:0,0:0:0:0:
406,206,128579,6,0,L|528:195,1,104.500003189087,2|8,3:2|0:0,0:0:0:0:
241,96,128879,2,0,L|363:85,1,104.500003189087,2|8,3:2|0:0,0:0:0:0:
481,309,129179,2,0,P|464:356|491:346,1,104.500003189087,2|8,3:2|0:0,0:0:0:0:
295,214,129479,1,8,0:0:0:0:
257,217,129554,1,8,0:0:0:0:
219,219,129629,1,8,0:0:0:0:
181,222,129704,1,8,0:0:0:0:
143,224,129779,70,0,B|134:178|134:178|100:138|100:138|98:77|151:32,1,209.000006378174,6|0,3:2|3:0,0:0:0:0:
179,16,130154,1,0,3:0:0:0:
179,16,130229,1,8,0:0:0:0:
387,36,130379,1,2,3:2:0:0:
283,26,130529,1,10,0:0:0:0:
281,138,130679,1,0,3:0:0:0:
281,138,130754,1,0,3:0:0:0:
281,138,130829,1,8,0:0:0:0:
428,253,130979,6,0,B|460:275|460:275|486:311|486:311|479:372|410:368,1,190,2|0,3:2|3:0,0:0:0:0:
302,362,131429,1,8,0:0:0:0:
184,197,131579,1,2,3:2:0:0:
196,372,131729,1,10,0:0:0:0:
326,231,131879,1,0,3:0:0:0:
216,97,132029,1,8,0:0:0:0:
216,97,132104,1,8,0:0:0:0:
216,97,132179,70,0,P|160:73|106:64,1,113.999996520996,6|8,3:2|0:0,0:0:0:0:
338,74,132479,2,0,P|393:63|446:41,1,113.999996520996,2|8,3:2|0:0,0:0:0:0:
269,214,132779,2,0,B|259:272|259:272|276:324,1,113.999996520996,6|8,3:2|0:0,0:0:0:0:
77,172,133079,2,0,B|86:113|86:113|69:61,1,113.999996520996,2|8,3:2|0:0,0:0:0:0:
163,328,133379,6,0,B|144:358|144:358|42:367,1,123.499994346619,6|8,3:2|0:0,0:0:0:0:
200,125,133679,2,0,B|219:95|219:95|321:86,1,123.499994346619,6|8,3:2|0:0,0:0:0:0:
480,223,133979,2,0,P|393:231|282:245,1,185.249991519928,6|0,3:2|1:0,0:0:0:0:
219,305,134279,69,8,0:0:0:0:
219,305,134354,1,8,0:0:0:0:
219,305,134429,2,0,L|148:297,1,47.5,2|2,0:3|0:3,0:0:0:0:
355,367,134579,6,0,P|446:318|479:222,1,209.000006378174,6|0,3:2|3:0,0:0:0:0:
477,183,134954,1,0,3:0:0:0:
477,183,135029,1,8,0:0:0:0:
383,126,135179,1,2,3:2:0:0:
321,35,135329,2,0,P|376:17|427:12,1,104.500003189087,10|0,0:0|3:0,0:0:0:0:
471,15,135554,1,0,3:0:0:0:
471,15,135629,2,0,L|480:70,1,52.2500015945435,10|0,0:0|1:0,0:0:0:0:
208,17,135779,70,0,B|202:54|202:54|241:166|241:166|236:204,1,190,2|0,3:2|3:0,0:0:0:0:
233,251,136154,1,0,3:0:0:0:
233,251,136229,1,8,0:0:0:0:
305,333,136379,1,2,3:2:0:0:
205,378,136529,2,0,L|143:372,1,47.5,10|0,0:0|1:0,0:0:0:0:
39,295,136679,1,0,3:0:0:0:
39,295,136754,1,0,3:0:0:0:
39,295,136829,2,0,L|101:289,1,47.5,10|0,0:0|1:0,0:0:0:0:
100,130,136979,6,0,B|43:118|14:73|14:73|50:28|107:23,1,209.000006378174,6|0,3:2|3:0,0:0:0:0:
148,19,137354,1,0,3:0:0:0:
148,19,137429,1,8,0:0:0:0:
232,89,137579,1,2,3:2:0:0:
237,199,137729,2,0,L|225:307,1,104.500003189087,10|0,0:0|3:0,0:0:0:0:
225,350,137954,1,0,3:0:0:0:
225,350,138029,2,0,P|257:354|293:366,1,52.2500015945435,10|0,0:0|1:0,0:0:0:0:
333,180,138179,70,0,B|347:53|347:53|379:32|420:21,1,190,2|0,3:2|3:0,0:0:0:0:
492,89,138629,1,8,0:0:0:0:
430,196,138779,2,0,L|424:249,1,47.5,2|0,3:2|1:0,0:0:0:0:
493,358,138929,2,0,L|498:310,1,47.5,10|0,0:0|1:0,0:0:0:0:
365,320,139079,1,8,0:0:0:0:
336,341,139154,1,8,0:0:0:0:
304,357,139229,1,10,0:0:0:0:
271,368,139304,1,8,0:0:0:0:
236,374,139379,6,0,P|174:319|120:220,1,190,6|0,3:2|3:0,0:0:0:0:
109,186,139754,1,0,3:0:0:0:
109,186,139829,1,8,0:0:0:0:
36,105,139979,1,2,3:2:0:0:
102,18,140129,2,0,P|148:9|201:28,1,95,10|0,0:0|3:0,0:0:0:0:
234,57,140354,1,0,3:0:0:0:
234,57,140429,2,0,L|286:49,1,47.5,10|0,0:0|1:0,0:0:0:0:
233,172,140579,70,0,B|319:158|319:158|351:164|351:164|441:151,1,209.000006378174,2|0,3:2|3:0,0:0:0:0:
487,148,140954,1,0,3:0:0:0:
487,148,141029,1,8,0:0:0:0:
407,1,141179,2,0,P|401:37|392:63,1,52.2500015945435,2|0,3:2|1:0,0:0:0:0:
374,196,141329,2,0,P|380:232|389:258,1,52.2500015945435,2|0,3:2|1:0,0:0:0:0:
289,71,141479,1,8,0:0:0:0:
276,270,141629,1,2,3:2:0:0:
106,149,141779,5,4,3:2:0:0:
80,152,141854,1,0,3:0:0:0:
56,163,141929,1,8,0:0:0:0:
35,178,142004,1,0,3:0:0:0:
18,198,142079,2,0,P|6:227|10:283,1,52.2500015945435,0|0,3:0|3:0,0:0:0:0:
106,149,142229,2,0,P|102:123|91:99,1,52.2500015945435,8|0,0:0|3:0,0:0:0:0:
112,255,142379,1,0,3:0:0:0:
103,279,142454,1,0,3:0:0:0:
103,305,142529,1,8,0:0:0:0:
111,330,142604,1,0,3:0:0:0:
127,350,142679,1,0,3:0:0:0:
148,365,142754,1,0,3:0:0:0:
173,372,142829,1,8,0:0:0:0:
199,370,142904,1,0,3:0:0:0:
223,360,142979,69,8,0:0:0:0:
299,255,143129,1,8,0:0:0:0:
397,374,143279,1,8,0:0:0:0:
252,268,143429,1,8,0:0:0:0:
449,219,143579,5,8,0:0:0:0:
276,114,143729,1,8,0:0:0:0:
398,289,143879,1,8,0:0:0:0:
460,74,144029,1,8,0:0:0:0:
190,166,144179,38,2,B|238:133|252:68|224:14|224:14|197:93|129:140|37:147|37:147|86:222|85:308|85:308|125:270|110:205,1,683.999979125977,4|2,3:2|0:0,0:0:0:0:
450,313,146579,6,2,B|405:277|334:265|275:284|275:284|304:363|402:391|481:335|481:335|442:283|456:221|456:221|501:177|494:97,1,683.999979125977,0|2,0:0|0:0,0:0:0:0:
70,24,148679,69,0,3:0:0:0:
70,24,148979,2,2,B|129:25|176:59|176:59|243:33|316:59|346:121|346:121|324:168|324:168|272:195|199:163|199:163|205:207|205:207|167:302|167:302|175:346,1,683.999979125977,4|2,3:2|0:0,0:0:0:0:
174,344,151379,21,8,0:0:0:0:
75,259,151529,1,8,0:0:0:0:
192,360,151679,1,8,0:0:0:0:
342,237,151829,1,8,0:0:0:0:
480,383,151979,5,8,0:0:0:0:
317,267,152129,1,8,0:0:0:0:
487,142,152279,1,8,0:0:0:0:
446,362,152429,1,8,0:0:0:0:
241,225,152579,5,8,0:0:0:0:
241,225,153029,54,0,L|236:165,1,52.2500015945435,0|0,3:0|3:0,0:0:0:0:
141,267,153179,1,0,3:0:0:0:
139,241,153254,1,0,3:0:0:0:
137,214,153329,1,2,0:3:0:0:
134,189,153404,1,2,0:3:0:0:
131,164,153479,1,8,0:0:0:0:
319,372,153779,22,0,P|353:307|445:274,1,170.999994781494,4|0,3:2|1:0,0:0:0:0:
497,202,154079,2,0,B|459:174|459:174|449:154|449:154|400:167|323:172,1,170.999994781494,8|0,0:0|1:0,0:0:0:0:
258,186,154379,1,2,3:2:0:0:
351,50,154529,1,2,3:2:0:0:
169,9,154679,1,10,0:0:0:0:
24,198,154829,6,0,B|38:175|36:141|36:141|76:89|76:89|131:111|147:170,1,227.999993041992,2|0,3:2|3:0,0:0:0:0:
39,294,155279,2,0,B|106:279|168:258|168:258|219:281,1,170.999994781494,8|0,0:0|1:0,0:0:0:0:
285,324,155579,1,2,3:2:0:0:
285,324,155729,1,2,3:2:0:0:
491,216,155879,2,0,B|424:231|362:252|362:252|311:229,1,170.999994781494,10|0,0:0|1:0,0:0:0:0:
249,189,156179,70,0,B|189:174|188:111|188:111|252:65,1,170.999994781494,0|0,3:0|1:0,0:0:0:0:
309,16,156479,2,0,B|369:24|376:81|376:81|367:157,1,170.999994781494,8|0,0:0|1:0,0:0:0:0:
354,240,156779,1,2,3:2:0:0:
501,165,156929,1,2,3:2:0:0:
397,325,157079,1,10,0:0:0:0:
151,251,157229,6,0,B|2:264|2:264|81:323,1,227.999993041992,2|0,3:2|3:0,0:0:0:0:
265,373,157679,2,0,B|275:323|245:279|245:279|253:237|237:203,1,170.999994781494,10|0,0:0|1:0,0:0:0:0:
203,123,157979,1,2,3:2:0:0:
345,36,158129,1,2,3:2:0:0:
50,92,158279,1,10,0:0:0:0:
192,5,158429,1,2,3:2:0:0:
342,155,158579,70,0,B|365:180|359:209|359:209|346:220|346:220|223:265,1,170.999994781494,6|0,3:2|1:0,0:0:0:0:
209,330,158879,2,0,B|279:354|279:354|300:343|300:343|330:357|375:364,1,170.999994781494,8|0,0:0|1:0,0:0:0:0:
462,373,159179,1,2,3:2:0:0:
495,211,159329,1,2,3:2:0:0:
312,112,159479,1,10,0:0:0:0:
424,287,159629,6,0,P|454:218|469:44,1,227.999993041992,6|0,3:2|3:0,0:0:0:0:
286,137,160079,2,0,P|206:119|121:62,1,170.999994781494,8|0,0:0|1:0,0:0:0:0:
67,6,160379,1,2,3:2:0:0:
27,195,160529,1,2,3:2:0:0:
27,195,160604,1,0,3:0:0:0:
27,195,160679,1,10,0:0:0:0:
67,6,160829,1,0,3:0:0:0:
166,227,160979,70,0,B|161:301|218:348|218:348|275:359,1,185.249991519928,6|0,3:2|1:0,0:0:0:0:
353,383,161279,2,0,B|385:349|385:349|387:334|387:334|446:282|446:282|451:261|466:242,1,185.249991519928,8|0,0:0|1:0,0:0:0:0:
505,162,161579,1,2,3:2:0:0:
323,102,161729,1,2,3:2:0:0:
497,11,161879,1,10,0:0:0:0:
366,207,162029,6,0,B|298:198|298:198|250:203|250:203|199:182|199:182|124:173,1,246.999988693238,2|0,3:2|3:0,0:0:0:0:
22,51,162479,2,0,B|51:87|51:87|15:144|15:144|26:176|25:217,1,185.249991519928,8|0,0:0|1:0,0:0:0:0:
27,310,162779,1,2,3:2:0:0:
27,310,162929,1,2,3:2:0:0:
234,378,163079,2,0,B|104:362|104:362|132:310,1,185.249991519928,10|0,0:0|1:0,0:0:0:0:
189,245,163379,70,0,P|175:151|175:57,1,185.249991519928,0|0,3:0|1:0,0:0:0:0:
252,11,163679,2,0,B|382:27|382:27|354:79,1,185.249991519928,8|0,0:0|1:0,0:0:0:0:
313,154,163979,1,2,3:2:0:0:
490,234,164129,1,2,3:2:0:0:
294,289,164279,1,10,0:0:0:0:
500,380,164429,6,0,B|485:360|484:334|484:334|417:315|417:315|400:318|400:318|291:287,1,246.999988693238,2|0,3:2|3:0,0:0:0:0:
70,278,164879,2,0,P|159:254|249:205,1,185.249991519928,10|0,0:0|1:0,0:0:0:0:
313,154,165179,1,2,3:2:0:0:
243,365,165329,1,2,3:2:0:0:
428,209,165479,1,10,0:0:0:0:
238,93,165629,1,2,3:2:0:0:
243,365,165779,70,0,P|151:352|68:279,1,185.249991519928,6|0,3:2|1:0,0:0:0:0:
17,230,166079,2,0,B|40:194|40:194|38:111|38:111|69:95|96:71,1,185.249991519928,8|0,0:0|1:0,0:0:0:0:
151,13,166379,1,2,3:2:0:0:
212,201,166529,1,2,3:2:0:0:
406,111,166679,1,10,0:0:0:0:
188,5,166829,6,0,P|211:110|336:182,1,246.999988693238,6|0,3:2|3:0,0:0:0:0:
364,375,167279,2,0,B|368:336|381:308|381:308|390:262|390:262|422:243|445:218,1,185.249991519928,8|0,0:0|1:0,0:0:0:0:
498,146,167579,1,2,3:2:0:0:
330,50,167729,1,2,3:2:0:0:
330,50,167804,1,0,3:0:0:0:
330,50,167879,1,10,0:0:0:0:
498,146,168029,1,0,3:0:0:0:
283,274,168179,6,2,B|261:298|230:303|230:303|227:315|227:315|189:358|189:358|163:334|163:334|159:322|159:322|125:291|71:278|71:278|56:279|56:279|65:250|65:250|71:237|71:237|72:202|72:202|88:160|88:160|119:173|146:179|146:179|144:189|144:189|153:210|181:227|181:227|217:217|217:217|240:200|240:200|229:164|229:164|233:155|233:155|208:126|194:94|194:94|202:86|202:86|212:25,1,797.999975646973,6|0,3:2|2:0,0:0:0:0:
