osu file format v14

[General]
AudioFilename: audio.mp3
AudioLeadIn: 0
PreviewTime: 95638
Countdown: 1
SampleSet: Soft
StackLeniency: 0.7
Mode: 0
LetterboxInBreaks: 0
WidescreenStoryboard: 0

[Editor]
Bookmarks: 7484,14869,17638,22253,29638,37023,44407,51792,59176,66561,73946,81330,88715,96100,105330,110869
DistanceSpacing: 0.5
BeatDivisor: 4
GridSize: 8
TimelineZoom: 1.8

[Metadata]
Title:Final Boss
TitleUnicode:Final Boss
Artist:Thaehan
ArtistUnicode:Thaehan
Creator:MyAngelJimDavis
Version:Game Over
Source:osu!
Tags:Thaehan electronic video games final boss
BeatmapID:1655733
BeatmapSetID:788909

[Difficulty]
HPDrainRate:4
CircleSize:4
OverallDifficulty:8
ApproachRate:9.2
SliderMultiplier:2
SliderTickRate:1

[Events]
//Background and Video events
0,0,"maxresdefault.jpg",0,0
//Break Periods
2,74031,80760
//Storyboard Layer 0 (Background)
//Storyboard Layer 1 (Fail)
//Storyboard Layer 2 (Pass)
//Storyboard Layer 3 (Foreground)
//Storyboard Sound Samples

[TimingPoints]
100,461.538461538462,4,2,0,100,1,0
8407,-500,4,2,0,100,0,0
9446,-100,4,2,0,100,0,0
12100,-500,4,2,0,100,0,0
13023,-80,4,2,0,100,0,0
15792,-500,4,2,0,100,0,0
16715,-100,4,2,0,100,0,0
19484,-500,4,2,0,100,0,0
21330,-80,4,2,0,100,0,0
22253,-100,4,2,0,100,0,0
23176,-80,4,2,0,100,0,0
23638,-66.6666666666667,4,2,0,100,0,0
25946,-100,4,2,0,100,0,0
26869,-66.6666666666667,4,2,0,100,0,0
27330,-80,4,2,0,100,0,0
27792,-66.6666666666667,4,2,0,100,0,0
28715,-57.1428571428571,4,2,0,100,0,0
28946,-66.6666666666667,4,2,0,100,0,0
29176,-100,4,2,0,100,0,0
29407,-133.333333333333,4,2,0,100,0,0
29638,-80,4,2,0,100,0,0
31484,-25,4,2,0,100,0,0
33330,-80,4,2,0,100,0,0
35176,-1000,4,2,0,100,0,0
36561,-200,4,2,0,100,0,0
36792,-40,4,2,0,100,0,0
37023,-80,4,2,0,100,0,0
38869,-25,4,2,0,100,0,0
40715,-80,4,2,0,100,0,0
42561,-1000,4,2,0,100,0,0
43946,-200,4,2,0,100,0,0
44176,-100,4,2,0,100,0,0
44869,-200,4,2,0,100,0,0
51792,-133.333333333333,4,2,0,100,0,0
52715,-100,4,2,0,100,0,0
53638,-133.333333333333,4,2,0,100,0,0
54561,-200,4,2,0,100,0,0
55484,-66.6666666666667,4,2,0,100,0,0
55946,-44.4444444444445,4,2,0,100,0,0
56407,-33.3333333333333,4,2,0,100,0,0
56869,-28.5714285714286,4,2,0,100,0,0
57330,-133.333333333333,4,2,0,100,0,0
58715,-400,4,2,0,100,0,0
59176,-66.6666666666667,4,2,0,100,0,1
66561,-62.5,4,2,0,100,0,1
73023,-40,4,2,0,100,0,0
81330,-100,4,2,0,100,0,0
95638,-1000,4,2,0,100,0,0
96100,-100,4,2,0,100,0,1
97023,-500,4,2,0,100,0,1
98061,-100,4,2,0,100,0,1
100715,-500,4,2,0,100,0,1
102561,-100,4,2,0,100,0,1
104407,-500,4,2,0,100,0,1
105330,-100,4,2,0,100,0,1
108100,-500,4,2,0,100,0,1
110869,-100,4,2,0,100,0,0

[HitObjects]
40,112,7484,6,0,L|112:128,1,50
96,192,7715,2,0,L|144:181,1,50
216,160,7946,1,0,3:3:0:0:
280,128,8061,1,0,0:0:0:0:
344,160,8176,1,0,0:0:0:0:
408,192,8292,1,0,0:0:0:0:
352,248,8407,6,0,L|352:232,1,10
288,192,8638,2,0,L|288:176,1,10
352,136,8869,2,0,L|352:120,1,10,0|0,3:3|0:0,0:0:0:0:
288,80,9100,2,0,L|288:64,1,10
288,304,9330,5,0,0:0:0:0:
248,296,9446,2,2,L|264:264,1,25
200,264,9561,1,0,0:0:0:0:
168,208,9676,1,0,0:0:0:0:
112,216,9792,2,2,L|96:192,1,25,2|2,0:3|0:0,0:0:0:0:
80,248,9907,2,2,L|56:224,1,25
56,288,10023,2,2,L|32:272,1,25
48,336,10138,2,2,L|24:328,1,25
32,176,10253,5,0,0:0:0:0:
65,164,10369,1,0,0:0:0:0:
143,165,10484,5,0,0:0:0:0:
177,168,10600,1,0,0:0:0:0:
255,167,10715,5,0,3:3:0:0:
289,164,10831,1,0,0:0:0:0:
367,163,10946,5,0,0:0:0:0:
401,160,11062,1,0,0:0:0:0:
400,224,11176,6,0,B|400:192|400:192|408:160,1,50
480,176,11407,2,0,B|480:152|480:152|472:128,1,50
408,96,11638,1,0,3:3:0:0:
336,72,11753,1,0,0:0:0:0:
280,16,11869,1,0,0:0:0:0:
216,56,11984,1,0,0:0:0:0:
144,80,12100,6,0,L|144:96,1,10
208,136,12330,2,0,L|208:152,1,10
144,192,12561,2,0,L|144:176,1,10,0|0,3:3|0:0,0:0:0:0:
208,248,12792,2,0,L|208:264,1,10
144,296,13023,5,0,0:0:0:0:
189,356,13138,1,0,0:0:0:0:
264,363,13253,1,0,0:0:0:0:
320,312,13369,1,0,0:0:0:0:
371,367,13484,5,0,3:3:0:0:
446,358,13599,1,0,0:0:0:0:
490,297,13714,1,0,0:0:0:0:
475,223,13830,1,0,0:0:0:0:
432,160,13946,6,2,L|456:136,1,31.25
368,120,14061,2,2,L|384:88,1,31.25
296,104,14176,2,2,L|304:64,1,31.25
216,112,14292,2,2,L|208:64,1,31.25
160,168,14407,6,2,L|104:144,1,31.25,2|2,3:3|0:0,0:0:0:0:
152,248,14523,2,2,L|96:248,1,31.25
192,320,14638,2,2,L|152:344,1,31.25
280,328,14753,2,2,L|256:360,1,31.25
467,287,14869,6,0,L|395:271,1,50
411,207,15100,2,0,L|363:218,1,50
291,239,15331,1,0,3:3:0:0:
227,271,15446,1,0,0:0:0:0:
163,239,15561,1,0,0:0:0:0:
99,207,15677,1,0,0:0:0:0:
155,151,15792,6,0,L|155:167,1,10
219,207,16023,2,0,L|219:223,1,10
155,263,16254,2,0,L|155:279,1,10,0|0,3:3|0:0,0:0:0:0:
219,319,16485,2,0,L|219:335,1,10
219,95,16715,5,0,0:0:0:0:
259,103,16831,2,2,L|243:135,1,25
307,135,16946,1,0,0:0:0:0:
339,191,17061,1,0,0:0:0:0:
395,183,17177,2,2,L|411:207,1,25,2|2,3:3|0:0,0:0:0:0:
427,151,17292,2,2,L|451:175,1,25
451,111,17408,2,2,L|475:127,1,25
459,63,17523,2,2,L|483:71,1,25
474,247,17638,5,0,0:0:0:0:
441,259,17754,1,0,0:0:0:0:
363,258,17869,5,0,0:0:0:0:
329,255,17985,1,0,0:0:0:0:
251,256,18100,5,0,3:3:0:0:
217,259,18216,1,0,0:0:0:0:
139,260,18331,5,0,0:0:0:0:
105,263,18447,1,0,0:0:0:0:
107,175,18561,6,0,B|107:207|107:207|99:239,1,50
27,223,18792,2,0,B|27:247|27:247|35:271,1,50
99,303,19023,1,0,3:3:0:0:
171,327,19138,1,0,0:0:0:0:
227,383,19254,1,0,0:0:0:0:
291,343,19369,1,0,0:0:0:0:
363,319,19485,6,0,L|363:303,1,10
299,263,19715,2,0,L|299:247,1,10
363,207,19946,2,0,L|363:223,1,10,0|0,3:3|0:0,0:0:0:0:
299,151,20177,2,0,L|299:135,1,10
363,103,20408,5,0,0:0:0:0:
318,43,20523,1,0,0:0:0:0:
243,36,20638,1,0,0:0:0:0:
187,87,20754,1,0,0:0:0:0:
136,32,20869,5,0,0:0:0:0:
61,41,20984,1,0,0:0:0:0:
17,102,21099,1,0,0:0:0:0:
32,176,21215,1,0,0:0:0:0:
17,250,21330,5,0,0:0:0:0:
54,335,21445,1,0,0:0:0:0:
143,366,21560,1,0,0:0:0:0:
226,321,21676,1,0,0:0:0:0:
309,366,21792,5,0,0:0:0:0:
398,326,21907,1,0,0:0:0:0:
431,231,22022,1,0,0:0:0:0:
383,142,22138,1,0,0:0:0:0:
69,84,22253,6,4,L|139:60,1,50
165,147,22484,2,4,L|238:154,1,50
259,64,22715,5,4,0:0:0:0:
259,64,22830,1,4,0:0:0:0:
347,68,22946,5,4,0:0:0:0:
347,68,23061,1,4,0:0:0:0:
364,271,23176,6,4,L|359:201,1,62.5
355,146,23407,2,4,L|360:216,1,62.5
415,258,23638,6,4,L|353:203,1,75.0000028610231
302,158,23869,2,4,L|363:212,1,75.0000028610231
320,342,24100,6,4,P|275:257|248:253,1,75.0000028610231
369,253,24330,2,4,P|284:298|280:325,1,75.0000028610231
280,203,24561,2,4,P|325:288|352:292,1,75.0000028610231
231,292,24791,2,4,P|316:247|320:220,1,75.0000028610231
271,338,25023,6,4,P|291:243|273:223,1,75.0000028610231
366,300,25253,2,4,P|271:279|251:297,1,75.0000028610231
329,205,25484,2,4,P|308:299|326:319,1,75.0000028610231
235,241,25714,2,4,P|329:261|349:243,1,75.0000028610231
404,317,25946,6,4,L|380:247,1,50
467,221,26177,2,4,L|474:148,1,50
384,127,26408,5,4,0:0:0:0:
384,127,26523,1,4,0:0:0:0:
295,125,26639,5,4,0:0:0:0:
295,125,26754,1,4,0:0:0:0:
307,351,26869,6,4,L|302:268,1,75.0000028610231
297,200,27100,2,4,L|301:281,1,75.0000028610231
353,312,27330,6,4,L|296:270,1,62.5
251,238,27561,2,4,L|307:279,1,62.5
415,242,27792,6,4,L|326:234,1,75.0000028610231
371,167,28023,2,4,L|333:248,1,75.0000028610231
377,300,28253,6,4,L|332:222,1,75.0000028610231
300,170,28484,2,4,L|344:247,1,75.0000028610231
378,297,28715,2,4,P|335:282|294:304,1,87.500000834465
298,309,28946,2,4,P|259:295|224:321,1,75.0000028610231
221,317,29176,2,4,P|191:314|151:326,1,50,4|4,3:3|0:0,0:0:0:0:
161,322,29407,2,4,P|146:319|124:329,1,37.5000014305115,4|4,3:3|3:3,3:3:0:0:
41,292,29638,6,12,L|66:202,1,62.5
140,227,29869,2,12,L|115:137,1,62.5
68,60,30100,5,12,3:3:0:0:
161,60,30215,1,12,0:0:0:0:
254,60,30330,1,12,0:0:0:0:
348,60,30446,1,12,0:0:0:0:
441,61,30561,5,12,0:0:0:0:
441,89,30676,1,12,0:0:0:0:
366,153,30792,5,12,0:0:0:0:
366,181,30907,1,12,0:0:0:0:
441,245,31023,5,12,3:3:0:0:
441,273,31138,1,12,0:0:0:0:
366,337,31253,5,12,0:0:0:0:
366,365,31368,1,12,0:0:0:0:
296,224,31484,6,12,B|319:224|319:224|320:200|320:200|264:200|264:200|264:256|264:256|320:255|320:255|319:240,1,200
288,64,31715,2,12,B|288:40|288:40|264:40|264:40|264:96|264:96|320:96|320:96|320:40|320:40|304:40,1,200
128,72,31946,2,12,B|104:72|104:72|104:96|104:96|160:96|160:96|160:40|160:40|104:40|104:40|104:56,1,200,12|12,3:3|0:0,0:0:0:0:
136,231,32177,2,12,B|136:255|136:255|160:255|160:255|160:200|160:200|104:199|104:199|104:255|104:255|120:255,1,200
216,256,32407,6,12,B|232:272|232:272|249:256|249:256|210:216|210:216|170:256|170:256|210:295|210:295|221:284,1,200
323,137,32638,2,12,B|339:120|339:120|323:103|323:103|283:142|283:142|323:182|323:182|362:142|362:142|351:131,1,200
204,29,32869,2,12,B|187:12|187:12|170:29|170:29|209:68|209:68|249:29|249:29|209:-10|209:-10|198:0,1,200,12|12,3:3|0:0,0:0:0:0:
97,148,33100,2,12,B|80:164|80:164|97:181|97:181|136:142|136:142|97:102|97:102|57:142|57:142|68:153,1,200
456,114,33330,6,12,L|431:204,1,62.5
357,179,33561,2,12,L|382:269,1,62.5
429,346,33792,5,12,3:3:0:0:
336,346,33907,1,12,0:0:0:0:
243,346,34022,1,12,0:0:0:0:
149,346,34138,1,12,0:0:0:0:
56,345,34253,5,12,0:0:0:0:
56,317,34368,1,12,0:0:0:0:
131,253,34484,5,12,0:0:0:0:
131,225,34599,1,12,0:0:0:0:
56,161,34715,5,12,3:3:0:0:
56,133,34830,1,12,0:0:0:0:
131,69,34945,5,12,0:0:0:0:
131,41,35060,1,12,0:0:0:0:
266,306,35176,6,12,L|266:311,1,5
264,78,35407,2,12,L|264:73,1,5
344,253,35638,6,12,L|344:258,1,5
343,27,35869,2,12,L|343:22,1,5
424,73,36100,6,12,L|424:78,1,5
422,311,36331,2,12,L|422:306,1,5
422,265,36561,6,12,P|411:257|390:260,1,25,12|12,3:3|0:0,0:0:0:0:
367,248,36792,2,12,P|321:212|258:240,1,125
41,292,37023,6,12,L|66:202,1,62.5
140,227,37254,2,12,L|115:137,1,62.5
68,60,37485,5,12,3:3:0:0:
161,60,37600,1,12,0:0:0:0:
254,60,37715,1,12,0:0:0:0:
348,60,37831,1,12,0:0:0:0:
441,61,37946,5,12,0:0:0:0:
441,89,38061,1,12,0:0:0:0:
366,153,38177,5,12,0:0:0:0:
366,181,38292,1,12,0:0:0:0:
441,245,38408,5,12,3:3:0:0:
441,273,38523,1,12,0:0:0:0:
366,337,38638,5,12,0:0:0:0:
366,365,38753,1,12,0:0:0:0:
296,224,38869,6,12,B|319:224|319:224|320:200|320:200|264:200|264:200|264:256|264:256|320:255|320:255|319:240,1,200
288,64,39100,2,12,B|288:40|288:40|264:40|264:40|264:96|264:96|320:96|320:96|320:40|320:40|304:40,1,200
128,72,39331,2,12,B|104:72|104:72|104:96|104:96|160:96|160:96|160:40|160:40|104:40|104:40|104:56,1,200,12|12,3:3|0:0,0:0:0:0:
136,231,39562,2,12,B|136:255|136:255|160:255|160:255|160:200|160:200|104:199|104:199|104:255|104:255|120:255,1,200
216,256,39792,6,12,B|232:272|232:272|249:256|249:256|210:216|210:216|170:256|170:256|210:295|210:295|221:284,1,200
323,137,40023,2,12,B|339:120|339:120|323:103|323:103|283:142|283:142|323:182|323:182|362:142|362:142|351:131,1,200
204,29,40254,2,12,B|187:12|187:12|170:29|170:29|209:68|209:68|249:29|249:29|209:-10|209:-10|198:0,1,200,12|12,3:3|0:0,0:0:0:0:
97,148,40485,2,12,B|80:164|80:164|97:181|97:181|136:142|136:142|97:102|97:102|57:142|57:142|68:153,1,200
456,114,40715,6,12,L|431:204,1,62.5
357,179,40946,2,12,L|382:269,1,62.5
429,346,41177,5,12,3:3:0:0:
336,346,41292,1,12,0:0:0:0:
243,346,41407,1,12,0:0:0:0:
149,346,41523,1,12,0:0:0:0:
56,345,41638,5,12,0:0:0:0:
56,317,41753,1,12,0:0:0:0:
131,253,41869,5,12,0:0:0:0:
131,225,41984,1,12,0:0:0:0:
56,161,42100,5,12,3:3:0:0:
56,133,42215,1,12,0:0:0:0:
131,69,42330,5,12,0:0:0:0:
131,41,42445,1,12,0:0:0:0:
266,306,42561,6,12,L|266:311,1,5
264,78,42792,2,12,L|264:73,1,5
344,253,43023,6,12,L|344:258,1,5
343,27,43254,2,12,L|343:22,1,5
424,73,43485,6,12,L|424:78,1,5
422,311,43716,2,12,L|422:306,1,5
422,265,43946,6,12,P|411:257|390:260,1,25
367,248,44177,2,12,L|288:247,1,50
77,118,44407,5,0,0:0:0:0:
97,102,44523,1,0,0:0:0:0:
121,97,44638,1,0,0:0:0:0:
145,100,44753,1,0,0:0:0:0:
239,110,44869,5,0,0:0:0:0:
263,110,44984,1,0,0:0:0:0:
288,106,45099,1,0,0:0:0:0:
312,98,45215,1,0,0:0:0:0:
417,126,45330,5,0,0:0:0:0:
407,148,45445,1,0,0:0:0:0:
402,173,45560,1,0,0:0:0:0:
403,198,45676,1,0,0:0:0:0:
383,288,45792,5,0,0:0:0:0:
367,307,45907,1,0,0:0:0:0:
347,322,46022,1,0,0:0:0:0:
325,333,46138,1,0,0:0:0:0:
250,274,46253,5,0,0:0:0:0:
226,282,46368,1,0,0:0:0:0:
205,295,46483,1,0,0:0:0:0:
187,313,46599,1,0,0:0:0:0:
135,248,46715,5,0,0:0:0:0:
111,256,46830,1,0,0:0:0:0:
90,269,46945,1,0,0:0:0:0:
72,287,47061,1,0,0:0:0:0:
116,162,47176,5,0,0:0:0:0:
90,160,47291,1,0,0:0:0:0:
66,165,47406,1,0,0:0:0:0:
43,175,47522,1,0,0:0:0:0:
88,77,47638,5,0,0:0:0:0:
114,75,47753,1,0,0:0:0:0:
138,80,47868,1,0,0:0:0:0:
161,90,47984,1,0,0:0:0:0:
255,105,48100,5,0,0:0:0:0:
279,110,48215,1,0,0:0:0:0:
304,110,48330,1,0,0:0:0:0:
328,105,48446,1,0,0:0:0:0:
412,36,48561,5,0,0:0:0:0:
387,30,48676,1,0,0:0:0:0:
362,30,48791,1,0,0:0:0:0:
338,35,48907,1,0,0:0:0:0:
238,92,49023,5,0,0:0:0:0:
228,114,49138,1,0,0:0:0:0:
223,139,49253,1,0,0:0:0:0:
224,164,49369,1,0,0:0:0:0:
204,254,49485,5,0,0:0:0:0:
188,273,49600,1,0,0:0:0:0:
168,288,49715,1,0,0:0:0:0:
146,299,49831,1,0,0:0:0:0:
50,293,49946,5,0,0:0:0:0:
39,267,50061,1,0,0:0:0:0:
61,251,50176,1,0,0:0:0:0:
82,268,50292,1,0,0:0:0:0:
165,306,50407,5,0,0:0:0:0:
176,332,50522,1,0,0:0:0:0:
154,348,50637,1,0,0:0:0:0:
133,331,50753,1,0,0:0:0:0:
130,226,50869,5,0,0:0:0:0:
125,200,50984,1,0,0:0:0:0:
147,184,51099,1,0,0:0:0:0:
168,201,51215,1,0,0:0:0:0:
251,239,51330,5,0,0:0:0:0:
262,265,51445,1,0,0:0:0:0:
240,281,51560,1,0,0:0:0:0:
219,264,51676,1,0,0:0:0:0:
144,260,51792,6,0,L|215:161,1,112.500004291535,0|0,3:3|3:3,3:3:0:0:
368,260,52253,2,0,L|297:161,1,112.500004291535,0|0,3:3|3:3,3:3:0:0:
59,174,52715,6,0,L|234:168,1,150,0|0,3:3|3:3,3:3:0:0:
453,174,53176,2,0,L|278:168,1,150,0|0,3:3|3:3,3:3:0:0:
144,260,53638,6,0,L|215:161,1,112.500004291535,0|0,3:3|3:3,3:3:0:0:
368,260,54099,2,0,L|297:161,1,112.500004291535,0|0,3:3|3:3,3:3:0:0:
205,243,54561,6,0,L|210:147,1,75,0|0,3:3|3:3,3:3:0:0:
307,243,55023,2,0,L|302:147,1,75,0|0,3:3|3:3,3:3:0:0:
205,243,55484,6,0,L|210:147,1,75,0|0,3:3|3:3,3:3:0:0:
307,243,55715,2,0,L|302:147,1,75,0|0,3:3|3:3,3:3:0:0:
144,260,55946,6,0,L|215:161,1,112.500004291535,0|0,3:3|3:3,3:3:0:0:
368,260,56176,2,0,L|297:161,1,112.500004291535,0|0,3:3|3:3,3:3:0:0:
59,174,56407,6,0,L|234:168,1,150,0|0,3:3|3:3,3:3:0:0:
453,174,56638,2,0,L|278:168,1,150,0|0,3:3|3:3,3:3:0:0:
58,78,56869,6,0,L|230:181,1,175.00000166893,0|0,3:3|3:3,3:3:0:0:
453,78,57100,2,0,L|281:181,1,175.00000166893,0|0,3:3|3:3,3:3:0:0:
216,191,57330,5,0,0:0:0:0:
178,189,57445,1,0,0:0:0:0:
144,203,57560,1,0,0:0:0:0:
118,229,57676,1,0,0:0:0:0:
207,313,57792,5,0,0:0:0:0:
245,315,57907,1,0,0:0:0:0:
279,301,58022,1,0,0:0:0:0:
305,275,58138,1,0,0:0:0:0:
307,218,58253,5,0,3:3:0:0:
307,199,58369,1,0,3:3:0:0:
307,180,58484,1,0,3:3:0:0:
308,161,58600,1,0,3:3:0:0:
308,145,58715,2,2,L|308:107,1,37.5
309,35,59176,5,8,0:0:0:0:
234,33,59291,1,8,0:0:0:0:
166,62,59406,1,8,0:0:0:0:
116,117,59522,1,8,0:0:0:0:
96,248,59638,5,8,0:0:0:0:
170,249,59753,1,8,0:0:0:0:
238,220,59868,1,8,0:0:0:0:
288,165,59984,1,8,0:0:0:0:
328,96,60100,5,8,0:0:0:0:
368,32,60215,1,8,0:0:0:0:
432,72,60330,1,8,0:0:0:0:
392,136,60446,1,8,0:0:0:0:
327,76,60561,5,8,0:0:0:0:
387,31,60676,1,8,0:0:0:0:
432,91,60791,1,8,0:0:0:0:
372,136,60907,1,8,0:0:0:0:
288,136,61023,5,8,0:0:0:0:
214,135,61138,1,8,0:0:0:0:
146,164,61253,1,8,0:0:0:0:
96,219,61369,1,8,0:0:0:0:
221,209,61484,5,8,0:0:0:0:
277,208,61599,1,8,0:0:0:0:
328,230,61714,1,8,0:0:0:0:
365,271,61830,1,8,0:0:0:0:
258,278,61946,5,8,0:0:0:0:
216,277,62061,1,8,0:0:0:0:
177,293,62176,1,8,0:0:0:0:
149,324,62292,1,8,0:0:0:0:
227,342,62407,5,8,0:0:0:0:
258,341,62522,1,8,0:0:0:0:
287,353,62637,1,8,0:0:0:0:
308,376,62753,1,8,0:0:0:0:
341,358,62869,5,8,0:0:0:0:
401,338,62984,1,8,0:0:0:0:
438,287,63099,1,8,0:0:0:0:
438,223,63215,1,8,0:0:0:0:
395,127,63330,5,8,0:0:0:0:
338,78,63445,1,8,0:0:0:0:
266,63,63560,1,8,0:0:0:0:
195,84,63676,1,8,0:0:0:0:
170,193,63792,5,8,0:0:0:0:
214,153,63907,1,8,0:0:0:0:
272,141,64022,1,8,0:0:0:0:
329,158,64138,1,8,0:0:0:0:
341,259,64253,5,8,0:0:0:0:
327,279,64368,1,8,0:0:0:0:
221,304,64484,1,8,0:0:0:0:
157,264,64600,1,8,0:0:0:0:
95,191,64715,5,8,0:0:0:0:
151,142,64830,1,8,0:0:0:0:
223,127,64945,1,8,0:0:0:0:
294,148,65061,1,8,0:0:0:0:
70,94,65176,5,8,0:0:0:0:
126,45,65291,1,8,0:0:0:0:
198,30,65406,1,8,0:0:0:0:
269,51,65522,1,8,0:0:0:0:
344,78,65638,6,2,L|396:89,5,50.0000019073487
422,155,66100,6,2,L|370:166,5,50.0000019073487
299,167,66561,5,12,0:0:0:0:
232,123,66676,1,12,0:0:0:0:
154,108,66791,1,12,0:0:0:0:
77,127,66907,1,12,0:0:0:0:
129,223,67023,5,12,0:0:0:0:
195,266,67138,1,12,0:0:0:0:
273,281,67253,1,12,0:0:0:0:
350,262,67369,1,12,0:0:0:0:
377,183,67484,5,12,0:0:0:0:
417,119,67599,1,12,0:0:0:0:
481,159,67714,1,12,0:0:0:0:
441,223,67830,1,12,0:0:0:0:
376,163,67945,5,12,0:0:0:0:
436,118,68060,1,12,0:0:0:0:
481,178,68175,1,12,0:0:0:0:
421,223,68291,1,12,0:0:0:0:
376,163,68407,5,12,0:0:0:0:
310,120,68522,1,12,0:0:0:0:
232,105,68637,1,12,0:0:0:0:
155,124,68753,1,12,0:0:0:0:
130,229,68869,5,12,0:0:0:0:
183,195,68984,1,12,0:0:0:0:
245,183,69099,1,12,0:0:0:0:
307,198,69215,1,12,0:0:0:0:
345,294,69330,5,12,0:0:0:0:
302,263,69445,1,12,0:0:0:0:
252,256,69560,1,12,0:0:0:0:
203,268,69676,1,12,0:0:0:0:
180,358,69792,5,12,0:0:0:0:
214,335,69907,1,12,0:0:0:0:
254,327,70022,1,12,0:0:0:0:
293,337,70138,1,12,0:0:0:0:
337,319,70253,5,12,0:0:0:0:
403,297,70368,1,12,0:0:0:0:
443,240,70483,1,12,0:0:0:0:
443,170,70599,1,12,0:0:0:0:
421,80,70715,5,12,0:0:0:0:
354,36,70830,1,12,0:0:0:0:
276,21,70945,1,12,0:0:0:0:
199,40,71061,1,12,0:0:0:0:
180,153,71176,5,12,0:0:0:0:
232,118,71291,1,12,0:0:0:0:
295,106,71406,1,12,0:0:0:0:
356,121,71522,1,12,0:0:0:0:
394,217,71637,5,12,0:0:0:0:
351,186,71752,1,12,0:0:0:0:
301,179,71867,1,12,0:0:0:0:
252,191,71983,1,12,0:0:0:0:
199,263,72100,5,12,0:0:0:0:
194,301,72215,1,12,0:0:0:0:
157,296,72330,1,12,0:0:0:0:
161,259,72446,1,12,0:0:0:0:
205,279,72561,5,12,0:0:0:0:
179,306,72676,1,12,0:0:0:0:
152,280,72791,1,12,0:0:0:0:
178,253,72907,1,12,0:0:0:0:
241,281,73023,5,8,0:0:0:0:
345,223,73138,1,8,0:0:0:0:
340,105,73253,1,8,0:0:0:0:
233,55,73369,1,8,0:0:0:0:
136,122,73484,5,8,0:0:0:0:
136,297,73600,1,8,0:0:0:0:
50,208,73715,1,8,0:0:0:0:
225,208,73831,1,8,0:0:0:0:
86,262,81330,6,8,L|88:174,1,50
88,162,81561,2,8,L|86:250,1,50
50,246,81792,6,8,L|113:185,1,50
122,176,82023,2,8,L|58:236,1,50
52,282,82253,5,8,0:0:0:0:
116,309,82369,1,8,0:0:0:0:
185,310,82484,1,8,0:0:0:0:
249,282,82600,1,8,0:0:0:0:
254,164,82715,2,8,L|252:252,1,50
216,248,82946,6,8,L|279:187,1,50
288,178,83177,2,8,L|224:238,1,50
252,263,83407,2,8,L|250:174,1,50
258,139,83638,5,8,0:0:0:0:
272,91,83753,1,8,0:0:0:0:
306,55,83868,1,8,0:0:0:0:
352,36,83984,1,8,0:0:0:0:
435,34,84100,6,8,L|433:83,1,50
433,134,84331,2,8,L|434:84,1,50
471,50,84562,6,8,L|434:84,1,50
387,128,84793,2,8,L|350:162,1,50
273,225,85023,6,8,L|341:169,1,50
350,162,85254,2,8,L|281:217,1,50
262,187,85485,6,8,L|349:196,1,50,8|8,3:3|0:0,0:0:0:0:
362,197,85716,2,8,L|274:187,1,50
279,154,85946,6,8,L|334:222,1,50
342,231,86177,2,8,L|286:162,1,50
278,154,86407,5,8,3:3:0:0:
224,107,86523,1,8,0:0:0:0:
154,101,86638,1,8,0:0:0:0:
101,147,86753,1,8,0:0:0:0:
171,173,86869,6,8,L|171:222,1,50,8|8,3:3|3:3,3:3:0:0:
170,287,87100,2,8,L|170:336,1,50,8|8,3:3|3:3,3:3:0:0:
245,194,87330,6,8,L|245:243,1,50,8|8,3:3|3:3,3:3:0:0:
244,308,87561,2,8,L|244:357,1,50,8|8,3:3|3:3,3:3:0:0:
325,340,87792,5,0,0:0:0:0:
374,333,88023,1,0,0:0:0:0:
457,278,88253,1,0,0:0:0:0:
468,48,88484,1,0,0:0:0:0:
65,103,88715,5,0,0:0:0:0:
201,73,88946,1,0,0:0:0:0:
321,51,89176,1,0,3:3:0:0:
342,38,89292,1,0,0:0:0:0:
366,39,89407,1,0,0:0:0:0:
386,53,89523,1,0,0:0:0:0:
436,162,89638,5,0,3:3:0:0:
300,132,89869,1,0,0:0:0:0:
180,110,90099,1,0,3:3:0:0:
159,97,90215,1,0,0:0:0:0:
135,98,90330,1,0,0:0:0:0:
115,112,90446,1,0,0:0:0:0:
68,224,90561,5,0,3:3:0:0:
204,194,90792,1,0,0:0:0:0:
324,172,91022,1,0,3:3:0:0:
345,159,91138,1,0,0:0:0:0:
369,160,91253,1,0,0:0:0:0:
389,174,91369,1,0,0:0:0:0:
439,283,91484,5,0,3:3:0:0:
303,253,91715,1,0,0:0:0:0:
183,231,91945,1,0,3:3:0:0:
162,218,92061,1,0,0:0:0:0:
138,219,92176,1,0,0:0:0:0:
118,233,92292,1,0,0:0:0:0:
455,345,92407,5,0,3:3:0:0:
419,230,92523,1,0,0:0:0:0:
354,247,92638,1,0,3:3:0:0:
287,250,92753,1,0,0:0:0:0:
221,239,92869,1,0,3:3:0:0:
126,201,92984,5,0,0:0:0:0:
112,213,93100,1,0,3:3:0:0:
80,144,93215,5,0,0:0:0:0:
66,156,93330,1,0,3:3:0:0:
102,271,93446,1,0,0:0:0:0:
167,254,93561,1,0,3:3:0:0:
234,251,93676,1,0,0:0:0:0:
300,262,93792,1,0,3:3:0:0:
395,300,93907,5,0,0:0:0:0:
409,288,94023,1,0,3:3:0:0:
441,357,94138,5,0,0:0:0:0:
455,345,94253,1,0,3:3:0:0:
419,230,94369,1,0,3:3:0:0:
354,247,94484,1,0,3:3:0:0:
287,250,94599,1,0,3:3:0:0:
221,239,94715,1,0,3:3:0:0:
126,201,94830,5,0,3:3:0:0:
112,213,94946,1,0,3:3:0:0:
80,144,95061,5,0,3:3:0:0:
66,156,95177,1,0,3:3:0:0:
110,261,95292,1,0,3:3:0:0:
191,239,95407,1,0,3:3:0:0:
275,235,95522,1,0,3:3:0:0:
296,234,95638,6,0,L|314:234,1,15
40,112,96100,6,0,L|112:128,1,50,0|0,3:3|0:0,0:0:0:0:
96,192,96331,2,0,L|144:181,1,50
216,160,96562,1,0,3:3:0:0:
280,128,96677,1,0,0:0:0:0:
344,160,96792,1,0,0:0:0:0:
408,192,96908,1,0,0:0:0:0:
352,248,97023,6,0,L|352:232,1,10,0|0,0:3|0:0,0:0:0:0:
288,192,97254,2,0,L|288:176,1,10
352,136,97485,2,0,L|352:120,1,10,0|0,3:3|0:0,0:0:0:0:
288,80,97716,2,0,L|288:64,1,10
288,304,97946,5,0,3:3:0:0:
248,296,98062,2,2,L|264:264,1,25
200,264,98177,1,0,0:0:0:0:
168,208,98292,1,0,0:0:0:0:
112,216,98408,2,2,L|96:192,1,25,2|2,3:3|0:0,0:0:0:0:
80,248,98523,2,2,L|56:224,1,25
56,288,98639,2,2,L|32:272,1,25
48,336,98754,2,2,L|24:328,1,25
32,176,98869,5,0,0:0:0:0:
65,164,98985,1,0,0:0:0:0:
143,165,99100,5,0,0:0:0:0:
177,168,99216,1,0,0:0:0:0:
255,167,99331,5,0,3:3:0:0:
289,164,99447,1,0,0:0:0:0:
367,163,99562,5,0,0:0:0:0:
401,160,99678,1,0,0:0:0:0:
400,224,99792,6,0,B|400:192|400:192|408:160,1,50
480,176,100023,2,0,B|480:152|480:152|472:128,1,50
408,96,100254,1,0,3:3:0:0:
336,72,100369,1,0,0:0:0:0:
280,16,100485,1,0,0:0:0:0:
216,56,100600,1,0,0:0:0:0:
144,80,100716,6,0,L|144:96,1,10
208,136,100946,2,0,L|208:152,1,10
144,192,101177,2,0,L|144:176,1,10,0|0,3:3|0:0,0:0:0:0:
208,248,101408,2,0,L|208:264,1,10
144,296,101639,5,0,0:0:0:0:
189,356,101754,1,0,0:0:0:0:
264,363,101869,1,0,0:0:0:0:
320,312,101985,1,0,0:0:0:0:
371,367,102100,5,0,3:3:0:0:
446,358,102215,1,0,0:0:0:0:
490,297,102330,1,0,0:0:0:0:
475,223,102446,1,0,0:0:0:0:
419,160,102561,5,0,0:0:0:0:
476,90,102676,1,0,0:0:0:0:
407,33,102791,1,0,0:0:0:0:
349,101,102907,1,0,0:0:0:0:
442,153,103022,5,0,3:3:0:0:
471,68,103137,1,0,0:0:0:0:
386,39,103252,1,0,0:0:0:0:
356,124,103368,1,0,0:0:0:0:
467,287,103485,6,0,L|395:271,1,50
411,207,103716,2,0,L|363:218,1,50
291,239,103947,1,0,3:3:0:0:
227,271,104062,1,0,0:0:0:0:
163,239,104177,1,0,0:0:0:0:
99,207,104293,1,0,0:0:0:0:
155,151,104408,6,0,L|155:167,1,10
219,207,104639,2,0,L|219:223,1,10
155,263,104870,2,0,L|155:279,1,10,0|0,3:0|0:0,0:0:0:0:
219,319,105101,2,0,L|219:335,1,10
219,95,105331,5,0,0:0:0:0:
259,103,105447,2,2,L|243:135,1,25
307,135,105562,1,0,0:0:0:0:
339,191,105677,1,0,0:0:0:0:
395,183,105793,2,2,L|411:207,1,25,2|2,3:3|0:0,0:0:0:0:
427,151,105908,2,2,L|451:175,1,25
451,111,106024,2,2,L|475:127,1,25
459,63,106139,2,2,L|483:71,1,25
474,247,106254,5,0,0:0:0:0:
441,259,106370,1,0,0:0:0:0:
363,258,106485,5,0,0:0:0:0:
329,255,106601,1,0,0:0:0:0:
251,256,106716,5,0,3:3:0:0:
217,259,106832,1,0,0:0:0:0:
139,260,106947,5,0,0:0:0:0:
105,263,107063,1,0,0:0:0:0:
107,175,107177,6,0,B|107:207|107:207|99:239,1,50
27,223,107408,2,0,B|27:247|27:247|35:271,1,50
99,303,107639,1,0,3:3:0:0:
171,327,107754,1,0,0:0:0:0:
227,383,107870,1,0,0:0:0:0:
291,343,107985,1,0,0:0:0:0:
363,319,108101,6,0,L|363:303,1,10
299,263,108331,2,0,L|299:247,1,10
363,207,108562,2,0,L|363:223,1,10,0|0,3:3|0:0,0:0:0:0:
299,151,108793,2,0,L|299:135,1,10
363,103,109024,5,0,0:0:0:0:
317,42,109139,1,0,0:0:0:0:
243,36,109254,1,0,0:0:0:0:
189,87,109370,1,0,0:0:0:0:
136,32,109485,5,0,0:0:0:0:
61,41,109600,1,0,0:0:0:0:
17,102,109715,1,0,0:0:0:0:
32,176,109831,1,0,0:0:0:0:
83,255,109946,5,0,0:3:0:0:
150,327,110061,1,0,0:3:0:0:
249,327,110176,1,0,0:3:0:0:
316,253,110292,1,0,0:3:0:0:
354,192,110407,5,0,0:0:0:0:
297,78,110523,1,0,0:0:0:0:
240,192,110638,1,0,0:0:0:0:
183,78,110753,1,0,0:0:0:0:
256,192,110869,12,0,114561,0:0:0:0:
