osu file format v14

[General]
AudioFilename: audio.mp3
AudioLeadIn: 0
PreviewTime: 96100
Countdown: 0
SampleSet: Soft
StackLeniency: 0.7
Mode: 3
LetterboxInBreaks: 0
SpecialStyle: 0
WidescreenStoryboard: 0
SamplesMatchPlaybackRate: 1

[Editor]
DistanceSpacing: 0.8
BeatDivisor: 4
GridSize: 8
TimelineZoom: 1.3

[Metadata]
Title:Final Boss
TitleUnicode:Final Boss
Artist:Thaehan
ArtistUnicode:Thaehan
Creator:AHHHHHHHHHHHHHH
Version:Third Stage
Source:osu!
Tags:Power up Electronic chiptune Featured Artist Loki 8Bit Baroque
BeatmapID:1312718
BeatmapSetID:622417

[Difficulty]
HPDrainRate:8
CircleSize:4
OverallDifficulty:7.7
ApproachRate:5
SliderMultiplier:1.4
SliderTickRate:1

[Events]
//Background and Video events
0,0,"new bg.jpg",0,0
//Break Periods
//Storyboard Layer 0 (Background)
//Storyboard Layer 1 (Fail)
//Storyboard Layer 2 (Pass)
//Storyboard Layer 3 (Foreground)
//Storyboard Sound Samples

[TimingPoints]
100,461.538461538462,4,2,1,70,1,0
7484,-100,4,2,1,70,0,1
14811,-100,4,2,1,70,0,0
14869,-100,4,2,1,70,0,1
22253,-100,4,2,1,70,0,0
44176,-105.263157894737,4,2,1,70,0,0
44407,-111.111111111111,4,2,1,70,0,0
51792,-100,4,2,1,70,0,0
59176,-100,4,2,1,70,0,1
66446,-100,4,2,1,70,0,0
66561,-100,4,2,1,70,0,1
73023,-111.111111111111,4,2,1,70,0,0
73946,-100,4,2,1,70,0,0
96100,-100,4,2,1,70,0,1
103369,-100,4,2,1,70,0,0
103484,-100,4,2,1,70,0,1
110869,-100,4,2,1,70,0,0

[HitObjects]
192,192,100,128,0,330:0:0:0:0:
320,192,330,128,0,561:0:0:0:0:
64,192,561,1,0,0:0:0:0:
192,192,676,1,0,0:0:0:0:
320,192,792,1,0,0:0:0:0:
448,192,907,1,0,0:0:0:0:
320,192,1023,128,0,1253:0:0:0:0:
64,192,1253,128,0,1484:0:0:0:0:
192,192,1484,128,0,1715:0:0:0:0:
448,192,1715,1,0,0:0:0:0:
64,192,2061,1,0,0:0:0:0:
192,192,2176,1,0,0:0:0:0:
320,192,2292,1,0,0:0:0:0:
448,192,2407,1,0,0:0:0:0:
192,192,2465,1,0,0:0:0:0:
64,192,2523,1,0,0:0:0:0:
320,192,2638,1,0,0:0:0:0:
448,192,2753,1,0,0:0:0:0:
64,192,2869,1,0,0:0:0:0:
192,192,2984,1,0,0:0:0:0:
320,192,3100,1,0,0:0:0:0:
64,192,3215,1,0,0:0:0:0:
192,192,3330,1,0,0:0:0:0:
448,192,3446,1,0,0:0:0:0:
64,192,3561,1,0,0:0:0:0:
320,192,3676,1,0,0:0:0:0:
448,192,3792,128,0,4023:0:0:0:0:
64,192,4023,128,0,4253:0:0:0:0:
192,192,4253,1,0,0:0:0:0:
448,192,4369,1,0,0:0:0:0:
64,192,4484,1,0,0:0:0:0:
320,192,4600,1,0,0:0:0:0:
192,192,4715,128,0,4946:0:0:0:0:
64,192,4946,128,0,5176:0:0:0:0:
448,192,5176,128,0,5407:0:0:0:0:
320,192,5407,128,0,5638:0:0:0:0:
64,192,5638,1,0,0:0:0:0:
192,192,5753,1,0,0:0:0:0:
320,192,5869,1,0,0:0:0:0:
448,192,5984,1,0,0:0:0:0:
448,192,6100,1,0,0:0:0:0:
320,192,6215,1,0,0:0:0:0:
192,192,6330,1,0,0:0:0:0:
64,192,6446,1,0,0:0:0:0:
64,192,6561,1,0,0:0:0:0:
192,192,6676,1,0,0:0:0:0:
320,192,6792,1,0,0:0:0:0:
448,192,6907,1,0,0:0:0:0:
64,192,7023,1,0,0:0:0:0:
192,192,7138,1,0,0:0:0:0:
320,192,7253,1,0,0:0:0:0:
192,192,7369,1,0,0:0:0:0:
64,192,7484,1,4,2:2:0:0:
448,192,7484,128,2,7946:2:2:0:0:
192,192,7715,1,0,0:0:0:0:
320,192,7946,1,2,0:0:0:0:
64,192,7946,1,0,0:0:0:0:
192,192,8061,1,0,0:0:0:0:
64,192,8176,1,0,0:0:0:0:
448,192,8292,1,0,0:0:0:0:
320,192,8407,128,4,8638:0:0:0:0:
64,192,8638,128,0,8869:0:0:0:0:
448,192,8869,128,0,9100:0:0:0:0:
192,192,8869,1,2,0:0:0:0:
320,192,9100,128,0,9330:0:0:0:0:
64,192,9100,1,0,0:0:0:0:
192,192,9330,1,4,0:0:0:0:
64,192,9446,1,0,0:0:0:0:
320,192,9561,1,0,0:0:0:0:
448,192,9676,1,0,0:0:0:0:
320,192,9792,1,2,0:0:0:0:
192,192,9792,1,0,0:0:0:0:
64,192,9907,1,0,0:0:0:0:
448,192,10023,1,0,0:0:0:0:
192,192,10138,1,0,0:0:0:0:
320,192,10253,1,4,0:0:0:0:
320,192,10369,1,0,0:0:0:0:
64,192,10484,1,0,0:0:0:0:
64,192,10600,1,0,0:0:0:0:
320,192,10715,1,2,0:0:0:0:
448,192,10715,1,0,0:0:0:0:
448,192,10830,1,0,0:0:0:0:
192,192,10946,1,0,0:0:0:0:
192,192,11061,1,0,0:0:0:0:
448,192,11176,128,4,11407:0:0:0:0:
320,192,11407,128,0,11638:0:0:0:0:
64,192,11638,1,2,0:0:0:0:
448,192,11638,1,0,0:0:0:0:
192,192,11753,1,0,0:0:0:0:
320,192,11869,1,0,0:0:0:0:
448,192,11984,1,0,0:0:0:0:
64,192,12100,128,4,12330:0:0:0:0:
320,192,12330,128,0,12561:0:0:0:0:
448,192,12561,128,0,12792:0:0:0:0:
64,192,12561,1,2,0:0:0:0:
192,192,12792,128,0,13023:0:0:0:0:
320,192,12792,1,0,0:0:0:0:
448,192,13023,1,4,0:0:0:0:
320,192,13138,1,0,0:0:0:0:
192,192,13253,1,0,0:0:0:0:
64,192,13369,1,0,0:0:0:0:
448,192,13484,1,2,0:0:0:0:
192,192,13484,1,0,0:0:0:0:
320,192,13600,1,0,0:0:0:0:
192,192,13715,1,0,0:0:0:0:
64,192,13830,1,0,0:0:0:0:
448,192,13946,128,0,14176:0:0:0:0:
320,192,13946,1,4,0:0:0:0:
192,192,14176,128,0,14407:0:0:0:0:
64,192,14176,1,0,0:0:0:0:
64,192,14407,128,0,14638:0:0:0:0:
320,192,14407,1,2,0:0:0:0:
448,192,14638,128,0,14869:0:0:0:0:
320,192,14638,1,0,0:0:0:0:
192,192,14869,1,4,0:0:0:0:
64,192,14869,128,0,15330:0:0:0:0:
320,192,15100,1,0,0:0:0:0:
448,192,15330,1,2,0:0:0:0:
192,192,15330,1,0,0:0:0:0:
320,192,15446,1,0,0:0:0:0:
192,192,15561,1,0,0:0:0:0:
64,192,15676,1,0,0:0:0:0:
448,192,15792,128,4,16023:0:0:0:0:
64,192,16023,128,0,16253:0:0:0:0:
192,192,16253,128,0,16484:0:0:0:0:
448,192,16253,1,2,0:0:0:0:
64,192,16484,128,0,16715:0:0:0:0:
320,192,16484,1,0,0:0:0:0:
192,192,16715,1,4,0:0:0:0:
320,192,16830,1,0,0:0:0:0:
448,192,16946,1,0,0:0:0:0:
320,192,17061,1,0,0:0:0:0:
64,192,17176,1,2,0:0:0:0:
448,192,17176,1,0,0:0:0:0:
192,192,17292,1,0,0:0:0:0:
320,192,17407,1,0,0:0:0:0:
448,192,17523,1,0,0:0:0:0:
192,192,17638,1,4,0:0:0:0:
192,192,17753,1,0,0:0:0:0:
320,192,17869,1,0,0:0:0:0:
320,192,17984,1,0,0:0:0:0:
64,192,18100,1,2,0:0:0:0:
192,192,18100,1,0,0:0:0:0:
64,192,18215,1,0,0:0:0:0:
448,192,18330,1,0,0:0:0:0:
448,192,18446,1,0,0:0:0:0:
64,192,18561,128,4,18792:0:0:0:0:
192,192,18792,128,0,19023:0:0:0:0:
320,192,19023,1,0,0:0:0:0:
448,192,19023,1,2,0:0:0:0:
64,192,19138,1,0,0:0:0:0:
192,192,19253,1,0,0:0:0:0:
320,192,19369,1,0,0:0:0:0:
448,192,19484,128,4,19715:0:0:0:0:
64,192,19715,128,0,19946:0:0:0:0:
320,192,19946,128,2,20176:0:0:0:0:
192,192,19946,1,0,0:0:0:0:
192,192,20176,128,0,20407:0:0:0:0:
448,192,20176,1,0,0:0:0:0:
320,192,20407,1,4,0:0:0:0:
64,192,20523,1,0,0:0:0:0:
64,192,20638,1,0,0:0:0:0:
448,192,20753,1,0,0:0:0:0:
192,192,20869,1,4,0:0:0:0:
192,192,20984,1,0,0:0:0:0:
320,192,21100,1,0,0:0:0:0:
448,192,21215,1,0,0:0:0:0:
64,192,21330,1,4,0:0:0:0:
64,192,21446,1,0,0:0:0:0:
192,192,21561,1,0,0:0:0:0:
320,192,21676,1,0,0:0:0:0:
448,192,21792,128,0,21907:0:0:0:0:
320,192,21907,128,0,22023:0:0:0:0:
192,192,22023,128,0,22138:0:0:0:0:
320,192,22138,128,0,22253:0:0:0:0:
64,192,22253,128,4,22484:0:0:0:0:
448,192,22253,1,0,0:0:0:0:
192,192,22484,128,0,22715:0:0:0:0:
448,192,22715,1,4,0:0:0:0:
64,192,22830,1,0,0:0:0:0:
448,192,22946,1,0,0:0:0:0:
192,192,23061,1,0,0:0:0:0:
320,192,23176,128,4,23407:0:0:0:0:
192,192,23407,128,0,23638:0:0:0:0:
448,192,23638,128,4,23869:0:0:0:0:
64,192,23869,128,0,24100:0:0:0:0:
192,192,24100,128,4,24330:0:0:0:0:
320,192,24330,128,0,24561:0:0:0:0:
64,192,24561,128,4,24792:0:0:0:0:
448,192,24792,128,0,25023:0:0:0:0:
320,192,25023,128,4,25253:0:0:0:0:
64,192,25253,128,0,25484:0:0:0:0:
448,192,25484,128,4,25715:0:0:0:0:
192,192,25715,128,0,25946:0:0:0:0:
64,192,25946,128,4,26176:0:0:0:0:
448,192,26176,128,0,26407:0:0:0:0:
64,192,26407,1,4,0:0:0:0:
320,192,26523,1,0,0:0:0:0:
64,192,26638,1,0,0:0:0:0:
448,192,26753,1,0,0:0:0:0:
320,192,26869,128,4,27100:0:0:0:0:
192,192,27100,128,0,27330:0:0:0:0:
448,192,27330,128,4,27561:0:0:0:0:
320,192,27561,128,0,27792:0:0:0:0:
64,192,27792,128,4,28023:0:0:0:0:
448,192,28023,128,0,28253:0:0:0:0:
64,192,28253,128,4,28484:0:0:0:0:
320,192,28484,128,0,28715:0:0:0:0:
192,192,28715,128,4,28946:0:0:0:0:
448,192,28946,128,0,29176:0:0:0:0:
64,192,29176,128,4,29407:0:0:0:0:
320,192,29407,1,4,0:0:0:0:
320,192,29523,1,4,0:0:0:0:
192,192,29638,1,4,0:0:0:0:
64,192,29638,1,0,0:0:0:0:
320,192,29869,1,0,0:0:0:0:
64,192,30100,1,2,0:0:0:0:
448,192,30100,1,0,0:0:0:0:
192,192,30215,1,0,0:0:0:0:
320,192,30330,1,0,0:0:0:0:
64,192,30446,1,0,0:0:0:0:
448,192,30561,1,4,0:0:0:0:
448,192,30676,1,0,0:0:0:0:
192,192,30792,1,0,0:0:0:0:
320,192,30907,1,0,0:0:0:0:
64,192,31023,1,0,0:0:0:0:
448,192,31023,1,2,0:0:0:0:
64,192,31138,1,0,0:0:0:0:
320,192,31253,1,0,0:0:0:0:
192,192,31369,1,0,0:0:0:0:
64,192,31484,1,4,0:0:0:0:
448,192,31715,1,4,0:0:0:0:
192,192,31946,1,0,0:0:0:0:
64,192,31946,1,2,0:0:0:0:
320,192,32176,1,4,0:0:0:0:
448,192,32407,1,4,0:0:0:0:
192,192,32638,1,4,0:0:0:0:
320,192,32869,128,0,33100:0:0:0:0:
64,192,32869,1,2,0:0:0:0:
448,192,33100,128,0,33330:0:0:0:0:
192,192,33330,128,4,33561:0:0:0:0:
320,192,33561,128,0,33792:0:0:0:0:
448,192,33792,1,2,0:0:0:0:
192,192,33792,1,0,0:0:0:0:
64,192,33907,1,0,0:0:0:0:
320,192,34023,1,0,0:0:0:0:
192,192,34138,1,0,0:0:0:0:
448,192,34253,1,4,0:0:0:0:
448,192,34369,1,0,0:0:0:0:
64,192,34484,1,0,0:0:0:0:
320,192,34600,1,0,0:0:0:0:
192,192,34715,1,2,0:0:0:0:
448,192,34715,1,0,0:0:0:0:
192,192,34830,1,0,0:0:0:0:
320,192,34946,1,0,0:0:0:0:
64,192,35061,1,0,0:0:0:0:
448,192,35176,1,4,0:0:0:0:
192,192,35407,1,4,0:0:0:0:
320,192,35638,1,4,0:0:0:0:
448,192,35869,1,4,0:0:0:0:
64,192,36100,1,4,0:0:0:0:
320,192,36330,1,4,0:0:0:0:
192,192,36561,128,2,36792:0:0:0:0:
448,192,36561,1,0,0:0:0:0:
64,192,36792,128,4,37023:0:0:0:0:
320,192,37023,128,4,37253:0:0:0:0:
448,192,37253,128,0,37484:0:0:0:0:
64,192,37484,1,0,0:0:0:0:
192,192,37484,1,2,0:0:0:0:
320,192,37600,1,0,0:0:0:0:
64,192,37715,1,0,0:0:0:0:
448,192,37830,1,0,0:0:0:0:
192,192,37946,1,4,0:0:0:0:
192,192,38061,1,0,0:0:0:0:
448,192,38176,1,0,0:0:0:0:
64,192,38292,1,0,0:0:0:0:
320,192,38407,1,0,0:0:0:0:
192,192,38407,1,2,0:0:0:0:
320,192,38523,1,0,0:0:0:0:
64,192,38638,1,0,0:0:0:0:
448,192,38753,1,0,0:0:0:0:
192,192,38869,1,4,0:0:0:0:
448,192,39100,1,4,0:0:0:0:
64,192,39330,1,0,0:0:0:0:
320,192,39330,1,2,0:0:0:0:
192,192,39561,1,4,0:0:0:0:
448,192,39792,1,4,0:0:0:0:
64,192,40023,1,4,0:0:0:0:
320,192,40253,128,0,40484:0:0:0:0:
448,192,40253,1,2,0:0:0:0:
64,192,40484,128,0,40715:0:0:0:0:
192,192,40715,128,4,40946:0:0:0:0:
320,192,40946,128,0,41176:0:0:0:0:
448,192,41176,1,2,0:0:0:0:
64,192,41176,1,0,0:0:0:0:
192,192,41292,1,0,0:0:0:0:
448,192,41407,1,0,0:0:0:0:
320,192,41523,1,0,0:0:0:0:
64,192,41638,1,4,0:0:0:0:
64,192,41753,1,0,0:0:0:0:
320,192,41869,1,0,0:0:0:0:
192,192,41984,1,0,0:0:0:0:
64,192,42100,1,2,0:0:0:0:
448,192,42100,1,0,0:0:0:0:
448,192,42215,1,0,0:0:0:0:
192,192,42330,1,0,0:0:0:0:
64,192,42446,1,0,0:0:0:0:
320,192,42561,1,4,0:0:0:0:
192,192,42792,1,4,0:0:0:0:
448,192,43023,1,4,0:0:0:0:
192,192,43253,1,4,0:0:0:0:
64,192,43484,1,4,0:0:0:0:
320,192,43715,1,4,0:0:0:0:
192,192,43946,128,0,44176:0:0:0:0:
448,192,44176,128,0,44407:0:0:0:0:
64,192,44407,1,0,0:0:0:0:
192,192,44523,1,0,0:0:0:0:
320,192,44638,1,0,0:0:0:0:
64,192,44753,1,0,0:0:0:0:
192,192,44869,1,0,0:0:0:0:
320,192,44984,1,0,0:0:0:0:
448,192,45100,1,0,0:0:0:0:
320,192,45215,1,0,0:0:0:0:
64,192,45330,1,0,0:0:0:0:
448,192,45446,1,0,0:0:0:0:
320,192,45561,1,0,0:0:0:0:
192,192,45676,1,0,0:0:0:0:
320,192,45792,1,0,0:0:0:0:
448,192,45907,1,0,0:0:0:0:
320,192,46023,1,0,0:0:0:0:
192,192,46138,1,0,0:0:0:0:
64,192,46253,1,0,0:0:0:0:
448,192,46369,1,0,0:0:0:0:
192,192,46484,1,0,0:0:0:0:
448,192,46600,1,0,0:0:0:0:
192,192,46715,1,0,0:0:0:0:
320,192,46830,1,0,0:0:0:0:
64,192,46946,1,0,0:0:0:0:
320,192,47061,1,0,0:0:0:0:
64,192,47176,1,0,0:0:0:0:
448,192,47292,1,0,0:0:0:0:
192,192,47407,1,0,0:0:0:0:
448,192,47523,1,0,0:0:0:0:
320,192,47638,1,0,0:0:0:0:
192,192,47753,1,0,0:0:0:0:
320,192,47869,1,0,0:0:0:0:
64,192,47984,1,0,0:0:0:0:
192,192,48100,1,0,0:0:0:0:
320,192,48215,1,0,0:0:0:0:
64,192,48330,1,0,0:0:0:0:
192,192,48446,1,0,0:0:0:0:
448,192,48561,1,0,0:0:0:0:
320,192,48676,1,0,0:0:0:0:
192,192,48792,1,0,0:0:0:0:
64,192,48907,1,0,0:0:0:0:
448,192,49023,1,0,0:0:0:0:
320,192,49138,1,0,0:0:0:0:
192,192,49253,1,0,0:0:0:0:
64,192,49369,1,0,0:0:0:0:
320,192,49484,1,0,0:0:0:0:
192,192,49600,1,0,0:0:0:0:
320,192,49715,1,0,0:0:0:0:
448,192,49830,1,0,0:0:0:0:
192,192,49946,1,0,0:0:0:0:
320,192,50061,1,0,0:0:0:0:
192,192,50176,1,0,0:0:0:0:
64,192,50292,1,0,0:0:0:0:
320,192,50407,1,0,0:0:0:0:
448,192,50523,1,0,0:0:0:0:
320,192,50638,1,0,0:0:0:0:
192,192,50753,1,0,0:0:0:0:
64,192,50869,1,0,0:0:0:0:
192,192,50984,1,0,0:0:0:0:
448,192,51100,1,0,0:0:0:0:
320,192,51215,1,0,0:0:0:0:
192,192,51330,1,0,0:0:0:0:
320,192,51446,1,0,0:0:0:0:
448,192,51561,1,0,0:0:0:0:
64,192,51676,1,0,0:0:0:0:
320,192,51792,1,0,0:0:0:0:
192,192,51792,1,2,0:0:0:0:
192,192,52023,1,0,0:0:0:0:
448,192,52253,1,2,0:0:0:0:
320,192,52253,1,0,0:0:0:0:
320,192,52484,1,0,0:0:0:0:
64,192,52715,1,2,0:0:0:0:
448,192,52715,128,0,53176:0:0:0:0:
320,192,52946,1,0,0:0:0:0:
64,192,53176,128,0,53638:0:0:0:0:
192,192,53176,1,2,0:0:0:0:
320,192,53407,1,0,0:0:0:0:
448,192,53638,1,2,0:0:0:0:
192,192,53638,1,0,0:0:0:0:
448,192,53869,1,0,0:0:0:0:
192,192,54100,1,0,0:0:0:0:
64,192,54100,1,2,0:0:0:0:
192,192,54330,1,0,0:0:0:0:
448,192,54561,1,2,0:0:0:0:
320,192,54561,128,0,55023:0:0:0:0:
64,192,54792,1,0,0:0:0:0:
448,192,55023,1,2,0:0:0:0:
192,192,55023,128,0,55484:0:0:0:0:
320,192,55253,1,0,0:0:0:0:
448,192,55484,1,0,0:0:0:0:
64,192,55484,1,2,0:0:0:0:
192,192,55715,1,0,0:0:0:0:
320,192,55715,1,2,0:0:0:0:
320,192,55946,1,0,0:0:0:0:
448,192,55946,1,2,0:0:0:0:
64,192,56176,1,2,0:0:0:0:
192,192,56176,1,0,0:0:0:0:
192,192,56407,1,0,0:0:0:0:
448,192,56407,1,2,0:0:0:0:
320,192,56638,1,2,0:0:0:0:
64,192,56638,1,0,0:0:0:0:
192,192,56869,1,0,0:0:0:0:
320,192,56869,1,2,0:0:0:0:
448,192,57100,1,0,0:0:0:0:
64,192,57100,1,2,0:0:0:0:
192,192,57330,1,0,0:0:0:0:
64,192,57330,1,2,0:0:0:0:
448,192,57561,1,2,0:0:0:0:
192,192,57561,1,0,0:0:0:0:
448,192,57792,1,2,0:0:0:0:
320,192,57792,1,0,0:0:0:0:
320,192,58023,1,2,0:0:0:0:
64,192,58023,1,0,0:0:0:0:
192,192,58253,1,0,0:0:0:0:
64,192,58253,1,2,0:0:0:0:
320,192,58369,1,0,0:0:0:0:
448,192,58369,1,2,0:0:0:0:
192,192,58484,1,0,0:0:0:0:
64,192,58484,1,2,0:0:0:0:
320,192,58600,1,0,0:0:0:0:
448,192,58600,1,2,0:0:0:0:
192,192,58715,128,0,59176:2:0:0:0:
64,192,58715,1,2,0:0:0:0:
448,192,59176,1,4,2:2:0:0:
64,192,59176,1,0,2:2:0:0:
320,192,59292,1,0,0:0:0:0:
192,192,59407,1,0,0:0:0:0:
64,192,59523,1,0,0:0:0:0:
192,192,59638,1,2,0:0:0:0:
448,192,59638,1,0,0:0:0:0:
320,192,59753,1,0,0:0:0:0:
448,192,59869,1,0,0:0:0:0:
320,192,59984,1,0,0:0:0:0:
192,192,60100,1,4,0:0:0:0:
64,192,60215,1,0,0:0:0:0:
192,192,60330,1,0,0:0:0:0:
64,192,60446,1,0,0:0:0:0:
448,192,60561,1,0,0:0:0:0:
192,192,60561,1,2,0:0:0:0:
320,192,60676,1,0,0:0:0:0:
64,192,60792,1,0,0:0:0:0:
192,192,60907,1,0,0:0:0:0:
320,192,61023,128,4,61138:0:0:0:0:
448,192,61138,128,0,61253:0:0:0:0:
64,192,61253,128,0,61369:0:0:0:0:
192,192,61369,128,0,61484:0:0:0:0:
320,192,61484,1,2,0:0:0:0:
448,192,61484,128,0,61600:0:0:0:0:
192,192,61600,128,0,61715:0:0:0:0:
448,192,61715,128,0,61830:0:0:0:0:
320,192,61830,128,0,61946:0:0:0:0:
64,192,61946,128,4,62061:0:0:0:0:
192,192,62061,128,0,62176:0:0:0:0:
320,192,62176,128,0,62292:0:0:0:0:
448,192,62292,128,0,62407:0:0:0:0:
64,192,62407,1,0,0:0:0:0:
320,192,62407,128,2,62523:0:0:0:0:
192,192,62523,128,0,62638:0:0:0:0:
64,192,62638,128,0,62753:0:0:0:0:
192,192,62753,128,0,62869:0:0:0:0:
320,192,62869,1,4,0:0:0:0:
448,192,62984,1,0,0:0:0:0:
64,192,63100,1,0,0:0:0:0:
192,192,63215,1,0,0:0:0:0:
64,192,63330,1,0,0:0:0:0:
320,192,63330,1,2,0:0:0:0:
448,192,63446,1,0,0:0:0:0:
320,192,63561,1,0,0:0:0:0:
192,192,63676,1,0,0:0:0:0:
320,192,63792,1,4,0:0:0:0:
448,192,63907,1,0,0:0:0:0:
64,192,64023,1,0,0:0:0:0:
192,192,64138,1,0,0:0:0:0:
448,192,64253,1,0,0:0:0:0:
320,192,64253,1,2,0:0:0:0:
192,192,64369,1,0,0:0:0:0:
320,192,64484,1,0,0:0:0:0:
448,192,64600,1,0,0:0:0:0:
64,192,64715,128,4,64830:0:0:0:0:
192,192,64830,128,0,64946:0:0:0:0:
320,192,64946,128,0,65061:0:0:0:0:
448,192,65061,128,0,65176:0:0:0:0:
64,192,65176,1,2,0:0:0:0:
320,192,65176,128,0,65292:0:0:0:0:
192,192,65292,128,0,65407:0:0:0:0:
64,192,65407,128,0,65523:0:0:0:0:
192,192,65523,128,0,65638:0:0:0:0:
448,192,65638,128,4,65869:0:0:0:0:
320,192,65638,1,0,0:0:0:0:
64,192,65869,128,0,66100:0:0:0:0:
192,192,65869,1,0,0:0:0:0:
320,192,66100,128,0,66330:0:0:0:0:
448,192,66100,1,2,0:0:0:0:
192,192,66330,128,0,66561:0:0:0:0:
64,192,66330,1,4,0:0:0:0:
448,192,66561,1,4,0:0:0:0:
64,192,66561,1,0,0:0:0:0:
320,192,66676,1,0,0:0:0:0:
192,192,66792,1,0,0:0:0:0:
64,192,66907,1,0,0:0:0:0:
448,192,67023,1,2,0:0:0:0:
192,192,67023,1,0,0:0:0:0:
320,192,67138,1,0,0:0:0:0:
448,192,67253,1,0,0:0:0:0:
320,192,67369,1,0,0:0:0:0:
192,192,67484,1,4,0:0:0:0:
448,192,67600,1,0,0:0:0:0:
64,192,67715,1,0,0:0:0:0:
320,192,67830,1,0,0:0:0:0:
448,192,67946,1,2,0:0:0:0:
64,192,67946,1,0,0:0:0:0:
192,192,68061,1,0,0:0:0:0:
448,192,68176,1,0,0:0:0:0:
64,192,68292,1,0,0:0:0:0:
320,192,68407,128,4,68523:0:0:0:0:
448,192,68523,128,0,68638:0:0:0:0:
320,192,68638,128,0,68753:0:0:0:0:
192,192,68753,128,0,68869:0:0:0:0:
64,192,68869,1,2,0:0:0:0:
448,192,68869,128,0,68984:0:0:0:0:
192,192,68984,128,0,69100:0:0:0:0:
320,192,69100,128,0,69215:0:0:0:0:
64,192,69215,128,0,69330:0:0:0:0:
448,192,69330,128,4,69446:0:0:0:0:
320,192,69446,128,0,69561:0:0:0:0:
64,192,69561,128,0,69676:0:0:0:0:
192,192,69676,128,0,69792:0:0:0:0:
448,192,69792,1,2,0:0:0:0:
320,192,69792,128,0,69907:0:0:0:0:
64,192,69907,128,0,70023:0:0:0:0:
192,192,70023,128,0,70138:0:0:0:0:
448,192,70138,128,0,70253:0:0:0:0:
320,192,70253,1,4,0:0:0:0:
64,192,70369,1,0,0:0:0:0:
448,192,70484,1,0,0:0:0:0:
192,192,70600,1,0,0:0:0:0:
64,192,70715,1,2,0:0:0:0:
448,192,70715,1,0,0:0:0:0:
192,192,70830,1,0,0:0:0:0:
320,192,70946,1,0,0:0:0:0:
448,192,71061,1,0,0:0:0:0:
64,192,71176,1,4,0:0:0:0:
448,192,71292,1,0,0:0:0:0:
320,192,71407,1,0,0:0:0:0:
192,192,71523,1,0,0:0:0:0:
64,192,71638,1,2,0:0:0:0:
320,192,71638,1,0,0:0:0:0:
192,192,71753,1,0,0:0:0:0:
448,192,71869,1,0,0:0:0:0:
320,192,71984,1,0,0:0:0:0:
64,192,72100,128,4,72215:0:0:0:0:
192,192,72215,128,0,72330:0:0:0:0:
320,192,72330,128,0,72446:0:0:0:0:
448,192,72446,128,0,72561:0:0:0:0:
320,192,72561,1,2,0:0:0:0:
64,192,72561,128,0,72676:0:0:0:0:
192,192,72676,128,0,72792:0:0:0:0:
448,192,72792,128,0,72907:0:0:0:0:
320,192,72907,128,0,73023:0:0:0:0:
448,192,73023,1,0,0:0:0:0:
192,192,73138,1,0,0:0:0:0:
320,192,73253,1,0,0:0:0:0:
64,192,73369,1,0,0:0:0:0:
192,192,73484,1,0,0:0:0:0:
448,192,73600,1,0,0:0:0:0:
64,192,73715,1,0,0:0:0:0:
320,192,73830,1,0,0:0:0:0:
192,192,73946,1,4,0:0:0:0:
64,192,74061,1,0,0:0:0:0:
448,192,74176,1,4,0:0:0:0:
64,192,74407,1,4,0:0:0:0:
192,192,74523,1,0,0:0:0:0:
320,192,74638,1,4,0:0:0:0:
192,192,74869,1,4,0:0:0:0:
448,192,74984,1,0,0:0:0:0:
64,192,75100,1,0,0:0:0:0:
320,192,75215,1,0,0:0:0:0:
448,192,75330,1,4,0:0:0:0:
192,192,75561,1,4,0:0:0:0:
448,192,75792,1,4,0:0:0:0:
320,192,75907,1,0,0:0:0:0:
64,192,76023,1,4,0:0:0:0:
320,192,76253,1,4,0:0:0:0:
192,192,76369,1,0,0:0:0:0:
320,192,76484,1,0,0:0:0:0:
64,192,76600,1,0,0:0:0:0:
448,192,76715,1,4,0:0:0:0:
64,192,76946,1,4,0:0:0:0:
192,192,77176,1,4,0:0:0:0:
448,192,77407,1,4,0:0:0:0:
320,192,77638,1,4,0:0:0:0:
192,192,77753,1,0,0:0:0:0:
64,192,77869,1,4,0:0:0:0:
448,192,78100,1,4,0:0:0:0:
320,192,78215,1,0,0:0:0:0:
192,192,78330,1,4,0:0:0:0:
64,192,78561,1,4,0:0:0:0:
320,192,78676,1,0,0:0:0:0:
448,192,78792,1,4,0:0:0:0:
192,192,79023,1,4,0:0:0:0:
320,192,79138,1,0,0:0:0:0:
448,192,79253,1,4,0:0:0:0:
64,192,79484,1,4,0:0:0:0:
320,192,79715,1,4,0:0:0:0:
192,192,79946,1,4,0:0:0:0:
320,192,80176,1,4,0:0:0:0:
448,192,80407,1,4,0:0:0:0:
320,192,80638,1,4,0:0:0:0:
192,192,80869,1,4,0:0:0:0:
64,192,81100,1,4,0:0:0:0:
320,192,81330,1,0,0:0:0:0:
192,192,81330,1,4,0:0:0:0:
64,192,81446,1,0,0:0:0:0:
448,192,81561,1,4,0:0:0:0:
64,192,81792,1,4,0:0:0:0:
320,192,81907,1,0,0:0:0:0:
192,192,82023,1,4,0:0:0:0:
448,192,82253,1,4,0:0:0:0:
320,192,82369,1,0,0:0:0:0:
192,192,82484,1,0,0:0:0:0:
64,192,82600,1,0,0:0:0:0:
192,192,82715,1,4,0:0:0:0:
448,192,82946,1,4,0:0:0:0:
64,192,83176,1,4,0:0:0:0:
320,192,83292,1,0,0:0:0:0:
192,192,83407,1,4,0:0:0:0:
448,192,83638,1,4,0:0:0:0:
320,192,83753,1,0,0:0:0:0:
64,192,83869,1,0,0:0:0:0:
192,192,83984,1,0,0:0:0:0:
320,192,84100,1,4,0:0:0:0:
448,192,84330,1,4,0:0:0:0:
64,192,84561,1,4,0:0:0:0:
192,192,84792,1,4,0:0:0:0:
320,192,85023,1,4,0:0:0:0:
192,192,85253,1,4,0:0:0:0:
448,192,85484,1,0,0:0:0:0:
64,192,85484,1,2,0:0:0:0:
320,192,85715,1,4,0:0:0:0:
192,192,85946,1,4,0:0:0:0:
64,192,86176,1,4,0:0:0:0:
448,192,86407,1,0,0:0:0:0:
192,192,86407,1,2,0:0:0:0:
320,192,86523,1,0,0:0:0:0:
448,192,86638,1,4,0:0:0:0:
64,192,86869,1,4,0:0:0:0:
192,192,86869,1,0,0:0:0:0:
320,192,86984,1,0,0:0:0:0:
448,192,86984,1,4,0:0:0:0:
192,192,87100,1,0,0:0:0:0:
64,192,87100,1,4,0:0:0:0:
320,192,87215,1,0,0:0:0:0:
448,192,87215,1,4,0:0:0:0:
192,192,87330,1,2,0:0:0:0:
64,192,87330,1,0,0:0:0:0:
320,192,87446,1,0,0:0:0:0:
448,192,87446,1,4,0:0:0:0:
192,192,87561,1,0,0:0:0:0:
64,192,87561,1,4,0:0:0:0:
320,192,87676,1,0,0:0:0:0:
448,192,87676,1,4,0:0:0:0:
64,192,87792,1,4,0:0:0:0:
192,192,88023,1,0,0:0:0:0:
320,192,88253,1,0,0:0:0:0:
448,192,88484,1,0,0:0:0:0:
64,192,88715,1,0,0:0:0:0:
192,192,88715,1,2,0:0:0:0:
320,192,88946,1,0,0:0:0:0:
64,192,89176,1,0,0:0:0:0:
192,192,89176,1,2,0:0:0:0:
320,192,89292,1,0,0:0:0:0:
448,192,89407,1,0,0:0:0:0:
320,192,89523,1,0,0:0:0:0:
64,192,89638,1,0,0:0:0:0:
192,192,89638,1,2,0:0:0:0:
320,192,89869,1,0,0:0:0:0:
192,192,90100,1,2,0:0:0:0:
64,192,90100,1,0,0:0:0:0:
320,192,90215,1,0,0:0:0:0:
448,192,90330,1,0,0:0:0:0:
320,192,90446,1,0,0:0:0:0:
64,192,90561,1,0,0:0:0:0:
192,192,90561,1,2,0:0:0:0:
320,192,90792,1,0,0:0:0:0:
192,192,91023,1,2,0:0:0:0:
64,192,91023,1,0,0:0:0:0:
320,192,91138,1,0,0:0:0:0:
448,192,91253,1,0,0:0:0:0:
320,192,91369,1,0,0:0:0:0:
192,192,91484,1,2,0:0:0:0:
64,192,91484,1,0,0:0:0:0:
320,192,91715,1,0,0:0:0:0:
192,192,91946,1,2,0:0:0:0:
64,192,91946,1,0,0:0:0:0:
320,192,92061,1,0,0:0:0:0:
448,192,92176,1,0,0:0:0:0:
320,192,92292,1,0,0:0:0:0:
64,192,92407,1,0,0:0:0:0:
192,192,92407,1,2,0:0:0:0:
320,192,92638,1,2,0:0:0:0:
448,192,92638,1,0,0:0:0:0:
192,192,92869,1,2,0:0:0:0:
64,192,92869,1,0,0:0:0:0:
448,192,93100,1,0,0:0:0:0:
320,192,93100,1,2,0:0:0:0:
64,192,93330,1,0,0:0:0:0:
192,192,93330,1,2,0:0:0:0:
320,192,93561,1,2,0:0:0:0:
448,192,93561,1,0,0:0:0:0:
192,192,93792,1,2,0:0:0:0:
64,192,93792,1,0,0:0:0:0:
448,192,94023,1,0,0:0:0:0:
320,192,94023,1,2,0:0:0:0:
192,192,94253,1,2,0:0:0:0:
64,192,94253,1,0,0:0:0:0:
320,192,94369,1,2,0:0:0:0:
448,192,94369,1,0,0:0:0:0:
192,192,94484,1,2,0:0:0:0:
64,192,94484,1,0,0:0:0:0:
320,192,94600,1,2,0:0:0:0:
448,192,94600,1,0,0:0:0:0:
192,192,94715,1,2,0:0:0:0:
64,192,94715,1,0,0:0:0:0:
320,192,94830,1,2,0:0:0:0:
448,192,94830,1,0,0:0:0:0:
192,192,94946,1,2,0:0:0:0:
64,192,94946,1,0,0:0:0:0:
320,192,95061,1,2,0:0:0:0:
448,192,95061,1,0,0:0:0:0:
192,192,95176,1,2,0:0:0:0:
64,192,95176,1,0,0:0:0:0:
320,192,95292,1,2,0:0:0:0:
448,192,95292,1,0,0:0:0:0:
192,192,95407,1,2,0:0:0:0:
64,192,95407,1,0,0:0:0:0:
320,192,95523,1,2,0:0:0:0:
448,192,95523,1,0,0:0:0:0:
192,192,95638,128,2,96100:0:0:0:0:
64,192,96100,1,4,0:0:0:0:
448,192,96100,128,2,96330:0:0:0:0:
320,192,96330,128,0,96561:0:0:0:0:
64,192,96561,1,2,0:0:0:0:
448,192,96561,1,0,0:0:0:0:
192,192,96676,1,0,0:0:0:0:
448,192,96792,1,0,0:0:0:0:
320,192,96907,1,0,0:0:0:0:
192,192,97023,128,4,97253:0:0:0:0:
448,192,97253,128,0,97484:0:0:0:0:
64,192,97484,128,2,97715:0:0:0:0:
320,192,97484,1,0,0:0:0:0:
192,192,97715,128,0,97946:0:0:0:0:
448,192,97715,1,0,0:0:0:0:
64,192,97946,1,4,0:0:0:0:
320,192,98061,1,0,0:0:0:0:
448,192,98176,1,0,0:0:0:0:
64,192,98292,1,0,0:0:0:0:
192,192,98407,1,0,0:0:0:0:
320,192,98407,1,2,0:0:0:0:
448,192,98523,1,0,0:0:0:0:
320,192,98638,1,0,0:0:0:0:
64,192,98753,1,0,0:0:0:0:
192,192,98869,1,4,0:0:0:0:
192,192,98984,1,0,0:0:0:0:
448,192,99100,1,0,0:0:0:0:
448,192,99215,1,0,0:0:0:0:
64,192,99330,1,2,0:0:0:0:
192,192,99330,1,0,0:0:0:0:
64,192,99446,1,0,0:0:0:0:
320,192,99561,1,0,0:0:0:0:
320,192,99676,1,0,0:0:0:0:
192,192,99792,128,4,100023:0:0:0:0:
448,192,100023,128,0,100253:0:0:0:0:
64,192,100253,1,2,0:0:0:0:
192,192,100253,1,0,0:0:0:0:
320,192,100369,1,0,0:0:0:0:
192,192,100484,1,0,0:0:0:0:
448,192,100600,1,0,0:0:0:0:
320,192,100715,128,4,100946:0:0:0:0:
64,192,100946,128,0,101176:0:0:0:0:
448,192,101176,128,2,101407:0:0:0:0:
320,192,101176,1,0,0:0:0:0:
192,192,101407,128,0,101638:0:0:0:0:
64,192,101407,1,0,0:0:0:0:
320,192,101638,1,4,0:0:0:0:
448,192,101638,1,0,0:0:0:0:
448,192,101753,1,0,0:0:0:0:
64,192,101869,1,0,0:0:0:0:
192,192,101984,1,0,0:0:0:0:
448,192,102100,1,0,0:0:0:0:
320,192,102100,1,2,0:0:0:0:
64,192,102215,1,0,0:0:0:0:
192,192,102330,1,0,0:0:0:0:
320,192,102446,1,0,0:0:0:0:
448,192,102561,1,4,0:0:0:0:
192,192,102561,1,0,0:0:0:0:
448,192,102676,1,0,0:0:0:0:
64,192,102792,1,0,0:0:0:0:
192,192,102907,1,0,0:0:0:0:
448,192,103023,1,2,0:0:0:0:
320,192,103023,1,0,0:0:0:0:
192,192,103138,1,0,0:0:0:0:
64,192,103253,1,0,0:0:0:0:
320,192,103369,1,0,0:0:0:0:
448,192,103484,128,4,103715:0:0:0:0:
192,192,103484,1,0,0:0:0:0:
64,192,103715,128,0,103946:0:0:0:0:
192,192,103946,1,2,0:0:0:0:
320,192,103946,1,0,0:0:0:0:
448,192,104061,1,0,0:0:0:0:
64,192,104176,1,0,0:0:0:0:
192,192,104292,1,0,0:0:0:0:
320,192,104407,128,4,104638:0:0:0:0:
448,192,104638,128,0,104869:0:0:0:0:
192,192,104869,128,2,105100:0:0:0:0:
320,192,104869,1,0,0:0:0:0:
64,192,105100,128,0,105330:0:0:0:0:
448,192,105100,1,0,0:0:0:0:
192,192,105330,1,4,0:0:0:0:
320,192,105446,1,0,0:0:0:0:
448,192,105561,1,0,0:0:0:0:
64,192,105676,1,0,0:0:0:0:
192,192,105792,1,2,0:0:0:0:
320,192,105792,1,0,0:0:0:0:
448,192,105907,1,0,0:0:0:0:
192,192,106023,1,0,0:0:0:0:
320,192,106138,1,0,0:0:0:0:
64,192,106253,1,4,0:0:0:0:
64,192,106369,1,0,0:0:0:0:
320,192,106484,1,0,0:0:0:0:
320,192,106600,1,0,0:0:0:0:
64,192,106715,1,0,0:0:0:0:
448,192,106715,1,2,0:0:0:0:
448,192,106830,1,0,0:0:0:0:
192,192,106946,1,0,0:0:0:0:
192,192,107061,1,0,0:0:0:0:
64,192,107176,128,4,107407:0:0:0:0:
448,192,107407,128,0,107638:0:0:0:0:
64,192,107638,1,0,0:0:0:0:
192,192,107638,1,2,0:0:0:0:
320,192,107753,1,0,0:0:0:0:
192,192,107869,1,0,0:0:0:0:
448,192,107984,1,0,0:0:0:0:
320,192,108100,128,4,108330:0:0:0:0:
64,192,108330,128,0,108561:0:0:0:0:
192,192,108561,1,0,0:0:0:0:
448,192,108561,128,2,108792:0:0:0:0:
320,192,108792,128,0,109023:0:0:0:0:
64,192,108792,1,0,0:0:0:0:
192,192,109023,1,4,0:0:0:0:
64,192,109138,1,0,0:0:0:0:
64,192,109253,1,0,0:0:0:0:
448,192,109369,1,0,0:0:0:0:
320,192,109484,1,4,0:0:0:0:
320,192,109600,1,0,0:0:0:0:
192,192,109715,1,0,0:0:0:0:
64,192,109830,1,0,0:0:0:0:
448,192,109946,1,4,0:0:0:0:
448,192,110061,1,0,0:0:0:0:
192,192,110176,1,0,0:0:0:0:
320,192,110292,1,0,0:0:0:0:
64,192,110407,128,0,110523:0:0:0:0:
192,192,110523,128,0,110638:0:0:0:0:
448,192,110638,128,0,110753:0:0:0:0:
320,192,110753,128,0,110869:0:0:0:0:
64,192,110869,128,4,115253:0:0:0:0:
192,192,110869,1,0,0:0:0:0:
