osu file format v14

[General]
AudioFilename: audio.mp3
AudioLeadIn: 0
PreviewTime: -1
Countdown: 0
SampleSet: Soft
StackLeniency: 0.7
Mode: 0
LetterboxInBreaks: 0
WidescreenStoryboard: 0

[Editor]
Bookmarks: 10668,21335,53335,57335,80001,89335,90668,98668,100668
DistanceSpacing: 2.4
BeatDivisor: 4
GridSize: 32
TimelineZoom: 2.899999

[Metadata]
Title:Doki-Doki
TitleUnicode:どきどき
Artist:Thaehan
ArtistUnicode:Thaehan
Creator:dorsalplum
Version:C9H13NO3
Source:Power Up
Tags:Loki Electronic soundcloud electronic techno dnb streams stream training piano Cubzy anime spaced tv size technical
BeatmapID:1841988
BeatmapSetID:880893

[Difficulty]
HPDrainRate:5.4
CircleSize:4.1
OverallDifficulty:9
ApproachRate:9.4
SliderMultiplier:1.8
SliderTickRate:2

[Events]
//Background and Video events
0,0,"miyazono-kaori-Anime-Shigatsu-wa-Kimi-no-Uso-Seiorai-4489431.jpg",0,0
//Break Periods
//Storyboard Layer 0 (Background)
//Storyboard Layer 1 (Fail)
//Storyboard Layer 2 (Pass)
//Storyboard Layer 3 (Foreground)
//Storyboard Sound Samples

[TimingPoints]
2,333.333333333333,4,2,1,30,1,0
335,-76.9230769230769,4,2,1,30,0,0
4001,-200,4,2,1,30,0,0
4085,-76.9230769230769,4,2,1,30,0,0
5668,-100,4,2,1,30,0,0
7668,-76.9230769230769,4,2,1,30,0,0
10668,-76.9230769230769,4,2,1,30,0,1
20001,-76.9230769230769,4,2,1,30,0,1
20168,-71.4285714285714,4,2,1,30,0,1
20335,-66.6666666666667,4,2,1,30,0,1
20501,-62.5,4,2,1,30,0,1
20668,-76.9230769230769,4,2,1,30,0,1
21335,-76.9230769230769,4,2,1,30,0,0
30668,-100,4,2,1,30,0,0
30835,-76.9230769230769,4,2,1,30,0,0
41335,-100,4,2,1,30,0,0
45001,-76.9230769230769,4,2,1,30,0,0
48168,-133.333333333333,4,2,1,30,0,0
53001,-76.9230769230769,4,2,1,30,0,0
53335,-76.9230769230769,4,2,1,30,0,1
57335,-200,4,2,1,30,0,0
58001,-76.9230769230769,4,2,1,30,0,0
69001,-200,4,2,1,30,0,0
70001,-76.9230769230769,4,2,1,30,0,0
80001,-76.9230769230769,4,2,1,30,0,1
89335,-76.9230769230769,4,2,1,30,0,0
90335,-62.5,4,2,1,30,0,0
90668,-76.9230769230769,4,2,1,30,0,1
98668,-76.9230769230769,4,2,1,30,0,0

[HitObjects]
126,137,2,5,8,0:0:0:0:
255,56,168,5,2,0:0:0:0:
255,56,251,1,2,0:0:0:0:
255,56,335,2,0,L|256:143,1,58.4999973220826,2|0,0:0|0:0,0:0:0:0:
261,206,501,2,0,L|208:181,1,58.4999973220826,2|0,0:0|0:0,0:0:0:0:
126,138,668,5,8,0:0:0:0:
126,138,751,1,8,0:0:0:0:
126,137,835,1,8,0:0:0:0:
110,323,1001,2,0,L|65:274,1,58.4999973220826,8|0,0:0|0:0,0:0:0:0:
208,181,1168,2,0,L|272:182,1,58.4999973220826,8|0,0:0|0:0,0:0:0:0:
465,156,1335,5,2,2:0:0:0:
440,158,1418,1,2,2:0:0:0:
413,160,1501,1,2,2:0:0:0:
345,244,1668,5,2,2:0:0:0:
392,239,1751,1,2,2:0:0:0:
446,235,1835,1,2,2:0:0:0:
511,304,2001,5,2,0:0:0:0:
439,318,2085,1,2,0:0:0:0:
361,329,2169,2,0,L|341:257,1,58.4999973220826,2|0,0:0|0:0,0:0:0:0:
400,62,2335,2,0,L|423:130,1,58.4999973220826,2|0,0:0|0:0,0:0:0:0:
251,68,2501,6,0,L|253:-9,1,58.4999973220826,2|2,0:0|0:0,0:0:0:0:
233,274,2668,1,2,0:0:0:0:
357,172,2835,2,0,L|268:169,1,58.4999973220826,2|0,0:0|0:0,0:0:0:0:
120,194,3001,5,2,0:0:0:0:
120,194,3085,1,2,0:0:0:0:
120,194,3168,1,2,0:0:0:0:
184,61,3251,2,0,L|202:135,1,58.4999973220826,2|0,0:0|0:0,0:0:0:0:
323,331,3418,2,0,L|307:266,1,58.4999973220826,2|0,0:0|0:0,0:0:0:0:
308,16,3668,1,2,0:0:0:0:
308,16,3751,1,2,0:0:0:0:
308,16,3835,1,2,0:0:0:0:
438,235,4001,6,0,L|443:270,1,22.5,4|0,2:0|0:0,0:0:0:0:
371,332,4168,5,2,0:0:0:0:
323,331,4251,1,2,0:0:0:0:
280,310,4334,1,2,0:0:0:0:
250,273,4417,1,2,0:0:0:0:
229,237,4501,1,8,0:0:0:0:
188,239,4585,1,8,0:0:0:0:
148,245,4668,1,8,0:0:0:0:
98,260,4751,5,0,0:0:0:0:
75,301,4834,1,0,0:0:0:0:
87,347,4917,1,0,0:0:0:0:
128,372,5000,1,0,0:0:0:0:
174,361,5084,1,0,0:0:0:0:
200,321,5167,1,0,0:0:0:0:
191,274,5250,1,0,0:0:0:0:
148,245,5335,5,8,0:0:0:0:
416,254,5501,1,0,0:0:0:0:
236,212,5668,1,0,0:0:0:0:
389,78,5835,2,0,L|394:125,1,45,8|0,0:0|0:0,0:0:0:0:
420,309,6001,1,8,0:0:0:0:
291,135,6168,1,0,0:0:0:0:
484,193,6335,1,0,0:0:0:0:
266,263,6501,1,0,0:0:0:0:
484,116,6668,6,0,L|476:46,1,45,8|0,0:0|0:0,0:0:0:0:
281,382,6835,1,0,0:0:0:0:
300,156,7001,1,0,0:0:0:0:
428,303,7168,1,0,0:0:0:0:
91,123,7335,2,0,L|88:78,1,45,8|0,0:0|0:0,0:0:0:0:
188,196,7501,2,0,L|192:240,1,45,8|0,0:0|0:0,0:0:0:0:
277,101,7668,6,0,L|402:89,1,116.999994644165,8|0,0:0|0:0,0:0:0:0:
188,196,8001,1,2,0:0:0:0:
286,44,8168,5,2,0:0:0:0:
286,44,8252,1,2,0:0:0:0:
286,44,8335,2,0,L|275:120,1,58.4999973220826,2|0,0:0|0:0,0:0:0:0:
298,227,8501,2,0,L|263:163,1,58.4999973220826,2|0,0:0|0:0,0:0:0:0:
94,128,8668,6,0,P|131:123|171:134,1,58.4999973220826,2|0,0:0|0:0,0:0:0:0:
233,226,8835,2,0,B|203:238|144:209,1,58.4999973220826,2|0,0:0|0:0,0:0:0:0:
368,131,9001,6,0,L|432:136,1,58.4999973220826,2|0,0:0|0:0,0:0:0:0:
366,320,9168,2,0,L|282:307,1,58.4999973220826,2|0,0:0|0:0,0:0:0:0:
279,94,9335,5,8,0:0:0:0:
279,94,9418,1,8,0:0:0:0:
279,94,9501,2,0,L|291:159,1,58.4999973220826,8|0,0:0|0:0,0:0:0:0:
309,312,9668,2,0,L|330:238,1,58.4999973220826,8|0,0:0|0:0,0:0:0:0:
446,141,9835,2,0,L|381:176,1,58.4999973220826,8|0,0:0|0:0,0:0:0:0:
112,251,10001,5,2,2:0:0:0:
178,209,10084,5,2,2:0:0:0:
259,210,10167,5,2,2:0:0:0:
325,256,10251,5,2,2:0:0:0:
374,320,10335,6,0,L|355:402,2,58.4999973220826,4|0|0,2:0|0:0|0:0,0:0:0:0:
259,210,10668,1,2,0:0:0:0:
415,17,10835,5,2,2:0:0:0:
398,78,10918,1,2,2:0:0:0:
419,138,11001,1,2,2:0:0:0:
459,195,11085,1,2,2:0:0:0:
473,257,11168,1,2,2:0:0:0:
452,317,11251,1,2,2:0:0:0:
406,347,11335,6,0,B|371:346|371:346|349:354|349:354|325:347|325:347|290:350,1,116.999994644165,2|0,0:0|0:0,0:0:0:0:
377,64,11668,5,2,2:0:0:0:
348,65,11751,1,2,2:0:0:0:
315,67,11834,1,2,2:0:0:0:
236,166,12001,5,2,2:0:0:0:
292,161,12084,1,2,2:0:0:0:
354,156,12168,1,2,2:0:0:0:
431,237,12334,5,2,2:0:0:0:
347,253,12418,1,2,2:0:0:0:
262,270,12501,1,2,2:0:0:0:
332,348,12668,5,2,0:0:0:0:
383,330,12751,1,2,0:0:0:0:
420,291,12834,1,2,0:0:0:0:
431,237,12918,1,2,0:0:0:0:
417,174,13001,6,0,P|396:148|360:118,1,58.4999973220826,2|0,0:0|0:0,0:0:0:0:
273,83,13168,2,0,P|264:110|263:154,1,58.4999973220826,2|0,0:0|0:0,0:0:0:0:
233,358,13335,5,2,0:0:0:0:
279,39,13501,1,8,0:0:0:0:
279,39,13585,1,8,0:0:0:0:
279,39,13668,1,8,0:0:0:0:
501,225,13835,1,2,0:0:0:0:
233,358,14001,5,8,0:0:0:0:
227,34,14168,1,10,0:0:0:0:
480,195,14335,1,8,0:0:0:0:
480,195,14418,1,8,0:0:0:0:
480,195,14501,1,8,0:0:0:0:
48,113,14668,5,2,0:0:0:0:
92,81,14751,1,0,0:0:0:0:
142,89,14835,1,2,0:0:0:0:
173,129,14918,1,2,0:0:0:0:
187,181,15001,1,2,0:0:0:0:
178,234,15085,1,2,0:0:0:0:
138,276,15168,5,8,0:0:0:0:
190,279,15251,1,8,0:0:0:0:
245,282,15335,1,8,0:0:0:0:
293,277,15418,5,8,0:0:0:0:
292,337,15501,1,0,0:0:0:0:
322,384,15584,1,2,0:0:0:0:
384,380,15668,1,2,0:0:0:0:
406,328,15751,1,2,0:0:0:0:
397,269,15834,1,2,0:0:0:0:
279,63,16001,6,0,L|280:131,1,45,2|0,0:0|0:0,0:0:0:0:
381,223,16168,2,0,L|380:174,1,45,2|0,0:0|0:0,0:0:0:0:
382,63,16335,5,8,0:0:0:0:
208,265,16501,1,0,0:0:0:0:
382,63,16668,1,0,0:0:0:0:
202,143,16835,1,0,0:0:0:0:
382,63,17001,1,8,0:0:0:0:
202,143,17168,6,0,L|197:62,1,58.4999973220826,2|0,0:0|0:0,0:0:0:0:
414,255,17335,2,0,L|410:181,1,58.4999973220826,2|0,0:0|0:0,0:0:0:0:
307,128,17501,2,0,L|310:211,1,58.4999973220826,2|0,0:0|0:0,0:0:0:0:
302,292,17668,5,10,0:0:0:0:
109,216,17835,1,0,0:0:0:0:
330,202,18001,5,8,0:0:0:0:
122,324,18168,1,0,0:0:0:0:
238,118,18335,6,0,P|238:144|253:194,1,58.4999973220826,2|0,0:0|0:0,0:0:0:0:
318,345,18501,2,0,P|329:293|328:260,1,58.4999973220826,2|0,0:0|0:0,0:0:0:0:
330,202,18668,2,0,L|329:133,1,58.4999973220826,2|0,0:0|0:0,0:0:0:0:
337,9,18835,5,8,0:0:0:0:
337,9,18918,1,8,0:0:0:0:
337,9,19001,2,0,P|345:40|322:113,1,58.4999973220826,8|0,0:0|0:0,0:0:0:0:
195,219,19168,2,0,B|193:187|193:187|197:149,1,58.4999973220826,8|0,0:0|0:0,0:0:0:0:
262,37,19335,5,2,0:0:0:0:
469,194,19501,1,0,0:0:0:0:
128,174,19668,5,2,0:0:0:0:
401,114,19835,1,0,0:0:0:0:
128,309,20001,6,0,L|131:241,1,58.4999973220826,2|0,0:0|0:0,0:0:0:0:
203,131,20168,6,0,L|202:234,1,62.9999980773926,2|0,0:0|0:0,0:0:0:0:
261,360,20335,6,0,L|260:237,1,67.5000025749208,2|0,0:0|0:0,0:0:0:0:
315,91,20501,6,0,L|315:191,1,72,2|0,0:0|0:0,0:0:0:0:
386,384,20668,5,2,0:0:0:0:
386,384,20751,1,2,0:0:0:0:
386,384,20835,2,0,L|387:316,1,58.4999973220826,2|0,0:0|0:0,0:0:0:0:
454,265,21001,6,0,P|487:183|417:82,1,175.499991966248,4|0,2:0|0:0,0:0:0:0:
301,123,21335,5,2,0:0:0:0:
301,142,21418,1,0,0:0:0:0:
301,161,21501,1,0,0:0:0:0:
301,181,21584,1,0,0:0:0:0:
301,200,21668,5,8,0:0:0:0:
302,226,21751,1,0,0:0:0:0:
284,265,21834,1,0,0:0:0:0:
250,288,21917,1,0,0:0:0:0:
208,288,22001,5,2,0:0:0:0:
164,272,22085,1,0,0:0:0:0:
127,252,22168,1,0,0:0:0:0:
85,249,22251,1,0,0:0:0:0:
46,261,22335,1,8,0:0:0:0:
26,287,22418,1,0,0:0:0:0:
26,329,22501,1,0,0:0:0:0:
58,356,22585,1,0,0:0:0:0:
98,361,22668,2,0,B|149:327|213:358,1,116.999994644165,2|0,0:0|0:0,0:0:0:0:
395,273,23001,2,0,P|389:304|367:334,3,58.4999973220826,8|0|0|0,0:0|0:0|0:0|0:0,0:0:0:0:
354,245,23335,5,2,0:0:0:0:
304,237,23418,1,0,0:0:0:0:
269,201,23501,1,0,0:0:0:0:
263,151,23584,1,0,0:0:0:0:
294,115,23668,1,8,0:0:0:0:
347,109,23751,1,0,0:0:0:0:
393,135,23835,1,0,0:0:0:0:
400,187,23918,1,0,0:0:0:0:
375,231,24001,5,2,0:0:0:0:
325,235,24085,1,0,0:0:0:0:
277,217,24168,1,0,0:0:0:0:
226,217,24251,1,0,0:0:0:0:
184,236,24335,1,8,0:0:0:0:
151,268,24418,1,0,0:0:0:0:
99,277,24501,1,0,0:0:0:0:
56,247,24585,1,0,0:0:0:0:
44,196,24668,5,2,0:0:0:0:
69,149,24751,1,0,0:0:0:0:
125,132,24835,1,0,0:0:0:0:
176,160,24917,1,0,0:0:0:0:
208,209,25001,1,8,0:0:0:0:
267,226,25084,1,0,0:0:0:0:
328,211,25167,1,0,0:0:0:0:
374,169,25251,1,0,0:0:0:0:
399,114,25335,6,0,P|388:89|303:31,1,116.999994644165,2|0,0:0|0:0,0:0:0:0:
333,269,25668,2,0,L|325:188,1,58.4999973220826,2|0,0:0|0:0,0:0:0:0:
457,115,25835,2,0,L|398:113,1,58.4999973220826,2|0,0:0|0:0,0:0:0:0:
254,138,26001,5,2,0:0:0:0:
253,195,26084,1,0,0:0:0:0:
213,236,26167,1,0,0:0:0:0:
156,239,26250,1,0,0:0:0:0:
102,230,26335,1,8,0:0:0:0:
47,244,26418,1,0,0:0:0:0:
21,294,26501,1,0,0:0:0:0:
41,347,26584,1,0,0:0:0:0:
88,304,26668,5,2,0:0:0:0:
140,290,26751,1,0,0:0:0:0:
183,307,26835,1,0,0:0:0:0:
226,344,26918,1,0,0:0:0:0:
283,351,27001,1,8,0:0:0:0:
335,325,27084,1,0,0:0:0:0:
365,271,27168,5,0,0:0:0:0:
316,244,27251,1,0,0:0:0:0:
283,194,27335,1,2,0:0:0:0:
282,134,27418,1,0,0:0:0:0:
312,81,27501,1,0,0:0:0:0:
372,59,27585,1,0,0:0:0:0:
418,80,27668,6,0,P|420:129|401:188,1,58.4999973220826,2|0,0:0|0:0,0:0:0:0:
316,244,27835,2,0,P|314:195|333:136,1,58.4999973220826,2|0,0:0|0:0,0:0:0:0:
312,119,28001,5,2,0:0:0:0:
259,95,28084,1,0,0:0:0:0:
202,105,28167,1,0,0:0:0:0:
161,145,28250,1,0,0:0:0:0:
157,200,28335,1,8,0:0:0:0:
165,257,28418,1,0,0:0:0:0:
144,311,28501,1,0,0:0:0:0:
104,338,28585,1,0,0:0:0:0:
47,331,28668,5,2,0:0:0:0:
10,287,28751,1,0,0:0:0:0:
11,230,28834,1,0,0:0:0:0:
48,185,28918,1,0,0:0:0:0:
108,173,29001,5,8,0:0:0:0:
174,199,29084,1,0,0:0:0:0:
199,268,29167,1,0,0:0:0:0:
252,317,29251,1,0,0:0:0:0:
323,312,29335,5,2,0:0:0:0:
366,270,29418,1,0,0:0:0:0:
361,210,29501,1,8,0:0:0:0:
311,178,29584,1,0,0:0:0:0:
254,197,29668,1,2,0:0:0:0:
194,223,29751,1,0,0:0:0:0:
135,204,29835,1,8,0:0:0:0:
99,155,29917,1,0,0:0:0:0:
108,89,30001,5,2,0:0:0:0:
167,45,30084,1,0,0:0:0:0:
239,51,30167,1,8,0:0:0:0:
291,105,30250,1,0,0:0:0:0:
294,178,30334,1,2,0:0:0:0:
248,239,30418,1,0,0:0:0:0:
179,275,30501,1,8,0:0:0:0:
176,350,30585,1,0,0:0:0:0:
252,382,30668,6,0,P|298:376|336:339,1,90,2|0,0:0|0:0,0:0:0:0:
378,186,31001,1,2,0:0:0:0:
378,186,31085,1,2,0:0:0:0:
378,186,31168,2,0,L|384:290,1,58.4999973220826,2|0,0:0|0:0,0:0:0:0:
330,348,31335,2,0,L|323:272,1,58.4999973220826,2|0,0:0|0:0,0:0:0:0:
309,119,31501,2,0,B|336:103|336:103|384:94,1,58.4999973220826,2|0,0:0|0:0,0:0:0:0:
206,202,31668,6,0,P|223:130|159:35,1,175.499991966248,4|0,2:0|0:0,0:0:0:0:
129,137,32001,5,2,0:0:0:0:
117,163,32084,1,0,0:0:0:0:
113,192,32168,1,0,0:0:0:0:
116,221,32250,1,0,0:0:0:0:
128,249,32335,1,8,0:0:0:0:
131,278,32418,1,0,0:0:0:0:
127,307,32501,1,0,0:0:0:0:
115,333,32585,1,0,0:0:0:0:
84,351,32668,5,2,0:0:0:0:
17,328,32751,1,0,0:0:0:0:
0,260,32834,1,0,0:0:0:0:
47,208,32918,1,0,0:0:0:0:
129,215,33001,6,0,L|117:283,1,58.4999973220826,2|0,0:0|0:0,0:0:0:0:
233,163,33168,2,0,L|250:83,1,58.4999973220826,2|0,0:0|0:0,0:0:0:0:
308,302,33335,5,2,0:0:0:0:
348,324,33418,1,0,0:0:0:0:
393,320,33501,1,0,0:0:0:0:
428,289,33585,1,0,0:0:0:0:
439,245,33668,1,8,0:0:0:0:
424,201,33751,1,0,0:0:0:0:
386,180,33835,1,0,0:0:0:0:
350,150,33918,1,0,0:0:0:0:
352,102,34001,6,2,B|355:76|355:76|381:34,1,58.4999973220826,2|2,2:0|0:0,0:0:0:0:
425,143,34168,2,0,B|430:174|430:174|420:213,1,58.4999973220826,2|0,2:0|0:0,0:0:0:0:
303,230,34335,2,0,B|306:204|306:204|332:162,3,58.4999973220826,8|0|0|0,0:0|0:0|0:0|0:0,0:0:0:0:
399,290,34668,5,2,0:0:0:0:
362,323,34751,1,0,0:0:0:0:
314,338,34834,1,0,0:0:0:0:
265,333,34918,1,0,0:0:0:0:
222,308,35001,1,8,0:0:0:0:
193,268,35084,1,0,0:0:0:0:
183,219,35168,1,0,0:0:0:0:
193,170,35251,1,0,0:0:0:0:
228,135,35335,5,2,0:0:0:0:
293,157,35418,1,0,0:0:0:0:
301,226,35501,1,0,0:0:0:0:
242,263,35585,1,0,0:0:0:0:
183,219,35668,2,0,P|164:249|157:314,1,58.4999973220826,2|0,0:0|0:0,0:0:0:0:
293,157,35835,2,0,P|308:138|324:101,1,58.4999973220826,2|0,0:0|0:0,0:0:0:0:
75,85,36001,5,2,0:0:0:0:
75,115,36084,1,0,0:0:0:0:
75,144,36167,1,0,0:0:0:0:
75,173,36251,1,0,0:0:0:0:
74,202,36334,1,8,0:0:0:0:
74,232,36417,1,0,0:0:0:0:
74,261,36501,1,0,0:0:0:0:
74,290,36585,1,0,0:0:0:0:
74,318,36668,6,0,P|75:351|66:378,2,58.4999973220826,8|0|0,0:0|0:0|0:0,0:0:0:0:
158,317,36918,2,0,P|156:346|164:374,2,58.4999973220826,8|0|0,0:0|0:0|0:0,0:0:0:0:
164,200,37168,1,0,0:0:0:0:
164,200,37251,1,0,0:0:0:0:
164,200,37335,5,2,0:0:0:0:
215,174,37418,1,0,0:0:0:0:
272,184,37501,1,0,0:0:0:0:
312,214,37585,1,0,0:0:0:0:
363,240,37668,1,8,0:0:0:0:
420,230,37751,1,0,0:0:0:0:
460,182,37835,1,0,0:0:0:0:
458,124,37918,1,0,0:0:0:0:
412,76,38001,5,2,0:0:0:0:
354,110,38084,1,0,0:0:0:0:
328,173,38167,1,0,0:0:0:0:
343,237,38251,1,0,0:0:0:0:
378,292,38335,1,8,0:0:0:0:
349,352,38418,1,0,0:0:0:0:
287,376,38501,1,0,0:0:0:0:
225,351,38585,1,0,0:0:0:0:
192,292,38668,6,0,L|129:298,3,58.4999973220826,2|0|0|0,0:0|0:0|0:0|0:0,0:0:0:0:
275,232,39001,2,0,L|379:213,3,58.4999973220826,8|0|0|0,0:0|0:0|0:0|0:0,0:0:0:0:
330,137,39335,5,2,0:0:0:0:
315,83,39418,1,0,0:0:0:0:
258,65,39501,1,0,0:0:0:0:
199,84,39585,1,0,0:0:0:0:
174,135,39668,1,8,0:0:0:0:
188,191,39751,1,0,0:0:0:0:
227,222,39835,1,0,0:0:0:0:
245,275,39918,1,0,0:0:0:0:
218,325,40001,5,2,0:0:0:0:
198,271,40084,1,0,0:0:0:0:
227,223,40167,1,0,0:0:0:0:
280,216,40251,1,0,0:0:0:0:
330,158,40335,5,8,0:0:0:0:
326,82,40417,1,0,0:0:0:0:
271,30,40501,1,0,0:0:0:0:
195,30,40584,1,0,0:0:0:0:
140,83,40667,5,2,0:0:0:0:
138,159,40751,1,0,0:0:0:0:
186,217,40835,1,0,0:0:0:0:
196,287,40918,1,0,0:0:0:0:
157,347,41001,1,8,0:0:0:0:
88,365,41085,1,0,0:0:0:0:
24,333,41168,1,0,0:0:0:0:
2,263,41251,1,0,0:0:0:0:
40,189,41335,6,0,P|68:210|95:288,1,90,2|0,0:0|0:0,0:0:0:0:
88,365,41668,2,0,L|96:303,2,45,2|0|0,0:0|0:0|0:0,0:0:0:0:
138,159,42001,1,0,0:0:0:0:
217,299,42168,1,0,0:0:0:0:
49,193,42335,2,0,P|59:132|111:68,1,135,2|0,0:0|0:0,0:0:0:0:
138,159,42668,5,2,0:0:0:0:
299,160,42835,1,2,0:0:0:0:
299,160,42918,1,2,0:0:0:0:
299,160,43001,1,2,0:0:0:0:
169,285,43168,1,2,0:0:0:0:
359,106,43335,1,0,0:0:0:0:
265,341,43501,1,2,0:0:0:0:
253,57,43668,1,2,0:0:0:0:
253,57,43752,1,2,0:0:0:0:
253,57,43835,1,2,0:0:0:0:
289,215,44001,5,2,0:0:0:0:
136,103,44168,1,2,0:0:0:0:
333,124,44335,1,2,0:0:0:0:
198,238,44501,1,2,0:0:0:0:
253,57,44668,1,2,0:0:0:0:
285,308,44835,1,2,0:0:0:0:
285,308,44918,1,2,0:0:0:0:
285,308,45001,2,0,L|276:376,1,58.4999973220826,2|0,0:0|0:0,0:0:0:0:
363,247,45168,2,0,L|370:323,1,58.4999973220826,2|0,0:0|0:0,0:0:0:0:
373,377,45335,5,2,0:0:0:0:
363,44,45501,1,0,0:0:0:0:
363,247,45668,1,8,0:0:0:0:
363,247,45751,1,8,0:0:0:0:
363,247,45835,1,8,0:0:0:0:
248,50,46001,5,2,0:0:0:0:
128,298,46168,1,2,0:0:0:0:
155,99,46335,1,2,0:0:0:0:
265,384,46501,1,2,0:0:0:0:
252,144,46668,6,0,P|221:166|200:215,1,58.4999973220826,2|0,0:0|0:0,0:0:0:0:
294,246,46835,2,0,P|330:247|365:226,1,58.4999973220826,2|0,0:0|0:0,0:0:0:0:
330,97,47001,2,0,P|281:57|252:51,1,58.4999973220826,2|0,0:0|0:0,0:0:0:0:
138,244,47168,2,0,P|162:259|191:265,1,58.4999973220826,2|0,0:0|0:0,0:0:0:0:
393,114,47335,5,10,0:0:0:0:
393,114,47418,1,10,0:0:0:0:
393,114,47501,2,0,L|393:198,1,58.4999973220826,10|0,0:0|0:0,0:0:0:0:
322,309,47668,2,0,P|327:285|345:258,1,58.4999973220826,8|0,0:0|0:0,0:0:0:0:
471,255,47835,1,2,0:0:0:0:
457,52,48001,5,2,0:0:0:0:
277,196,48168,2,0,L|277:229,1,33.7500012874604,8|0,0:0|0:0,0:0:0:0:
319,50,48335,2,0,L|319:16,1,33.7500012874604,8|0,0:0|0:0,0:0:0:0:
333,328,48501,1,2,0:0:0:0:
243,78,48668,1,2,0:0:0:0:
196,262,48835,2,0,L|200:322,1,33.7500012874604,8|0,0:0|0:0,0:0:0:0:
437,181,49001,2,0,L|463:160,1,33.7500012874604,8|0,0:0|0:0,0:0:0:0:
110,145,49168,5,2,0:0:0:0:
386,160,49335,1,2,0:0:0:0:
386,160,49418,1,2,0:0:0:0:
386,160,49501,2,0,L|394:213,1,33.7500012874604,2|0,0:0|0:0,0:0:0:0:
334,277,49668,2,0,L|328:241,1,33.7500012874604,2|0,0:0|0:0,0:0:0:0:
277,70,49835,1,2,0:0:0:0:
191,319,50001,2,0,L|211:366,1,33.7500012874604,2|0,0:0|0:0,0:0:0:0:
115,214,50168,5,10,0:0:0:0:
64,207,50251,1,8,0:0:0:0:
20,198,50335,1,8,0:0:0:0:
328,243,50501,1,2,0:0:0:0:
87,272,50668,5,2,0:0:0:0:
87,272,50751,1,0,0:0:0:0:
87,272,50835,1,0,0:0:0:0:
191,319,51001,2,0,L|213:368,1,33.7500012874604,2|0,0:0|0:0,0:0:0:0:
20,198,51168,5,2,0:0:0:0:
231,125,51335,1,2,0:0:0:0:
90,59,51501,5,2,0:0:0:0:
191,319,51668,1,8,0:0:0:0:
131,172,51835,1,2,0:0:0:0:
387,258,52001,6,0,L|398:221,1,33.7500012874604,2|0,0:0|0:0,0:0:0:0:
345,67,52168,2,0,L|330:102,1,33.7500012874604,2|0,0:0|0:0,0:0:0:0:
280,243,52335,2,0,L|295:207,1,33.7500012874604,2|0,0:0|0:0,0:0:0:0:
242,61,52501,2,0,L|231:98,1,33.7500012874604,2|0,0:0|0:0,0:0:0:0:
133,183,52668,5,2,2:0:0:0:
160,163,52751,1,2,2:0:0:0:
200,179,52835,1,2,2:0:0:0:
208,216,52918,1,2,2:0:0:0:
184,246,53001,6,0,P|137:177|184:109,1,175.499991966248,12|0,2:0|0:0,0:0:0:0:
375,21,53335,5,2,0:0:0:0:
393,79,53418,1,0,0:0:0:0:
372,138,53501,1,0,0:0:0:0:
321,171,53585,1,0,0:0:0:0:
269,213,53668,1,8,0:0:0:0:
251,272,53751,1,0,0:0:0:0:
271,331,53834,1,0,0:0:0:0:
323,364,53918,1,0,0:0:0:0:
386,360,54001,5,2,0:0:0:0:
438,327,54085,1,0,0:0:0:0:
459,267,54168,1,0,0:0:0:0:
440,209,54251,1,0,0:0:0:0:
389,167,54334,1,8,0:0:0:0:
337,134,54418,1,0,0:0:0:0:
316,74,54501,1,0,0:0:0:0:
335,16,54584,1,0,0:0:0:0:
394,0,54668,5,2,0:0:0:0:
436,49,54751,1,0,0:0:0:0:
441,105,54834,1,0,0:0:0:0:
404,154,54918,1,0,0:0:0:0:
343,171,55001,1,8,0:0:0:0:
288,201,55084,1,0,0:0:0:0:
271,259,55167,1,0,0:0:0:0:
299,314,55251,1,0,0:0:0:0:
366,303,55335,5,2,0:0:0:0:
313,270,55418,1,0,0:0:0:0:
251,271,55501,1,0,0:0:0:0:
201,307,55585,1,0,0:0:0:0:
182,365,55668,5,8,0:0:0:0:
218,315,55751,1,0,0:0:0:0:
215,253,55834,1,0,0:0:0:0:
175,207,55918,1,0,0:0:0:0:
116,196,56001,5,2,0:0:0:0:
185,238,56084,1,0,0:0:0:0:
261,211,56168,1,8,0:0:0:0:
288,135,56251,1,0,0:0:0:0:
247,56,56335,5,2,0:0:0:0:
186,107,56419,1,0,0:0:0:0:
188,189,56502,1,8,0:0:0:0:
254,237,56585,1,0,0:0:0:0:
329,192,56668,5,2,0:0:0:0:
421,197,56751,1,0,0:0:0:0:
466,277,56834,1,8,0:0:0:0:
424,357,56918,1,0,0:0:0:0:
349,296,57001,1,2,0:0:0:0:
329,192,57085,1,0,0:0:0:0:
375,97,57167,5,8,0:0:0:0:
469,50,57251,5,8,0:0:0:0:
512,126,57335,6,0,L|477:282,1,157.5,4|0,2:0|0:0,0:0:0:0:
443,364,58001,5,2,0:0:0:0:
413,353,58084,1,2,0:0:0:0:
379,337,58167,1,2,0:0:0:0:
347,313,58251,1,2,0:0:0:0:
313,297,58335,5,8,0:0:0:0:
246,248,58418,1,0,0:0:0:0:
237,159,58501,2,0,P|248:126|271:103,1,58.4999973220826,10|0,0:0|0:0,0:0:0:0:
179,278,58668,2,0,L|180:337,1,58.4999973220826,10|0,0:0|0:0,0:0:0:0:
9,120,58835,5,2,0:0:0:0:
34,54,58918,1,2,0:0:0:0:
96,20,59001,1,2,0:0:0:0:
167,34,59085,1,2,0:0:0:0:
211,90,59168,1,2,0:0:0:0:
207,161,59251,1,2,0:0:0:0:
156,209,59335,6,8,L|238:213,1,58.4999973220826,10|8,0:0|0:0,0:0:0:0:
295,96,59501,2,0,L|281:39,1,58.4999973220826,2|0,0:0|0:0,0:0:0:0:
403,210,59668,5,2,2:0:0:0:
438,254,59751,1,2,2:0:0:0:
479,300,59835,1,2,2:0:0:0:
322,254,60001,5,2,2:0:0:0:
281,208,60085,1,2,2:0:0:0:
246,164,60168,1,2,2:0:0:0:
424,231,60335,5,2,2:0:0:0:
465,281,60418,1,2,2:0:0:0:
512,334,60502,1,2,2:0:0:0:
332,281,60668,5,2,2:0:0:0:
285,229,60752,1,2,2:0:0:0:
244,178,60835,1,2,2:0:0:0:
199,119,60918,5,2,2:0:0:0:
262,87,61001,1,2,2:0:0:0:
332,98,61085,1,2,2:0:0:0:
388,133,61168,1,2,2:0:0:0:
457,143,61251,1,2,2:0:0:0:
512,102,61335,1,2,2:0:0:0:
362,306,61501,5,8,0:0:0:0:
362,306,61585,1,8,0:0:0:0:
362,306,61668,1,8,0:0:0:0:
235,74,61835,1,0,0:0:0:0:
463,179,62001,1,0,0:0:0:0:
207,225,62168,1,8,0:0:0:0:
395,64,62335,1,8,0:0:0:0:
395,64,62418,1,8,0:0:0:0:
395,64,62501,1,8,0:0:0:0:
395,64,62668,5,2,0:0:0:0:
395,64,62835,5,2,0:0:0:0:
364,113,62918,1,0,0:0:0:0:
360,171,63001,1,0,0:0:0:0:
381,225,63085,1,0,0:0:0:0:
414,276,63168,1,2,0:0:0:0:
394,329,63251,1,0,0:0:0:0:
345,360,63334,1,0,0:0:0:0:
289,346,63418,1,0,0:0:0:0:
258,304,63501,5,2,0:0:0:0:
214,267,63585,1,0,0:0:0:0:
156,261,63668,1,0,0:0:0:0:
120,282,63751,1,0,0:0:0:0:
94,304,63835,1,8,0:0:0:0:
68,328,63918,1,0,0:0:0:0:
32,356,64001,6,0,L|25:273,1,58.4999973220826,2|0,0:0|0:0,0:0:0:0:
5,113,64168,1,2,0:0:0:0:
207,239,64335,1,2,0:0:0:0:
39,194,64501,5,2,0:0:0:0:
251,58,64668,1,2,0:0:0:0:
151,327,64835,1,2,0:0:0:0:
155,119,65001,2,0,L|153:35,1,58.4999973220826,2|0,0:0|0:0,0:0:0:0:
247,326,65168,2,0,L|249:419,1,58.4999973220826,2|0,0:0|0:0,0:0:0:0:
374,121,65335,1,2,0:0:0:0:
233,210,65502,1,2,0:0:0:0:
401,196,65669,5,2,0:0:0:0:
155,119,65835,1,2,0:0:0:0:
325,327,66002,1,2,0:0:0:0:
305,71,66169,1,2,0:0:0:0:
142,259,66335,2,0,P|174:263|240:245,1,58.4999973220826,2|0,0:0|0:0,0:0:0:0:
401,196,66501,2,0,P|372:189|297:191,1,58.4999973220826,2|0,0:0|0:0,0:0:0:0:
225,120,66668,5,2,0:0:0:0:
225,120,66751,1,2,0:0:0:0:
225,120,66835,1,2,0:0:0:0:
454,96,67001,1,8,0:0:0:0:
369,293,67168,2,0,L|370:196,1,58.4999973220826
225,120,67335,6,0,L|289:124,1,58.4999973220826,2|0,0:0|0:0,0:0:0:0:
427,295,67501,2,0,L|336:291,1,58.4999973220826,2|0,0:0|0:0,0:0:0:0:
68,115,67668,6,0,L|132:119,1,58.4999973220826,2|0,0:0|0:0,0:0:0:0:
270,290,67835,2,0,L|179:286,1,58.4999973220826,2|0,0:0|0:0,0:0:0:0:
22,300,68001,5,2,0:0:0:0:
126,118,68167,1,2,0:0:0:0:
126,118,68251,1,2,0:0:0:0:
126,118,68334,1,2,0:0:0:0:
211,287,68501,1,0,0:0:0:0:
35,98,68668,6,0,L|78:20,1,58.4999973220826,2|0,0:0|0:0,0:0:0:0:
44,246,68835,2,0,L|14:317,1,58.4999973220826,2|0,0:0|0:0,0:0:0:0:
153,61,69001,6,0,L|164:34,3,22.5,8|0|0|0,2:0|2:0|2:0|2:0,2:0:0:0:
310,280,69335,5,2,0:0:0:0:
331,226,69418,1,0,0:0:0:0:
310,176,69501,1,0,0:0:0:0:
256,155,69584,1,0,0:0:0:0:
207,179,69668,1,0,0:0:0:0:
189,231,69751,1,0,0:0:0:0:
214,280,69834,1,0,0:0:0:0:
268,296,69918,1,0,0:0:0:0:
310,280,70001,6,8,P|316:319|308:356,2,58.4999973220826
81,165,70335,2,0,L|22:167,1,58.4999973220826,2|0,0:0|0:0,0:0:0:0:
140,70,70501,2,0,L|197:68,1,58.4999973220826,2|0,0:0|0:0,0:0:0:0:
310,280,70668,5,2,2:0:0:0:
299,223,70751,1,2,2:0:0:0:
291,164,70834,1,2,2:0:0:0:
171,144,71001,5,2,2:0:0:0:
161,219,71084,1,2,2:0:0:0:
151,294,71167,1,2,2:0:0:0:
341,98,71335,6,0,L|404:86,1,58.4999973220826,2|0,0:0|0:0,0:0:0:0:
450,225,71501,2,0,L|471:151,1,58.4999973220826,2|0,0:0|0:0,0:0:0:0:
261,181,71668,6,0,L|330:172,1,58.4999973220826,2|0,0:0|0:0,0:0:0:0:
341,293,71835,2,0,L|371:213,1,58.4999973220826,2|0,0:0|0:0,0:0:0:0:
165,316,72001,5,2,0:0:0:0:
341,98,72168,1,8,0:0:0:0:
341,98,72251,1,8,0:0:0:0:
341,98,72335,1,8,0:0:0:0:
90,99,72501,1,2,0:0:0:0:
291,329,72668,1,2,0:0:0:0:
252,63,72835,1,2,0:0:0:0:
252,63,72918,1,2,0:0:0:0:
252,63,73001,6,0,L|271:143,1,58.4999973220826,2|0,0:0|0:0,0:0:0:0:
327,226,73168,2,0,B|300:245|300:245|233:257,1,58.4999973220826,2|0,0:0|0:0,0:0:0:0:
430,74,73335,1,2,0:0:0:0:
46,175,73501,5,2,0:0:0:0:
12,226,73584,1,0,0:0:0:0:
16,286,73667,1,0,0:0:0:0:
54,334,73750,1,0,0:0:0:0:
115,330,73835,1,8,0:0:0:0:
167,296,73918,1,0,0:0:0:0:
214,257,74001,1,0,0:0:0:0:
275,250,74084,1,0,0:0:0:0:
333,272,74167,1,2,0:0:0:0:
374,319,74250,1,0,0:0:0:0:
384,260,74335,5,0,0:0:0:0:
391,197,74418,1,2,0:0:0:0:
398,135,74501,1,8,0:0:0:0:
405,73,74584,1,0,0:0:0:0:
412,18,74668,6,0,L|310:57,1,58.4999973220826,2|0,0:0|0:0,0:0:0:0:
149,46,74835,2,0,L|227:63,1,58.4999973220826,2|0,0:0|0:0,0:0:0:0:
339,181,75001,1,2,0:0:0:0:
282,22,75168,1,2,0:0:0:0:
233,320,75335,1,2,0:0:0:0:
353,97,75501,1,2,0:0:0:0:
359,317,75668,2,0,L|362:398,1,58.4999973220826,2|0,0:0|0:0,0:0:0:0:
263,193,75835,2,0,L|257:95,1,58.4999973220826,2|0,0:0|0:0,0:0:0:0:
392,49,76001,5,2,0:0:0:0:
146,140,76168,1,2,0:0:0:0:
396,148,76335,1,2,0:0:0:0:
125,54,76501,1,2,0:0:0:0:
421,40,76668,1,2,0:0:0:0:
107,143,76835,1,2,0:0:0:0:
424,226,77001,6,0,P|427:267|401:317,1,58.4999973220826,2|0,0:0|0:0,0:0:0:0:
285,40,77168,2,0,L|348:26,1,58.4999973220826,2|0,0:0|0:0,0:0:0:0:
249,228,77335,1,2,0:0:0:0:
430,105,77501,1,10,2:0:0:0:
440,145,77585,1,0,2:0:0:0:
429,181,77668,1,0,2:0:0:0:
411,214,77751,1,0,2:0:0:0:
400,250,77835,1,2,2:0:0:0:
410,290,77918,1,0,2:0:0:0:
437,312,78001,6,0,P|457:340|461:373,1,58.4999973220826,2|0,0:0|0:0,0:0:0:0:
186,234,78168,2,0,L|123:250,1,58.4999973220826,2|0,0:0|0:0,0:0:0:0:
368,159,78335,2,0,L|478:162,1,58.4999973220826,2|0,0:0|0:0,0:0:0:0:
253,335,78501,1,2,0:0:0:0:
214,147,78668,5,2,0:0:0:0:
214,147,78751,1,2,0:0:0:0:
214,147,78835,2,0,L|107:152,1,58.4999973220826,2|0,0:0|0:0,0:0:0:0:
305,261,79001,2,0,L|390:259,1,58.4999973220826,2|0,0:0|0:0,0:0:0:0:
61,80,79168,2,0,L|-22:79,1,58.4999973220826,2|0,0:0|0:0,0:0:0:0:
349,82,79335,5,2,2:0:0:0:
425,92,79418,5,2,2:0:0:0:
476,153,79501,5,2,2:0:0:0:
473,231,79584,5,2,2:0:0:0:
421,293,79668,6,0,P|387:313|350:312,3,58.4999973220826,4|0|0|0,2:0|0:0|0:0|0:0,0:0:0:0:
186,153,80001,5,2,0:0:0:0:
152,130,80084,1,0,0:0:0:0:
113,142,80167,1,0,0:0:0:0:
97,180,80250,1,0,0:0:0:0:
116,215,80335,1,8,0:0:0:0:
155,225,80417,1,0,0:0:0:0:
187,200,80500,1,0,0:0:0:0:
189,160,80584,1,0,0:0:0:0:
206,104,80668,5,2,0:0:0:0:
256,77,80751,1,0,0:0:0:0:
311,92,80834,1,0,0:0:0:0:
340,142,80918,1,0,0:0:0:0:
326,197,81001,1,8,0:0:0:0:
278,227,81084,1,0,0:0:0:0:
251,277,81168,1,0,0:0:0:0:
275,328,81251,1,0,0:0:0:0:
311,358,81335,5,2,0:0:0:0:
274,314,81418,1,0,0:0:0:0:
219,295,81501,1,0,0:0:0:0:
162,307,81586,1,0,0:0:0:0:
113,335,81668,1,8,0:0:0:0:
58,318,81752,1,0,0:0:0:0:
33,267,81834,1,0,0:0:0:0:
34,210,81917,1,0,0:0:0:0:
72,166,82001,5,2,0:0:0:0:
128,157,82085,1,0,0:0:0:0:
178,186,82168,1,0,0:0:0:0:
215,229,82251,1,0,0:0:0:0:
278,233,82335,1,8,0:0:0:0:
315,183,82418,1,0,0:0:0:0:
299,122,82501,1,0,0:0:0:0:
259,163,82584,1,0,0:0:0:0:
245,220,82667,5,2,0:0:0:0:
260,275,82750,1,0,0:0:0:0:
302,316,82834,1,0,0:0:0:0:
332,269,82917,1,0,0:0:0:0:
341,214,83001,1,8,0:0:0:0:
334,165,83084,1,0,0:0:0:0:
299,122,83168,1,0,0:0:0:0:
259,163,83251,1,0,0:0:0:0:
245,220,83335,6,0,P|206:214|151:179,3,58.4999973220826,2|0|0|0,0:0|0:0|0:0|0:0,0:0:0:0:
399,51,83668,2,0,P|403:84|394:133,3,58.4999973220826,8|0|0|0,0:0|0:0|0:0|0:0,0:0:0:0:
400,222,84001,5,2,0:0:0:0:
400,251,84084,1,0,0:0:0:0:
400,280,84167,1,0,0:0:0:0:
401,309,84250,1,0,0:0:0:0:
401,338,84335,5,8,0:0:0:0:
351,365,84418,1,0,0:0:0:0:
298,344,84501,1,0,0:0:0:0:
281,290,84584,1,0,0:0:0:0:
319,239,84668,1,2,0:0:0:0:
372,257,84751,1,0,0:0:0:0:
394,310,84834,1,0,0:0:0:0:
361,357,84918,1,0,0:0:0:0:
308,334,85001,5,8,0:0:0:0:
287,272,85085,1,0,0:0:0:0:
234,240,85168,1,0,0:0:0:0:
179,254,85251,1,0,0:0:0:0:
138,292,85335,6,0,L|131:191,3,58.4999973220826,2|0|0|0,0:0|0:0|0:0|0:0,0:0:0:0:
215,129,85668,2,0,L|208:28,3,58.4999973220826,8|0|0|0,0:0|0:0|0:0|0:0,0:0:0:0:
419,339,86001,5,2,0:0:0:0:
451,292,86084,1,0,0:0:0:0:
458,234,86167,1,0,0:0:0:0:
435,181,86250,1,0,0:0:0:0:
390,144,86335,1,8,0:0:0:0:
333,136,86417,1,0,0:0:0:0:
278,154,86500,1,0,0:0:0:0:
240,197,86584,1,0,0:0:0:0:
215,248,86668,5,2,0:0:0:0:
161,267,86751,1,0,0:0:0:0:
109,244,86834,1,0,0:0:0:0:
87,191,86918,1,0,0:0:0:0:
109,139,87001,1,8,0:0:0:0:
161,120,87085,1,0,0:0:0:0:
212,144,87168,1,0,0:0:0:0:
239,195,87251,1,0,0:0:0:0:
215,248,87335,6,0,L|231:312,3,58.4999973220826,2|0|0|0,0:0|0:0|0:0|0:0,0:0:0:0:
358,54,87668,2,0,L|269:83,3,58.4999973220826,8|0|0|0,0:0|0:0|0:0|0:0,0:0:0:0:
386,202,88001,5,2,0:0:0:0:
407,242,88084,1,0,0:0:0:0:
398,286,88167,1,0,0:0:0:0:
361,314,88250,1,0,0:0:0:0:
315,311,88335,1,8,0:0:0:0:
283,279,88417,1,0,0:0:0:0:
238,243,88501,1,0,0:0:0:0:
181,243,88584,1,0,0:0:0:0:
135,278,88667,5,2,0:0:0:0:
80,292,88751,1,0,0:0:0:0:
33,260,88834,1,0,0:0:0:0:
26,204,88917,1,0,0:0:0:0:
62,160,89001,5,8,0:0:0:0:
77,211,89084,1,0,0:0:0:0:
26,224,89167,1,0,0:0:0:0:
13,173,89250,1,0,0:0:0:0:
41,107,89335,5,0,0:0:0:0:
103,53,89418,5,0,0:0:0:0:
185,56,89501,5,0,0:0:0:0:
245,113,89585,5,0,0:0:0:0:
252,195,89668,5,0,0:0:0:0:
204,260,89751,5,0,0:0:0:0:
123,274,89835,5,0,0:0:0:0:
57,228,89918,5,0,0:0:0:0:
27,150,90001,6,0,L|24:62,3,58.4999973220826,2|0|0|0,0:0|0:0|0:0|0:0,0:0:0:0:
245,113,90335,6,0,B|174:222|323:208|225:338,1,216,4|0,2:0|0:0,0:0:0:0:
354,281,90668,5,2,0:0:0:0:
387,212,90751,1,0,0:0:0:0:
344,152,90834,1,0,0:0:0:0:
270,163,90917,1,0,0:0:0:0:
246,232,91001,5,8,0:0:0:0:
288,292,91084,1,0,0:0:0:0:
250,355,91167,1,0,0:0:0:0:
177,346,91251,1,0,0:0:0:0:
157,275,91335,5,2,0:0:0:0:
95,234,91418,1,0,0:0:0:0:
29,267,91501,1,0,0:0:0:0:
29,341,91584,1,0,0:0:0:0:
94,378,91668,5,8,0:0:0:0:
157,336,91751,1,0,0:0:0:0:
164,261,91834,1,0,0:0:0:0:
110,209,91917,1,0,0:0:0:0:
83,134,92001,5,2,0:0:0:0:
104,60,92084,1,0,0:0:0:0:
174,30,92167,1,0,0:0:0:0:
239,66,92250,1,0,0:0:0:0:
267,145,92335,5,8,0:0:0:0:
347,182,92418,1,0,0:0:0:0:
420,131,92501,1,0,0:0:0:0:
411,42,92584,1,0,0:0:0:0:
331,14,92668,6,0,P|324:43|330:71,3,58.4999973220826,2|0|0|0,3:0|3:0|3:0|3:0,3:0:0:0:
431,306,93001,2,0,P|439:278|437:249,3,58.4999973220826,2|0|0|0,0:0|0:0|0:0|0:0,0:0:0:0:
125,22,93335,5,2,0:0:0:0:
197,12,93418,1,0,0:0:0:0:
251,63,93501,1,0,0:0:0:0:
249,139,93584,1,0,0:0:0:0:
191,186,93668,1,8,0:0:0:0:
123,218,93751,1,0,0:0:0:0:
106,290,93834,1,0,0:0:0:0:
154,348,93917,1,0,0:0:0:0:
228,348,94001,1,2,0:0:0:0:
274,290,94085,1,0,0:0:0:0:
337,247,94168,1,0,0:0:0:0:
412,250,94251,1,0,0:0:0:0:
473,295,94335,5,8,0:0:0:0:
422,238,94418,1,0,0:0:0:0:
396,166,94501,1,0,0:0:0:0:
401,89,94584,1,0,0:0:0:0:
461,36,94668,5,2,0:0:0:0:
455,94,94751,1,0,0:0:0:0:
401,117,94834,1,0,0:0:0:0:
354,81,94917,1,0,0:0:0:0:
293,38,95001,1,8,0:0:0:0:
218,55,95084,1,0,0:0:0:0:
181,119,95167,1,0,0:0:0:0:
204,192,95251,1,0,0:0:0:0:
236,261,95335,5,2,0:0:0:0:
216,339,95418,1,0,0:0:0:0:
151,383,95501,1,0,0:0:0:0:
72,374,95585,1,0,0:0:0:0:
19,314,95668,6,0,L|13:214,1,58.4999973220826,2|0,0:0|0:0,0:0:0:0:
181,29,95835,2,0,L|188:115,1,58.4999973220826,2|0,0:0|0:0,0:0:0:0:
429,295,96001,5,2,2:0:0:0:
497,253,96084,1,0,2:0:0:0:
492,176,96167,1,0,2:0:0:0:
421,143,96250,1,0,2:0:0:0:
349,173,96334,5,8,0:0:0:0:
328,248,96417,1,0,0:0:0:0:
251,259,96500,1,0,0:0:0:0:
210,193,96584,1,0,0:0:0:0:
254,129,96668,5,2,0:0:0:0:
248,50,96751,1,0,0:0:0:0:
176,19,96834,1,0,0:0:0:0:
117,68,96917,1,0,0:0:0:0:
154,140,97001,5,8,0:0:0:0:
210,193,97084,1,0,3:0:0:0:
197,272,97167,1,0,3:0:0:0:
126,304,97250,1,0,3:0:0:0:
59,264,97335,5,2,0:0:0:0:
76,185,97418,1,0,0:0:0:0:
146,147,97501,1,0,0:0:0:0:
220,178,97584,1,0,0:0:0:0:
280,238,97668,5,8,0:0:0:0:
354,210,97751,1,0,0:0:0:0:
379,133,97834,1,0,0:0:0:0:
339,65,97917,1,0,0:0:0:0:
253,63,98001,5,2,0:0:0:0:
323,0,98084,1,0,0:0:0:0:
412,29,98167,1,0,0:0:0:0:
433,121,98250,1,0,0:0:0:0:
367,186,98334,5,8,0:0:0:0:
309,259,98418,1,0,3:0:0:0:
347,346,98501,1,0,3:0:0:0:
440,357,98584,1,0,3:0:0:0:
501,284,98668,5,2,0:0:0:0:
492,247,98751,1,0,0:0:0:0:
484,210,98834,1,0,0:0:0:0:
476,173,98917,1,0,0:0:0:0:
337,57,99001,5,2,0:0:0:0:
346,101,99084,1,0,0:0:0:0:
356,147,99167,1,0,0:0:0:0:
366,193,99250,1,0,0:0:0:0:
307,381,99335,5,2,0:0:0:0:
295,334,99418,1,0,0:0:0:0:
286,286,99501,1,0,0:0:0:0:
271,233,99585,1,0,0:0:0:0:
260,193,99668,6,0,L|241:113,1,58.4999973220826,8|0,0:0|0:0,0:0:0:0:
134,25,99835,5,2,2:0:0:0:
124,75,99918,1,2,2:0:0:0:
164,107,100001,5,2,2:0:0:0:
174,160,100084,1,2,2:0:0:0:
126,195,100168,5,2,2:0:0:0:
122,242,100252,1,2,2:0:0:0:
173,268,100335,5,2,2:0:0:0:
182,309,100418,1,2,2:0:0:0:
141,340,100501,5,2,2:0:0:0:
128,381,100585,1,2,2:0:0:0:
277,323,100667,5,2,0:0:0:0:
329,271,100751,1,2,0:0:0:0:
277,220,100834,1,2,0:0:0:0:
225,272,100918,1,2,0:0:0:0:
276,345,101001,6,0,L|274:134,1,175.499991966248,10|0,2:0|0:0,0:0:0:0:
274,81,101335,5,4,2:0:0:0:
