osu file format v14

[General]
AudioFilename: audio.mp3
AudioLeadIn: 0
PreviewTime: 58668
Countdown: 1
SampleSet: Normal
StackLeniency: 0.7
Mode: 0
LetterboxInBreaks: 0
WidescreenStoryboard: 0

[Editor]
Bookmarks: 32835
DistanceSpacing: 0.8
BeatDivisor: 4
GridSize: 32
TimelineZoom: 3.599999

[Metadata]
Title:Doki-Doki
TitleUnicode:どきどき
Artist:Thaehan
ArtistUnicode:Thaehan
Creator:blueloniess
Version:bluelon
Source:
Tags:Loki Power Up Electronic Chiptune bluelon
BeatmapID:1865281
BeatmapSetID:892304

[Difficulty]
HPDrainRate:5
CircleSize:4
OverallDifficulty:9
ApproachRate:9.6
SliderMultiplier:1.6
SliderTickRate:1

[Events]
//Background and Video events
0,0,"bg.jpg",0,0
//Break Periods
//Storyboard Layer 0 (Background)
//Storyboard Layer 1 (Fail)
//Storyboard Layer 2 (Pass)
//Storyboard Layer 3 (Foreground)
//Storyboard Sound Samples

[TimingPoints]
2,333.333333333333,4,1,1,70,1,0
668,-100,4,1,1,70,0,0
1335,-66.6666666666667,4,1,1,70,0,0
2668,-100,4,1,1,70,0,0
5335,-50,4,1,1,70,0,0
8001,-66.6666666666667,4,1,1,70,0,0
10335,-33.3333333333333,4,1,1,70,0,0
10668,-50,4,1,1,70,0,0
21335,-100,4,1,1,70,0,0
24001,-100,4,1,1,70,0,0
26668,-50,4,1,1,70,0,0
28001,-100,4,1,1,70,0,0
29668,-66.6666666666667,4,1,1,70,0,0
30668,-200,4,1,1,70,0,0
31085,-100,4,1,1,70,0,0
32001,-83.3333333333333,4,1,1,70,0,0
41335,-133.333333333333,4,1,1,70,0,0
42668,-100,4,1,1,70,0,0
52001,-133.333333333333,4,1,1,70,0,0
53335,-100,4,1,1,70,0,0
54001,-83.3333333333333,4,1,1,70,0,0
54668,-66.6666666666667,4,1,1,70,0,0
55335,-58.8235294117647,4,1,1,70,0,0
56001,-50,4,1,1,70,0,0
57335,-200,4,1,1,70,0,0
58001,-100,4,1,1,70,0,0
58668,-50,4,1,1,70,0,0
69335,-66.6666666666667,4,1,1,70,0,0
70668,-50,4,1,1,70,0,0
80001,-66.6666666666667,4,1,1,70,0,0
84001,-100,4,1,1,70,0,0
89335,-133.333333333333,4,1,1,70,0,0
90335,-66.6666666666667,4,1,1,70,0,0
90668,-100,4,1,1,70,0,0
96001,-66.6666666666667,4,1,1,70,0,0
98668,-133.333333333333,4,1,1,70,0,0
100001,-100,4,1,1,70,0,0

[HitObjects]
455,71,2,5,0,0:0:0:0:
368,153,168,1,0,0:0:0:0:
328,151,251,1,0,0:0:0:0:
293,132,334,1,0,0:0:0:0:
271,99,417,1,0,0:0:0:0:
265,60,501,5,0,0:0:0:0:
285,57,584,1,0,0:0:0:0:
304,54,667,1,0,0:0:0:0:
324,50,750,1,0,0:0:0:0:
344,47,834,1,0,0:0:0:0:
200,141,1001,5,0,0:0:0:0:
187,125,1084,1,0,0:0:0:0:
174,110,1167,1,0,0:0:0:0:
368,153,1335,5,0,0:0:0:0:
348,177,1418,1,0,0:0:0:0:
329,199,1501,1,0,0:0:0:0:
233,308,1668,5,0,0:0:0:0:
222,279,1751,1,0,0:0:0:0:
213,251,1834,1,0,0:0:0:0:
368,153,2001,5,0,0:0:0:0:
428,153,2085,1,0,0:0:0:0:
487,153,2168,1,0,0:0:0:0:
357,311,2335,5,0,0:0:0:0:
357,311,2501,1,0,0:0:0:0:
187,125,2668,5,0,0:0:0:0:
283,127,2835,2,0,L|323:127,1,39.9999976158142
241,45,3001,1,0,0:0:0:0:
241,204,3168,1,0,0:0:0:0:
459,125,3335,5,0,0:0:0:0:
459,125,3501,1,0,0:0:0:0:
363,127,3668,2,0,L|323:127,1,39.9999976158142
241,204,3834,1,0,0:0:0:0:
241,45,4001,5,0,0:0:0:0:
363,127,4168,1,0,0:0:0:0:
364,166,4251,1,0,0:0:0:0:
365,206,4335,1,0,0:0:0:0:
366,245,4418,1,0,0:0:0:0:
367,284,4501,1,0,0:0:0:0:
367,324,4585,1,0,0:0:0:0:
451,311,4668,5,0,0:0:0:0:
435,274,4751,1,0,0:0:0:0:
404,249,4834,1,0,0:0:0:0:
366,240,4917,1,0,0:0:0:0:
327,249,5001,1,0,0:0:0:0:
297,275,5084,1,0,0:0:0:0:
282,311,5167,1,0,0:0:0:0:
282,311,5335,5,0,0:0:0:0:
371,57,5501,1,0,0:0:0:0:
435,274,5668,1,0,0:0:0:0:
197,96,5835,1,0,0:0:0:0:
201,98,6001,5,0,0:0:0:0:
493,157,6168,1,0,0:0:0:0:
137,253,6335,1,0,0:0:0:0:
276,18,6501,1,0,0:0:0:0:
276,25,6668,5,0,0:0:0:0:
289,290,6835,1,0,0:0:0:0:
82,126,7001,1,0,0:0:0:0:
403,94,7168,1,0,0:0:0:0:
408,97,7335,5,0,0:0:0:0:
146,343,7501,1,0,0:0:0:0:
57,33,7668,1,0,0:0:0:0:
440,258,7835,1,0,0:0:0:0:
441,264,8001,5,0,0:0:0:0:
203,284,8168,1,0,0:0:0:0:
201,266,8251,1,0,0:0:0:0:
199,247,8335,1,0,0:0:0:0:
146,343,8501,1,0,0:0:0:0:
287,364,8668,2,0,P|305:303|294:233,1,119.999997425079
57,33,9001,2,0,P|51:92|69:149,1,119.999997425079
199,247,9335,5,0,0:0:0:0:
198,93,9501,1,0,0:0:0:0:
181,86,9585,1,0,0:0:0:0:
164,79,9668,1,0,0:0:0:0:
2,302,9835,1,0,0:0:0:0:
287,364,10001,5,0,0:0:0:0:
328,321,10084,1,0,0:0:0:0:
345,265,10167,1,0,0:0:0:0:
334,206,10251,1,0,0:0:0:0:
296,161,10335,6,0,P|306:291|457:153,1,359.999992275238
362,75,10668,6,0,P|246:69|196:148,1,159.999990463257
188,167,10918,1,0,0:0:0:0:
188,167,11001,1,0,0:0:0:0:
381,222,11168,1,0,0:0:0:0:
174,12,11335,1,0,0:0:0:0:
148,291,11501,1,0,0:0:0:0:
356,186,11668,5,0,0:0:0:0:
359,131,11751,1,0,0:0:0:0:
362,75,11835,1,0,0:0:0:0:
157,156,12001,5,0,0:0:0:0:
160,211,12084,1,0,0:0:0:0:
163,267,12168,1,0,0:0:0:0:
255,361,12335,5,0,0:0:0:0:
257,317,12418,1,0,0:0:0:0:
259,272,12502,1,0,0:0:0:0:
356,186,12668,5,0,0:0:0:0:
357,221,12751,1,0,0:0:0:0:
359,257,12835,1,0,0:0:0:0:
413,351,13001,5,0,0:0:0:0:
413,351,13168,1,0,0:0:0:0:
493,169,13335,5,0,0:0:0:0:
297,196,13501,2,0,L|205:205,1,79.9999952316285
413,351,13668,1,0,0:0:0:0:
387,184,13835,1,0,0:0:0:0:
91,362,14001,5,0,0:0:0:0:
6,177,14168,1,0,0:0:0:0:
217,203,14335,2,0,L|309:212,1,79.9999952316285
91,362,14501,1,0,0:0:0:0:
114,193,14668,5,0,0:0:0:0:
255,111,14835,1,0,0:0:0:0:
313,101,14918,1,0,0:0:0:0:
364,130,15001,1,0,0:0:0:0:
387,184,15085,1,0,0:0:0:0:
372,241,15168,1,0,0:0:0:0:
395,295,15251,1,0,0:0:0:0:
446,324,15334,1,0,0:0:0:0:
504,314,15417,1,0,0:0:0:0:
497,290,15501,5,0,0:0:0:0:
490,266,15585,1,0,0:0:0:0:
482,243,15668,2,0,P|389:262|303:200,1,159.999990463257
410,149,16001,5,0,0:0:0:0:
299,337,16168,1,0,0:0:0:0:
497,348,16335,1,0,0:0:0:0:
308,137,16501,1,0,0:0:0:0:
151,318,16668,5,0,0:0:0:0:
406,262,16835,1,0,0:0:0:0:
167,167,17001,1,0,0:0:0:0:
295,373,17168,1,0,0:0:0:0:
415,109,17335,5,0,0:0:0:0:
92,233,17501,1,0,0:0:0:0:
394,358,17668,1,0,0:0:0:0:
119,95,17835,1,0,0:0:0:0:
44,353,18001,5,0,0:0:0:0:
498,195,18168,1,0,0:0:0:0:
261,0,18335,1,0,0:0:0:0:
295,373,18501,1,0,0:0:0:0:
458,16,18668,5,0,0:0:0:0:
330,158,18835,1,0,0:0:0:0:
280,182,18918,1,0,0:0:0:0:
227,170,19001,1,0,0:0:0:0:
261,0,19168,1,0,0:0:0:0:
498,195,19335,1,0,0:0:0:0:
174,312,19501,1,0,0:0:0:0:
370,8,19668,5,0,0:0:0:0:
295,373,19835,1,0,0:0:0:0:
33,135,20001,5,0,0:0:0:0:
157,16,20168,2,0,L|142:102,1,79.9999952316285
93,371,20335,1,0,0:0:0:0:
122,222,20501,1,0,0:0:0:0:
329,299,20668,2,0,B|264:298|264:298|234:314|234:314|144:310,1,159.999990463257
295,373,21001,5,0,0:0:0:0:
450,168,21335,5,0,0:0:0:0:
420,195,21418,1,0,0:0:0:0:
384,210,21501,1,0,0:0:0:0:
344,213,21584,1,0,0:0:0:0:
306,202,21668,1,0,0:0:0:0:
274,178,21751,1,0,0:0:0:0:
251,146,21834,1,0,0:0:0:0:
241,107,21918,1,0,0:0:0:0:
245,67,22001,1,0,0:0:0:0:
261,31,22084,1,0,0:0:0:0:
289,3,22168,5,0,0:0:0:0:
307,38,22251,1,0,0:0:0:0:
302,77,22334,1,0,0:0:0:0:
280,110,22417,1,0,0:0:0:0:
246,130,22500,1,0,0:0:0:0:
207,132,22584,1,0,0:0:0:0:
166,130,22668,5,0,0:0:0:0:
128,159,22751,1,0,0:0:0:0:
104,200,22834,1,0,0:0:0:0:
98,248,22917,1,0,0:0:0:0:
109,294,23001,1,0,0:0:0:0:
137,333,23084,1,0,0:0:0:0:
177,358,23167,1,0,0:0:0:0:
224,367,23251,1,0,0:0:0:0:
315,362,23335,6,0,L|371:352,1,39.9999976158142
438,334,23501,1,0,0:0:0:0:
295,223,23668,2,0,P|271:264|277:329,1,79.9999952316285
459,160,24001,5,0,0:0:0:0:
439,125,24084,1,0,0:0:0:0:
412,95,24167,1,0,0:0:0:0:
378,74,24250,1,0,0:0:0:0:
341,60,24334,1,0,0:0:0:0:
301,56,24417,1,0,0:0:0:0:
262,62,24500,1,0,0:0:0:0:
225,77,24584,1,0,0:0:0:0:
192,100,24667,1,0,0:0:0:0:
166,130,24750,1,0,0:0:0:0:
148,166,24834,5,0,0:0:0:0:
196,159,24918,1,0,0:0:0:0:
214,123,25001,1,0,0:0:0:0:
213,84,25084,1,0,0:0:0:0:
194,49,25167,1,0,0:0:0:0:
161,28,25251,1,0,0:0:0:0:
81,18,25335,5,0,0:0:0:0:
84,65,25418,1,0,0:0:0:0:
88,113,25501,1,0,0:0:0:0:
91,161,25584,1,0,0:0:0:0:
95,209,25668,1,0,0:0:0:0:
98,257,25751,1,0,0:0:0:0:
107,304,25835,1,0,0:0:0:0:
113,351,25918,1,0,0:0:0:0:
39,373,26001,6,0,L|0:378,1,39.9999976158142
98,257,26168,1,0,0:0:0:0:
225,306,26335,2,0,P|227:345|217:384,1,79.9999952316285
456,323,26668,5,0,0:0:0:0:
416,327,26751,1,0,0:0:0:0:
376,321,26834,1,0,0:0:0:0:
339,306,26917,1,0,0:0:0:0:
307,282,27001,1,0,0:0:0:0:
282,251,27084,1,0,0:0:0:0:
265,215,27167,1,0,0:0:0:0:
258,176,27251,1,0,0:0:0:0:
260,136,27334,1,0,0:0:0:0:
272,98,27417,1,0,0:0:0:0:
293,64,27501,1,0,0:0:0:0:
321,36,27584,1,0,0:0:0:0:
392,3,27668,6,0,L|395:101,1,79.9999952316285
403,193,27835,1,0,0:0:0:0:
156,42,28001,5,0,0:0:0:0:
195,40,28084,1,0,0:0:0:0:
233,51,28167,1,0,0:0:0:0:
266,74,28250,1,0,0:0:0:0:
289,107,28334,1,0,0:0:0:0:
301,145,28417,1,0,0:0:0:0:
300,185,28500,1,0,0:0:0:0:
286,222,28584,1,0,0:0:0:0:
252,245,28668,5,0,0:0:0:0:
250,205,28751,1,0,0:0:0:0:
262,167,28834,1,0,0:0:0:0:
287,136,28917,1,0,0:0:0:0:
321,115,29001,1,0,0:0:0:0:
360,108,29084,1,0,0:0:0:0:
399,115,29167,1,0,0:0:0:0:
434,135,29251,1,0,0:0:0:0:
482,208,29335,5,0,0:0:0:0:
477,247,29418,1,0,0:0:0:0:
472,286,29501,1,0,0:0:0:0:
467,326,29585,1,0,0:0:0:0:
459,367,29668,2,0,L|347:366,1,59.9999987125397
252,245,29835,2,0,L|364:244,1,59.9999987125397
477,247,30001,5,0,0:0:0:0:
476,253,30085,1,0,0:0:0:0:
475,258,30168,1,0,0:0:0:0:
474,263,30251,1,0,0:0:0:0:
473,269,30335,1,0,0:0:0:0:
472,274,30418,1,0,0:0:0:0:
471,279,30501,1,0,0:0:0:0:
470,285,30585,1,0,0:0:0:0:
470,286,30668,6,0,L|460:360,1,59.9999964237214
461,345,31001,5,0,0:0:0:0:
388,333,31085,2,0,L|337:327,1,39.9999976158142
118,306,31335,5,0,0:0:0:0:
272,54,31501,1,0,0:0:0:0:
254,146,31668,6,0,B|243:193|243:193|250:230|250:230|232:300,1,119.999992847443
216,350,32001,5,0,0:0:0:0:
216,350,32085,1,0,0:0:0:0:
216,350,32168,2,0,P|191:354|149:347,1,47.9999956741335
100,226,32335,2,0,P|125:222|167:229,1,47.9999956741335
335,249,32501,1,0,0:0:0:0:
335,249,32585,1,0,0:0:0:0:
335,249,32668,2,0,P|324:295|305:333,1,47.9999985351563
147,223,32835,2,0,P|139:200|135:176,1,47.9999985351563
176,78,33001,5,0,0:0:0:0:
214,83,33085,1,0,0:0:0:0:
251,88,33168,1,0,0:0:0:0:
288,93,33251,1,0,0:0:0:0:
326,97,33335,2,0,P|409:104|463:53,1,143.999995605469
453,68,33668,2,0,P|425:114|426:173,1,95.9999970703126
471,292,34001,6,0,L|504:287,3,23.9999992675781
403,345,34168,2,0,L|379:341,3,23.9999992675781
389,252,34335,1,0,0:0:0:0:
389,252,34501,1,0,0:0:0:0:
253,373,34668,5,0,0:0:0:0:
253,373,34751,1,0,0:0:0:0:
253,373,34835,2,0,P|237:339|246:296,1,47.9999985351563
372,208,35001,2,0,P|384:228|388:251,1,47.9999985351563
229,202,35168,1,0,0:0:0:0:
229,202,35251,1,0,0:0:0:0:
229,202,35335,2,0,P|251:172|292:157,1,47.9999985351563
388,251,35501,2,0,L|387:326,1,47.9999985351563
156,355,35668,5,0,0:0:0:0:
150,317,35751,1,0,0:0:0:0:
144,278,35835,1,0,0:0:0:0:
139,240,35918,1,0,0:0:0:0:
135,201,36001,2,0,P|204:210|265:151,1,143.999995605469
258,165,36335,2,0,L|248:63,1,95.9999970703126
80,125,36668,6,0,L|47:137,3,23.9999992675781
146,42,36835,2,0,L|179:54,3,23.9999992675781
48,22,37001,1,0,0:0:0:0:
48,22,37168,1,0,0:0:0:0:
41,236,37335,5,0,0:0:0:0:
41,236,37418,1,0,0:0:0:0:
41,236,37501,2,0,L|127:244,1,47.9999985351563
234,148,37668,2,0,L|148:156,1,47.9999985351563
179,299,37835,1,0,0:0:0:0:
179,299,37918,1,0,0:0:0:0:
179,299,38001,2,0,L|200:238,1,47.9999985351563
96,106,38168,2,0,L|75:167,1,47.9999985351563
307,238,38335,5,0,0:0:0:0:
337,215,38418,1,0,0:0:0:0:
356,182,38501,1,0,0:0:0:0:
363,144,38585,1,0,0:0:0:0:
360,105,38668,2,0,P|330:55|215:61,1,143.999995605469
250,39,39001,2,0,L|233:164,1,95.9999970703126
242,267,39335,6,0,L|246:307,3,23.9999992675781
344,335,39501,2,0,L|348:295,3,23.9999992675781
325,206,39668,1,0,0:0:0:0:
325,206,39835,1,0,0:0:0:0:
416,229,40001,5,0,0:0:0:0:
419,190,40084,1,0,0:0:0:0:
407,154,40167,1,0,0:0:0:0:
382,126,40251,1,0,0:0:0:0:
347,109,40334,1,0,0:0:0:0:
309,107,40417,1,0,0:0:0:0:
274,120,40501,1,0,0:0:0:0:
246,147,40584,1,0,0:0:0:0:
227,171,40668,5,0,0:0:0:0:
199,197,40751,1,0,0:0:0:0:
163,210,40834,1,0,0:0:0:0:
125,209,40918,1,0,0:0:0:0:
91,192,41001,1,0,0:0:0:0:
66,163,41084,1,0,0:0:0:0:
54,127,41168,1,0,0:0:0:0:
57,89,41251,1,0,0:0:0:0:
73,71,41335,6,0,L|84:202,1,119.999997425079
22,306,41835,1,0,0:0:0:0:
111,356,42001,2,0,L|188:346,2,59.9999987125397
307,372,42668,5,0,0:0:0:0:
257,254,42835,1,0,0:0:0:0:
257,254,42918,1,0,0:0:0:0:
257,254,43001,1,0,0:0:0:0:
170,348,43168,1,0,0:0:0:0:
348,291,43335,2,0,P|355:237|336:179,1,79.9999952316285
350,212,43585,1,0,0:0:0:0:
350,212,43668,1,0,0:0:0:0:
161,259,43835,1,0,0:0:0:0:
233,384,44001,5,0,0:0:0:0:
348,291,44168,1,0,0:0:0:0:
265,153,44335,1,0,0:0:0:0:
161,259,44501,1,0,0:0:0:0:
331,375,44668,5,0,0:0:0:0:
462,207,44835,1,0,0:0:0:0:
462,207,44918,1,0,0:0:0:0:
462,207,45001,1,0,0:0:0:0:
265,153,45168,1,0,0:0:0:0:
161,259,45335,5,0,0:0:0:0:
200,252,45418,1,0,0:0:0:0:
239,245,45501,1,0,0:0:0:0:
278,238,45585,1,0,0:0:0:0:
317,232,45668,1,0,0:0:0:0:
462,207,45835,1,0,0:0:0:0:
422,356,46001,6,0,P|407:304|406:260,1,79.9999952316285
405,278,46251,1,0,0:0:0:0:
405,278,46335,1,0,0:0:0:0:
491,114,46501,1,0,0:0:0:0:
462,207,46668,5,0,0:0:0:0:
281,157,46835,1,0,0:0:0:0:
181,150,47001,5,0,0:0:0:0:
362,100,47168,1,0,0:0:0:0:
297,278,47335,1,0,0:0:0:0:
291,238,47418,1,0,0:0:0:0:
286,198,47501,1,0,0:0:0:0:
281,157,47585,1,0,0:0:0:0:
276,117,47668,1,0,0:0:0:0:
271,77,47751,1,0,0:0:0:0:
266,36,47835,1,0,0:0:0:0:
462,207,48001,5,0,0:0:0:0:
281,157,48168,1,0,0:0:0:0:
492,35,48335,2,0,P|491:74|481:113,1,79.9999952316285
363,250,48668,5,0,0:0:0:0:
339,17,48835,1,0,0:0:0:0:
191,71,49001,2,0,P|181:112|183:166,1,79.9999952316285
198,325,49335,5,0,0:0:0:0:
270,212,49501,1,0,0:0:0:0:
145,234,49668,1,0,0:0:0:0:
325,330,49835,1,0,0:0:0:0:
198,325,50001,2,0,L|91:323,1,79.9999952316285
118,323,50251,1,0,0:0:0:0:
118,323,50335,1,0,0:0:0:0:
270,212,50501,1,0,0:0:0:0:
403,384,50668,5,0,0:0:0:0:
409,344,50751,1,0,0:0:0:0:
415,304,50835,1,0,0:0:0:0:
421,264,50918,1,0,0:0:0:0:
427,224,51001,1,0,0:0:0:0:
366,103,51168,1,0,0:0:0:0:
196,188,51335,2,0,P|247:212|296:202,1,79.9999952316285
309,204,51585,1,0,0:0:0:0:
309,204,51668,2,0,L|299:299,1,79.9999952316285
289,384,52001,5,0,0:0:0:0:
289,384,52168,5,0,0:0:0:0:
289,384,52335,5,0,0:0:0:0:
289,384,52501,5,0,0:0:0:0:
289,384,52668,5,0,0:0:0:0:
289,225,53335,5,0,0:0:0:0:
256,239,53418,1,0,0:0:0:0:
222,225,53501,1,0,0:0:0:0:
208,192,53585,1,0,0:0:0:0:
222,158,53668,1,0,0:0:0:0:
256,144,53751,1,0,0:0:0:0:
289,158,53835,1,0,0:0:0:0:
303,192,53918,1,0,0:0:0:0:
295,231,54001,5,0,0:0:0:0:
256,248,54085,1,0,0:0:0:0:
216,231,54168,1,0,0:0:0:0:
199,192,54251,1,0,0:0:0:0:
216,152,54335,1,0,0:0:0:0:
256,135,54418,1,0,0:0:0:0:
295,152,54501,1,0,0:0:0:0:
312,192,54585,1,0,0:0:0:0:
305,241,54668,5,0,0:0:0:0:
256,262,54751,1,0,0:0:0:0:
206,241,54835,1,0,0:0:0:0:
185,192,54918,1,0,0:0:0:0:
206,142,55001,1,0,0:0:0:0:
256,121,55085,1,0,0:0:0:0:
305,142,55168,1,0,0:0:0:0:
326,192,55251,1,0,0:0:0:0:
312,248,55335,5,0,0:0:0:0:
256,271,55418,1,0,0:0:0:0:
199,248,55501,1,0,0:0:0:0:
176,192,55585,1,0,0:0:0:0:
199,135,55668,1,0,0:0:0:0:
256,112,55751,1,0,0:0:0:0:
312,135,55835,1,0,0:0:0:0:
335,192,55918,1,0,0:0:0:0:
322,258,56001,5,0,0:0:0:0:
256,286,56085,1,0,0:0:0:0:
189,258,56168,1,0,0:0:0:0:
161,191,56251,1,0,0:0:0:0:
189,125,56335,1,0,0:0:0:0:
256,97,56418,1,0,0:0:0:0:
322,125,56501,1,0,0:0:0:0:
350,192,56585,1,0,0:0:0:0:
322,258,56668,5,0,0:0:0:0:
256,286,56751,1,0,0:0:0:0:
189,258,56835,1,0,0:0:0:0:
161,191,56918,1,0,0:0:0:0:
189,125,57001,1,0,0:0:0:0:
256,97,57085,1,0,0:0:0:0:
322,125,57168,1,0,0:0:0:0:
350,192,57251,1,0,0:0:0:0:
257,196,57335,6,0,L|260:355,1,159.999990463257
393,277,58168,1,0,0:0:0:0:
393,277,58251,1,0,0:0:0:0:
393,277,58335,1,0,0:0:0:0:
257,196,58501,1,0,0:0:0:0:
85,358,58668,6,0,P|60:271|97:157,1,159.999990463257
101,128,58918,1,0,0:0:0:0:
153,69,59001,1,0,0:0:0:0:
229,45,59084,1,0,0:0:0:0:
305,64,59168,1,0,0:0:0:0:
362,119,59251,1,0,0:0:0:0:
385,196,59335,2,0,B|391:255|391:255|380:290|380:290|388:353,1,159.999990463257
464,186,59585,1,0,0:0:0:0:
464,186,59668,2,0,L|475:276,1,79.9999952316285
263,179,59835,1,0,0:0:0:0:
336,112,60001,6,0,L|416:113,1,79.9999952316285
335,241,60168,1,0,0:0:0:0:
208,111,60335,6,0,L|208:31,1,79.9999952316285
336,112,60502,1,0,0:0:0:0:
206,240,60668,6,0,L|126:239,1,79.9999952316285
208,111,60835,1,0,0:0:0:0:
459,186,61001,2,0,L|459:346,1,159.999990463257
336,112,61335,5,0,0:0:0:0:
459,186,61501,1,0,0:0:0:0:
459,242,61585,1,0,0:0:0:0:
459,297,61668,1,0,0:0:0:0:
206,240,61835,1,0,0:0:0:0:
448,87,62001,5,0,0:0:0:0:
333,347,62168,1,0,0:0:0:0:
62,113,62335,1,0,0:0:0:0:
108,81,62418,1,0,0:0:0:0:
163,71,62501,1,0,0:0:0:0:
281,162,62668,5,0,0:0:0:0:
327,194,62751,1,0,0:0:0:0:
382,204,62834,1,0,0:0:0:0:
435,187,62918,1,0,0:0:0:0:
390,153,63001,5,0,0:0:0:0:
387,168,63085,1,0,0:0:0:0:
384,183,63168,1,0,0:0:0:0:
381,198,63251,1,0,0:0:0:0:
378,213,63335,1,0,0:0:0:0:
374,228,63418,5,0,0:0:0:0:
353,252,63501,1,0,0:0:0:0:
314,265,63585,1,0,0:0:0:0:
268,251,63668,1,0,0:0:0:0:
249,198,63751,1,0,0:0:0:0:
269,136,63835,1,0,0:0:0:0:
411,104,64001,5,0,0:0:0:0:
365,353,64168,1,0,0:0:0:0:
269,136,64335,5,0,0:0:0:0:
297,384,64501,1,0,0:0:0:0:
87,97,64668,5,0,0:0:0:0:
31,377,64835,1,0,0:0:0:0:
225,121,65001,5,0,0:0:0:0:
204,368,65168,1,0,0:0:0:0:
175,41,65335,5,0,0:0:0:0:
114,270,65501,1,0,0:0:0:0:
307,20,65668,5,0,0:0:0:0:
295,310,65835,1,0,0:0:0:0:
435,32,66001,5,0,0:0:0:0:
460,313,66168,1,0,0:0:0:0:
223,17,66335,5,0,0:0:0:0:
199,281,66501,1,0,0:0:0:0:
455,178,66668,2,0,B|395:173|395:173|350:185|350:185|253:180,1,159.999990463257
216,177,66918,1,0,0:0:0:0:
136,169,67001,2,0,P|122:123|134:76,1,79.9999952316285
351,20,67168,2,0,P|355:59|341:96,1,79.9999952316285
208,264,67335,2,0,L|17:263,1,159.999990463257
341,96,67668,2,0,L|532:95,1,159.999990463257
401,264,68001,5,0,0:0:0:0:
39,104,68168,1,0,0:0:0:0:
43,183,68251,1,0,0:0:0:0:
48,263,68335,1,0,0:0:0:0:
256,372,68501,1,0,0:0:0:0:
370,91,68668,1,0,0:0:0:0:
301,50,68751,1,0,0:0:0:0:
220,40,68835,1,0,0:0:0:0:
144,65,68918,1,0,0:0:0:0:
80,113,69001,6,0,L|82:165,5,39.9999976158142
81,152,69335,5,0,0:0:0:0:
81,152,69668,1,0,0:0:0:0:
81,152,70001,6,0,L|83:213,1,59.9999987125397
91,317,70168,1,0,0:0:0:0:
198,375,70335,6,0,L|200:313,1,59.9999987125397
208,210,70502,1,0,0:0:0:0:
345,18,70668,6,0,L|347:79,1,59.9999987125397
355,183,70835,1,0,0:0:0:0:
484,377,71001,6,0,L|486:315,1,59.9999987125397
494,212,71168,1,0,0:0:0:0:
276,267,71335,1,0,0:0:0:0:
329,301,71418,1,0,0:0:0:0:
383,333,71501,1,0,0:0:0:0:
335,72,71668,1,0,0:0:0:0:
92,196,71835,1,0,0:0:0:0:
145,13,72001,5,0,0:0:0:0:
335,72,72168,2,0,L|328:172,1,79.9999952316285
0,114,72335,1,0,0:0:0:0:
228,95,72501,1,0,0:0:0:0:
209,343,72668,2,0,P|111:357|-5:331,1,159.999990463257
278,265,73001,2,0,P|315:357|305:386,1,79.9999952316285
104,255,73168,1,0,0:0:0:0:
134,199,73251,1,0,0:0:0:0:
164,141,73335,6,0,B|234:142|234:142|258:126|258:126|350:128,1,159.999990463257
399,137,73585,1,0,0:0:0:0:
447,199,73668,1,0,0:0:0:0:
448,277,73751,1,0,0:0:0:0:
402,341,73834,1,0,0:0:0:0:
326,364,73918,1,0,0:0:0:0:
247,365,74001,2,0,L|153:347,1,79.9999952316285
41,230,74168,2,0,L|119:245,1,79.9999952316285
164,141,74335,6,0,L|156:72,5,39.9999976158142
202,384,74668,5,0,0:0:0:0:
279,90,74835,1,0,0:0:0:0:
38,356,75001,5,0,0:0:0:0:
250,184,75168,1,0,0:0:0:0:
421,354,75335,5,0,0:0:0:0:
279,90,75501,1,0,0:0:0:0:
119,342,75668,5,0,0:0:0:0:
264,12,75835,1,0,0:0:0:0:
353,344,76001,5,0,0:0:0:0:
194,35,76168,1,0,0:0:0:0:
199,349,76335,5,0,0:0:0:0:
321,39,76501,1,0,0:0:0:0:
481,215,76668,5,0,0:0:0:0:
86,172,76835,1,0,0:0:0:0:
26,284,77001,5,0,0:0:0:0:
447,128,77168,1,0,0:0:0:0:
236,370,77335,6,0,P|184:261|199:212,1,159.999990463257
272,144,77585,2,0,L|354:209,1,79.9999952316285
292,273,77835,1,0,0:0:0:0:
184,59,78001,5,0,0:0:0:0:
400,92,78168,1,0,0:0:0:0:
82,276,78335,1,0,0:0:0:0:
339,365,78501,1,0,0:0:0:0:
510,240,78668,5,0,0:0:0:0:
188,50,78835,1,0,0:0:0:0:
124,44,78918,1,0,0:0:0:0:
60,45,79001,1,0,0:0:0:0:
2,240,79168,5,0,0:0:0:0:
324,50,79335,1,0,0:0:0:0:
388,44,79418,1,0,0:0:0:0:
452,45,79501,1,0,0:0:0:0:
443,67,79585,1,0,0:0:0:0:
435,89,79668,1,0,0:0:0:0:
427,111,79751,1,0,0:0:0:0:
419,134,79835,1,0,0:0:0:0:
416,157,79918,1,0,0:0:0:0:
438,234,80001,5,0,0:0:0:0:
440,263,80084,1,0,0:0:0:0:
434,292,80167,1,0,0:0:0:0:
419,318,80250,1,0,0:0:0:0:
397,339,80334,1,0,0:0:0:0:
370,351,80417,1,0,0:0:0:0:
340,355,80500,1,0,0:0:0:0:
311,350,80584,1,0,0:0:0:0:
284,336,80668,5,0,0:0:0:0:
276,288,80751,1,0,0:0:0:0:
253,247,80834,1,0,0:0:0:0:
216,216,80917,1,0,0:0:0:0:
172,199,81001,1,0,0:0:0:0:
124,199,81084,1,0,0:0:0:0:
79,216,81167,1,0,0:0:0:0:
46,251,81251,1,0,0:0:0:0:
106,252,81335,5,0,0:0:0:0:
160,229,81418,1,0,0:0:0:0:
196,182,81501,1,0,0:0:0:0:
203,123,81584,1,0,0:0:0:0:
179,69,81668,1,0,0:0:0:0:
130,34,81751,1,0,0:0:0:0:
71,29,81834,1,0,0:0:0:0:
18,55,81918,1,0,0:0:0:0:
36,99,82001,5,0,0:0:0:0:
61,139,82084,1,0,0:0:0:0:
98,170,82167,1,0,0:0:0:0:
141,190,82250,1,0,0:0:0:0:
188,198,82334,1,0,0:0:0:0:
236,191,82417,1,0,0:0:0:0:
279,172,82500,1,0,0:0:0:0:
316,141,82584,1,0,0:0:0:0:
342,101,82667,5,0,0:0:0:0:
344,131,82751,1,0,0:0:0:0:
346,161,82834,1,0,0:0:0:0:
348,191,82917,1,0,0:0:0:0:
350,221,83001,1,0,0:0:0:0:
351,251,83084,1,0,0:0:0:0:
353,280,83167,1,0,0:0:0:0:
355,310,83251,1,0,0:0:0:0:
403,310,83335,5,0,0:0:0:0:
394,263,83418,1,0,0:0:0:0:
369,222,83501,1,0,0:0:0:0:
330,194,83584,1,0,0:0:0:0:
284,183,83668,1,0,0:0:0:0:
237,189,83751,1,0,0:0:0:0:
196,213,83834,1,0,0:0:0:0:
166,251,83918,1,0,0:0:0:0:
131,313,84001,6,0,L|135:354,7,39.9999976158142
233,229,84668,2,0,L|236:189,7,39.9999976158142
373,79,85335,5,0,0:0:0:0:
368,98,85418,1,0,0:0:0:0:
363,117,85501,1,0,0:0:0:0:
358,136,85585,1,0,0:0:0:0:
351,154,85668,1,0,0:0:0:0:
345,173,85751,1,0,0:0:0:0:
340,192,85835,1,0,0:0:0:0:
335,211,85918,1,0,0:0:0:0:
325,249,86001,5,0,0:0:0:0:
333,288,86085,1,0,0:0:0:0:
360,316,86168,1,0,0:0:0:0:
398,326,86251,1,0,0:0:0:0:
437,317,86335,1,0,0:0:0:0:
466,289,86418,1,0,0:0:0:0:
470,249,86501,1,0,0:0:0:0:
452,212,86585,1,0,0:0:0:0:
417,191,86668,5,0,0:0:0:0:
377,189,86751,1,0,0:0:0:0:
340,206,86835,1,0,0:0:0:0:
308,230,86918,1,0,0:0:0:0:
282,260,87001,1,0,0:0:0:0:
255,290,87085,1,0,0:0:0:0:
220,310,87168,1,0,0:0:0:0:
181,321,87251,1,0,0:0:0:0:
140,317,87335,5,0,0:0:0:0:
107,287,87418,1,0,0:0:0:0:
91,246,87501,1,0,0:0:0:0:
96,202,87585,1,0,0:0:0:0:
116,163,87668,1,0,0:0:0:0:
151,136,87751,1,0,0:0:0:0:
192,120,87835,1,0,0:0:0:0:
235,118,87918,1,0,0:0:0:0:
269,137,88001,5,0,0:0:0:0:
303,157,88085,1,0,0:0:0:0:
341,167,88168,1,0,0:0:0:0:
380,160,88251,1,0,0:0:0:0:
411,134,88335,1,0,0:0:0:0:
418,94,88418,1,0,0:0:0:0:
408,55,88501,1,0,0:0:0:0:
374,32,88585,1,0,0:0:0:0:
334,34,88668,5,0,0:0:0:0:
300,67,88751,1,0,0:0:0:0:
283,112,88835,1,0,0:0:0:0:
292,158,88918,1,0,0:0:0:0:
326,191,89001,1,0,0:0:0:0:
360,224,89085,1,0,0:0:0:0:
383,265,89168,1,0,0:0:0:0:
391,312,89251,1,0,0:0:0:0:
375,321,89335,5,0,0:0:0:0:
359,329,89418,1,0,0:0:0:0:
342,336,89501,1,0,0:0:0:0:
325,343,89585,1,0,0:0:0:0:
308,351,89668,1,0,0:0:0:0:
291,359,89751,1,0,0:0:0:0:
274,366,89835,1,0,0:0:0:0:
257,372,89918,1,0,0:0:0:0:
239,377,90001,6,0,P|172:373|135:354,1,89.9999980688095
54,357,90335,2,0,P|21:307|18:248,1,119.999997425079
23,158,90668,5,0,0:0:0:0:
48,127,90751,1,0,0:0:0:0:
84,109,90834,1,0,0:0:0:0:
123,104,90917,1,0,0:0:0:0:
162,114,91001,1,0,0:0:0:0:
194,137,91084,1,0,0:0:0:0:
216,170,91167,1,0,0:0:0:0:
225,209,91251,1,0,0:0:0:0:
235,248,91335,5,0,0:0:0:0:
265,279,91418,1,0,0:0:0:0:
305,296,91501,1,0,0:0:0:0:
349,296,91584,1,0,0:0:0:0:
389,279,91668,1,0,0:0:0:0:
420,248,91751,1,0,0:0:0:0:
436,207,91834,1,0,0:0:0:0:
435,167,91918,1,0,0:0:0:0:
420,130,92001,5,0,0:0:0:0:
387,89,92084,1,0,0:0:0:0:
345,59,92167,1,0,0:0:0:0:
296,43,92250,1,0,0:0:0:0:
244,41,92334,1,0,0:0:0:0:
194,55,92417,1,0,0:0:0:0:
150,82,92500,1,0,0:0:0:0:
116,121,92584,1,0,0:0:0:0:
113,161,92668,5,0,0:0:0:0:
164,191,92751,1,0,0:0:0:0:
222,204,92834,1,0,0:0:0:0:
281,197,92917,1,0,0:0:0:0:
335,171,93001,1,0,0:0:0:0:
378,129,93084,1,0,0:0:0:0:
404,75,93167,1,0,0:0:0:0:
388,17,93251,1,0,0:0:0:0:
350,31,93335,5,0,0:0:0:0:
334,67,93418,1,0,0:0:0:0:
328,107,93501,1,0,0:0:0:0:
330,147,93584,1,0,0:0:0:0:
341,185,93668,1,0,0:0:0:0:
360,220,93751,1,0,0:0:0:0:
386,250,93834,1,0,0:0:0:0:
419,273,93918,1,0,0:0:0:0:
458,275,94001,5,0,0:0:0:0:
446,228,94084,1,0,0:0:0:0:
421,187,94167,1,0,0:0:0:0:
384,157,94250,1,0,0:0:0:0:
340,139,94334,1,0,0:0:0:0:
292,137,94417,1,0,0:0:0:0:
246,149,94500,1,0,0:0:0:0:
206,176,94584,1,0,0:0:0:0:
177,213,94667,5,0,0:0:0:0:
179,221,94751,1,0,0:0:0:0:
181,228,94835,1,0,0:0:0:0:
183,235,94918,1,0,0:0:0:0:
185,242,95001,1,0,0:0:0:0:
187,249,95085,1,0,0:0:0:0:
189,256,95168,1,0,0:0:0:0:
191,263,95251,1,0,0:0:0:0:
193,270,95335,6,0,P|164:279|143:280,7,39.9999976158142
427,273,96001,5,0,0:0:0:0:
420,213,96084,1,0,0:0:0:0:
394,160,96167,1,0,0:0:0:0:
350,120,96250,1,0,0:0:0:0:
294,98,96334,1,0,0:0:0:0:
234,97,96417,1,0,0:0:0:0:
178,118,96500,1,0,0:0:0:0:
134,157,96584,1,0,0:0:0:0:
107,211,96668,5,0,0:0:0:0:
171,217,96751,1,0,0:0:0:0:
228,186,96834,1,0,0:0:0:0:
258,128,96917,1,0,0:0:0:0:
250,64,97001,1,0,0:0:0:0:
207,15,97084,1,0,0:0:0:0:
145,0,97167,1,0,0:0:0:0:
83,21,97251,1,0,0:0:0:0:
69,92,97335,5,0,0:0:0:0:
70,163,97418,1,0,0:0:0:0:
102,227,97501,1,0,0:0:0:0:
158,270,97584,1,0,0:0:0:0:
228,285,97668,1,0,0:0:0:0:
297,268,97751,1,0,0:0:0:0:
345,214,97835,1,0,0:0:0:0:
350,142,97918,1,0,0:0:0:0:
284,170,98001,5,0,0:0:0:0:
254,221,98084,1,0,0:0:0:0:
254,281,98167,1,0,0:0:0:0:
283,332,98250,1,0,0:0:0:0:
334,363,98334,1,0,0:0:0:0:
393,365,98417,1,0,0:0:0:0:
446,338,98500,1,0,0:0:0:0:
479,289,98584,1,0,0:0:0:0:
398,268,98668,5,0,0:0:0:0:
383,265,98751,1,0,0:0:0:0:
368,262,98835,1,0,0:0:0:0:
353,259,98918,1,0,0:0:0:0:
338,256,99001,1,0,0:0:0:0:
323,252,99085,1,0,0:0:0:0:
308,249,99168,1,0,0:0:0:0:
293,244,99251,1,0,0:0:0:0:
219,208,99335,5,0,0:0:0:0:
205,213,99418,1,0,0:0:0:0:
190,218,99501,1,0,0:0:0:0:
175,223,99585,1,0,0:0:0:0:
161,230,99668,1,0,0:0:0:0:
147,237,99751,1,0,0:0:0:0:
133,244,99835,1,0,0:0:0:0:
119,250,99918,1,0,0:0:0:0:
101,259,100001,6,0,P|65:267|37:264,7,39.9999976158142
197,331,100668,2,0,P|161:323|133:326,7,39.9999976158142
84,368,101335,5,0,0:0:0:0:
